<?xml version="1.0" standalone="no"?>
<!DOCTYPE svg PUBLIC "-//W3C//DTD SVG 1.1//EN" "http://www.w3.org/Graphics/SVG/1.1/DTD/svg11.dtd" >
<svg xmlns="http://www.w3.org/2000/svg" xmlns:xlink="http://www.w3.org/1999/xlink" version="1.1">
<metadata>
Created by FontForge 20201107 at Wed Aug 11 21:25:12 2021
 By 
Copyright 2019 The Work Sans Project Authors (https://github.com/weiweihuanghuang/Work-Sans)
</metadata>
<defs>
<font id="WorkSans-SemiBold" horiz-adv-x="578" >
  <font-face 
    font-family="Work Sans SemiBold"
    font-weight="600"
    font-stretch="normal"
    units-per-em="1000"
    panose-1="0 0 0 0 0 0 0 0 0 0"
    ascent="800"
    descent="-200"
    x-height="500"
    cap-height="660"
    bbox="-239 -339 1304 1095"
    underline-thickness="50"
    underline-position="-125"
    unicode-range="U+000D-FB02"
  />
<missing-glyph horiz-adv-x="500" 
d="M130 80v500h240v-500h-240zM50 0h400v660h-400v-660z" />
    <glyph glyph-name="fi" unicode="fi" horiz-adv-x="689" 
d="M295 729q35 0 63.5 -7.5t42.5 -18.5l-19 -91q-11 7 -25 11t-33 4q-39 0 -62 -17.5t-23 -59.5v-69l6 -27v-454h-137v560q0 42 14 74t39 53t59.5 31.5t74.5 10.5zM397 500v-102h-376v102h376zM548 572q-43 0 -64 18.5t-21 54.5q0 37 21 55.5t64 18.5t64 -18.5t21 -55.5
q0 -36 -21 -54.5t-64 -18.5zM616 500v-500h-137v500h137z" />
    <glyph glyph-name="fl" unicode="fl" horiz-adv-x="726" 
d="M295 729q35 0 63.5 -7.5t42.5 -18.5l-19 -91q-11 7 -25 11t-33 4q-39 0 -62 -17.5t-23 -59.5v-69l6 -27v-454h-137v560q0 42 14 74t39 53t59.5 31.5t74.5 10.5zM397 500v-102h-376v102h376zM614 719v-565q0 -35 12 -49t40 -14q17 0 28 2.5t28 7.5l-12 -90
q-17 -10 -42.5 -15.5t-50.5 -5.5q-73 0 -106.5 35.5t-33.5 113.5v580h137z" />
    <glyph glyph-name="f_f" unicode="ff" horiz-adv-x="806" 
d="M295 729q35 0 63.5 -7.5t42.5 -18.5l-19 -91q-11 7 -25 11t-33 4q-39 0 -62 -17.5t-23 -59.5v-69l6 -27v-454h-137v560q0 42 14 74t39 53t59.5 31.5t74.5 10.5zM397 500v-102h-376v102h376zM694 729q35 0 63.5 -7.5t42.5 -18.5l-19 -91q-11 7 -25 11t-33 4
q-39 0 -62 -17.5t-23 -59.5v-69l6 -27v-454h-137v560q0 42 14 74t39 53t59.5 31.5t74.5 10.5zM796 500v-102h-376v102h376z" />
    <glyph glyph-name="f_f_i" unicode="ffi" horiz-adv-x="1088" 
d="M295 729q35 0 63.5 -7.5t42.5 -18.5l-19 -91q-11 7 -25 11t-33 4q-39 0 -62 -17.5t-23 -59.5v-69l6 -27v-454h-137v560q0 42 14 74t39 53t59.5 31.5t74.5 10.5zM397 500v-102h-376v102h376zM694 729q35 0 63.5 -7.5t42.5 -18.5l-19 -91q-11 7 -25 11t-33 4
q-39 0 -62 -17.5t-23 -59.5v-69l6 -27v-454h-137v560q0 42 14 74t39 53t59.5 31.5t74.5 10.5zM796 500v-102h-376v102h376zM947 572q-43 0 -64 18.5t-21 54.5q0 37 21 55.5t64 18.5t64 -18.5t21 -55.5q0 -36 -21 -54.5t-64 -18.5zM1015 500v-500h-137v500h137z" />
    <glyph glyph-name="f_f_l" unicode="ffl" horiz-adv-x="1125" 
d="M295 729q35 0 63.5 -7.5t42.5 -18.5l-19 -91q-11 7 -25 11t-33 4q-39 0 -62 -17.5t-23 -59.5v-69l6 -27v-454h-137v560q0 42 14 74t39 53t59.5 31.5t74.5 10.5zM397 500v-102h-376v102h376zM694 729q35 0 63.5 -7.5t42.5 -18.5l-19 -91q-11 7 -25 11t-33 4
q-39 0 -62 -17.5t-23 -59.5v-69l6 -27v-454h-137v560q0 42 14 74t39 53t59.5 31.5t74.5 10.5zM796 500v-102h-376v102h376zM1013 719v-565q0 -35 12 -49t40 -14q17 0 28 2.5t28 7.5l-12 -90q-17 -10 -42.5 -15.5t-50.5 -5.5q-73 0 -106.5 35.5t-33.5 113.5v580h137z" />
    <glyph glyph-name=".notdef" horiz-adv-x="500" 
d="M130 80v500h240v-500h-240zM50 0h400v660h-400v-660z" />
    <glyph glyph-name=".null" horiz-adv-x="0" 
 />
    <glyph glyph-name="nonmarkingreturn" horiz-adv-x="333" 
 />
    <glyph glyph-name="NULL" horiz-adv-x="0" 
 />
    <glyph glyph-name="NULL" horiz-adv-x="0" 
 />
    <glyph glyph-name="CR" unicode="&#xd;" horiz-adv-x="306" 
 />
    <glyph glyph-name="space" unicode=" " horiz-adv-x="306" 
 />
    <glyph glyph-name="exclam" unicode="!" horiz-adv-x="291" 
d="M217 660v-240l-17 -207h-110l-17 207v240h144zM145 145q39 0 62 -21t23 -56q0 -36 -23 -56.5t-62 -20.5t-62 20.5t-23 56.5q0 35 23 56t62 21z" />
    <glyph glyph-name="quotedbl" unicode="&#x22;" horiz-adv-x="431" 
d="M379 682l-28 -266h-94v266h122zM192 682l-28 -266h-94v266h122z" />
    <glyph glyph-name="numbersign" unicode="#" horiz-adv-x="670" 
d="M555 660l-108 -660h-98l108 660h98zM603 256v-87h-579v87h579zM314 660l-108 -660h-98l107 660h99zM646 492v-87h-579v87h579z" />
    <glyph glyph-name="dollar" unicode="$" horiz-adv-x="634" 
d="M323 1q-66 0 -122 16t-99.5 44t-72.5 65l76 90q22 -34 57 -58.5t79 -38t90 -13.5q61 0 96 20t35 59q0 25 -19.5 43t-67.5 29l-140 32q-56 13 -96 36t-60.5 56.5t-20.5 77.5q0 58 31.5 103t90 72t141.5 27q87 0 153 -30t113 -89l-73 -83q-40 51 -88.5 74.5t-112.5 23.5
q-45 0 -73 -10.5t-41.5 -28.5t-13.5 -41q0 -18 8 -32t30.5 -25.5t64.5 -21.5l120 -27q94 -21 135.5 -61.5t41.5 -107.5q0 -64 -33 -109t-92.5 -68.5t-136.5 -23.5zM276 -92v844h93v-844h-93z" />
    <glyph glyph-name="percent" unicode="%" horiz-adv-x="908" 
d="M177 0l445 660h110l-445 -660h-110zM210 670q54 0 93.5 -23t61 -65t21.5 -98t-21.5 -97.5t-61 -65t-93.5 -23.5q-53 0 -93 23.5t-61.5 65t-21.5 97.5t21.5 98t61.5 65t93 23zM210 575q-22 0 -38 -10.5t-24 -31t-8 -49.5q0 -28 8 -48.5t24 -31t38 -10.5q23 0 38.5 10.5
t23.5 31t8 48.5q0 29 -8 49.5t-23.5 31t-38.5 10.5zM698 362q53 0 92.5 -23.5t61.5 -65t22 -97.5t-22 -98t-61.5 -65t-92.5 -23t-93 23t-61.5 65t-21.5 98t21.5 97.5t61.5 65t93 23.5zM698 266q-23 0 -38.5 -10.5t-23.5 -30.5t-8 -49q0 -28 8 -49t23.5 -31.5t38.5 -10.5
t38.5 10.5t23.5 31.5t8 49q0 29 -8 49t-23.5 30.5t-38.5 10.5z" />
    <glyph glyph-name="ampersand" unicode="&#x26;" horiz-adv-x="638" 
d="M258 -10q-68 0 -118.5 21.5t-78 62t-27.5 97.5q0 29 8 58t28.5 55.5t56 48.5t90.5 35l35 14q41 24 65 43.5t34.5 40t10.5 46.5q0 29 -18 45.5t-48 16.5q-34 0 -51.5 -19.5t-17.5 -48.5q0 -17 5.5 -33t21.5 -39.5t47.5 -61.5t84.5 -99q53 -60 88 -98t60.5 -57.5t49 -26
t53.5 -3.5l-17 -98q-37 0 -66.5 6.5t-61.5 27t-74.5 61.5t-103.5 110q-64 70 -104.5 117t-62.5 80t-31 60t-9 57q0 40 20 77t62 60.5t108 23.5q59 0 97.5 -20t58 -53t19.5 -74t-17 -77t-56.5 -65t-107.5 -53l-32 -16q-41 -21 -64 -40t-32 -40.5t-9 -50.5t16 -51t43 -34
t62 -12q50 0 86 17t68 46l15 17q21 35 33.5 79t9.5 101l97 -4q2 -64 -17.5 -122t-59.5 -102l-24 -23q-35 -47 -91.5 -75t-133.5 -28z" />
    <glyph glyph-name="quotesingle" unicode="'" horiz-adv-x="244" 
d="M192 682l-28 -266h-94v266h122z" />
    <glyph glyph-name="parenleft" unicode="(" horiz-adv-x="376" 
d="M291 741l68 -66q-60 -54 -97 -114.5t-53.5 -130.5t-16.5 -154t16.5 -154.5t53.5 -130.5t97 -115l-68 -67q-111 83 -168.5 200t-57.5 267q0 149 57.5 266.5t168.5 198.5z" />
    <glyph glyph-name="parenright" unicode=")" horiz-adv-x="376" 
d="M85 -191l-68 67q60 55 97 115t53.5 130.5t16.5 153.5q0 85 -16.5 155t-53.5 130.5t-97 114.5l68 66q111 -81 168.5 -198.5t57.5 -267.5q0 -149 -57.5 -266t-168.5 -200z" />
    <glyph glyph-name="asterisk" unicode="*" horiz-adv-x="582" 
d="M314 503l83 -80l78 -105l-81 -59l-76 107l-50 103l23 17zM268 503l23 -17l23 -17l-50 -103l-76 -107l-81 59l79 105zM74 609l125 -42l101 -53l-9 -28l-9 -28l-113 17l-125 39zM341 730l-2 -131l-19 -113h-29h-29l-19 113l-3 131h101zM508 609l30 -95l-125 -39l-113 -17
l-9 28l-9 28l101 53z" />
    <glyph glyph-name="plus" unicode="+" horiz-adv-x="604" 
d="M359 580v-517h-113v517h113zM550 374v-105h-496v105h496z" />
    <glyph glyph-name="comma" unicode="," horiz-adv-x="281" 
d="M139 153q32 0 53 -15.5t32 -41t11 -56.5q0 -41 -16.5 -79t-45.5 -68t-66 -47l-60 47q28 11 50.5 27t38.5 36t23 41l-5 3q-5 -3 -12 -5.5t-20 -2.5q-16 0 -32 8.5t-27 25t-11 41.5q0 27 12 46t32 29.5t43 10.5z" />
    <glyph glyph-name="hyphen" unicode="-" horiz-adv-x="521" 
d="M437 324v-118h-353v118h353z" />
    <glyph glyph-name="period" unicode="." horiz-adv-x="281" 
d="M141 153q40 0 63.5 -22t23.5 -59q0 -38 -23.5 -59.5t-63.5 -21.5t-63.5 21.5t-23.5 59.5q0 37 23.5 59t63.5 22z" />
    <glyph glyph-name="slash" unicode="/" horiz-adv-x="456" 
d="M437 719l-290 -789h-127l289 789h128z" />
    <glyph glyph-name="zero" unicode="0" horiz-adv-x="636" 
d="M318 -10q-127 0 -195.5 86t-68.5 254t68.5 254t195.5 86t195.5 -86t68.5 -254t-68.5 -254t-195.5 -86zM318 101q43 0 70.5 24.5t41.5 75t14 129.5t-14 129.5t-41.5 75t-70.5 24.5t-71 -24.5t-41.5 -75t-13.5 -129.5t13.5 -129.5t41.5 -75t71 -24.5z" />
    <glyph glyph-name="one" unicode="1" horiz-adv-x="416" 
d="M197 0v418q0 23 0.5 47.5t1.5 50.5q-34 -31 -76 -54t-86 -32l-18 116q23 2 51.5 13.5t58 28t54 35t37.5 37.5h112v-660h-135z" />
    <glyph glyph-name="two" unicode="2" horiz-adv-x="591" 
d="M65 0v94q90 60 152.5 109.5t101 92t56 80.5t17.5 76q0 46 -28 75.5t-79 29.5q-56 0 -87.5 -38t-34.5 -108l-119 45q5 68 36.5 115.5t86 73t126.5 25.5q60 0 104.5 -17t74.5 -46.5t44.5 -67.5t14.5 -79q0 -64 -31.5 -121t-96.5 -113t-165 -118v-1q15 1 36.5 2t44.5 1.5
t40 0.5h182v-111h-476z" />
    <glyph glyph-name="three" unicode="3" horiz-adv-x="589" 
d="M297 -10q-99 0 -168.5 41.5t-95.5 119.5l130 57q7 -36 23 -59.5t43.5 -35.5t65.5 -12q34 0 57.5 12.5t36.5 34t13 50.5t-12 48t-34.5 27.5t-57.5 8.5q-13 0 -24.5 -0.5t-25.5 -2.5v101q8 -1 16.5 -1.5t17.5 -0.5q56 0 80.5 22.5t24.5 72.5q0 41 -24.5 63.5t-69.5 22.5
q-48 0 -76 -23.5t-39 -71.5l-123 46q12 50 46.5 86t85.5 55.5t113 19.5q74 0 123.5 -23t75 -63t25.5 -92q0 -41 -12.5 -69.5t-32 -48t-40.5 -29.5t-39 -12v-3q23 -1 47 -9.5t44.5 -25.5t33.5 -43.5t13 -62.5q0 -60 -31.5 -105.5t-85.5 -70t-124 -24.5z" />
    <glyph glyph-name="four" unicode="4" horiz-adv-x="633" 
d="M366 0v155h-322v90q5 10 14.5 24.5t21.5 33.5l246 357h165v-405h107v-100h-107v-155h-125zM162 255h205v218q0 21 1 45t2 47h-2q-11 -22 -26.5 -47.5t-28.5 -45.5l-138 -198q-3 -5 -6.5 -9.5t-6.5 -9.5z" />
    <glyph glyph-name="five" unicode="5" horiz-adv-x="582" 
d="M286 -10q-87 0 -146.5 36t-97.5 110l124 62q13 -44 41 -71t82 -27q37 0 63 13t40.5 38t14.5 61t-13.5 60.5t-38.5 37t-63 12.5q-26 0 -48.5 -5t-40.5 -15.5t-32 -27.5l-108 20l41 366h399v-111h-295l-20 -161l-3 -13h2q21 24 57.5 37t83.5 13q65 0 111 -26t71 -72.5
t25 -106.5q0 -57 -19 -100.5t-53.5 -72t-79.5 -43t-97 -14.5z" />
    <glyph glyph-name="six" unicode="6" horiz-adv-x="613" 
d="M335 670q53 0 96 -14.5t75.5 -46t50.5 -83.5l-116 -54q-12 39 -39.5 61.5t-75.5 22.5q-34 0 -60.5 -16.5t-45.5 -46t-29 -71t-10 -91.5v-6.5v-10.5l3 -4q11 35 38.5 58t62 34t68.5 11q63 0 111.5 -24.5t76 -70.5t27.5 -110q0 -66 -29.5 -115.5t-83 -76t-127.5 -26.5
q-84 0 -145.5 40t-95 115t-33.5 181q0 115 37 191.5t101 114.5t143 38zM326 312q-33 0 -58 -13.5t-40 -37t-15 -54.5t15.5 -55t41 -38t56.5 -14q53 0 82.5 28t29.5 79q0 32 -13 56t-38 36.5t-61 12.5z" />
    <glyph glyph-name="seven" unicode="7" horiz-adv-x="591" 
d="M35 660h523v-105q-83 -83 -132 -171t-70.5 -183t-21.5 -201h-137q0 110 27.5 211.5t85 194t146.5 177.5l28 -36h-449v113z" />
    <glyph glyph-name="eight" unicode="8" horiz-adv-x="623" 
d="M311 668q71 0 123.5 -21.5t81 -61t28.5 -95.5q0 -52 -25.5 -90t-73.5 -58v-1q58 -21 91 -61t33 -101q0 -58 -31.5 -100t-89 -65.5t-137.5 -23.5q-79 0 -136.5 23.5t-89 65.5t-31.5 100q0 60 33 100.5t92 61.5v1q-48 19 -74 57.5t-26 90.5q0 56 28.5 95.5t81.5 61
t122 21.5zM312 562q-47 0 -74.5 -23t-27.5 -64t27.5 -64t74.5 -23q46 0 73.5 23t27.5 64t-27 64t-74 23zM312 97q38 0 65 11t41.5 33t14.5 52t-14.5 52t-42 33.5t-64.5 11.5t-65 -11.5t-43 -33.5t-15 -52t15 -52t42.5 -33t65.5 -11z" />
    <glyph glyph-name="nine" unicode="9" horiz-adv-x="617" 
d="M294 670q88 0 148 -40.5t90.5 -116t30.5 -181.5q0 -117 -33 -192.5t-93.5 -112.5t-141.5 -37q-85 0 -146.5 36t-92.5 110l127 54q11 -41 38.5 -65.5t76.5 -24.5q39 0 66 15.5t43.5 44.5t24 71t7.5 94v7v7h-4q-11 -35 -37.5 -57.5t-60.5 -33t-70 -10.5q-63 0 -111.5 25.5
t-76.5 72t-28 108.5q0 70 30 120.5t84.5 78t128.5 27.5zM295 558q-53 0 -82.5 -29.5t-29.5 -82.5q0 -47 30.5 -73.5t81.5 -26.5q33 0 58.5 13t39.5 37t14 55q0 33 -14 57t-39.5 37t-58.5 13z" />
    <glyph glyph-name="colon" unicode=":" horiz-adv-x="300" 
d="M150 510q40 0 63.5 -22t23.5 -59q0 -38 -23.5 -59.5t-63.5 -21.5t-63.5 21.5t-23.5 59.5q0 37 23.5 59t63.5 22zM150 153q40 0 63.5 -22t23.5 -59q0 -38 -23.5 -59.5t-63.5 -21.5t-63.5 21.5t-23.5 59.5q0 37 23.5 59t63.5 22z" />
    <glyph glyph-name="semicolon" unicode=";" horiz-adv-x="300" 
d="M148 153q32 0 53 -15.5t32 -41t11 -56.5q0 -41 -16.5 -79t-45.5 -68t-66 -47l-60 47q28 11 50.5 27t38.5 36t23 41l-5 3q-5 -3 -12 -5.5t-20 -2.5q-16 0 -32 8.5t-27 25t-11 41.5q0 27 12 46t32 29.5t43 10.5zM150 510q40 0 63.5 -22t23.5 -59q0 -38 -23.5 -59.5
t-63.5 -21.5t-63.5 21.5t-23.5 59.5q0 37 23.5 59t63.5 22z" />
    <glyph glyph-name="less" unicode="&#x3c;" horiz-adv-x="604" 
d="M551 14l-485 220v127l485 221v-132l-378 -151l378 -152v-133z" />
    <glyph glyph-name="equal" unicode="=" horiz-adv-x="604" 
d="M540 468v-102h-476v102h476zM540 257v-101h-476v101h476z" />
    <glyph glyph-name="greater" unicode="&#x3e;" horiz-adv-x="604" 
d="M53 582l485 -221v-127l-485 -220v131l378 151l-378 153v133z" />
    <glyph glyph-name="question" unicode="?" horiz-adv-x="583" 
d="M295 670q71 0 126 -21t86 -61.5t31 -99.5q0 -60 -25.5 -98.5t-68.5 -58.5t-95 -26l-7 -93h-125l1 151q66 8 104 21.5t53.5 34.5t15.5 50q0 28 -11.5 47t-34.5 29t-59 10q-52 0 -83 -29.5t-38 -83.5l-130 50q12 52 44 92.5t85.5 63t130.5 22.5zM281 145q39 0 62 -21
t23 -56q0 -36 -23 -56.5t-62 -20.5t-62 20.5t-23 56.5q0 35 23 56t62 21z" />
    <glyph glyph-name="at" unicode="@" horiz-adv-x="941" 
d="M473 -189q-93 0 -170.5 28.5t-134 82t-87.5 130.5t-31 175q0 96 33 176t93 138.5t141 90t177 31.5q91 0 164 -28.5t125 -80.5t79.5 -122.5t27.5 -153.5q0 -73 -18.5 -127t-50 -89t-69.5 -52t-76 -17q-64 0 -95.5 32t-28.5 83q-22 -48 -65 -75.5t-91 -27.5
q-47 0 -83.5 23.5t-57 66.5t-20.5 102q0 53 16 101t45 85.5t69.5 59.5t90.5 22q33 0 61 -12t48 -35t27 -58l23 96h119l-70 -301q-2 -11 -4 -21t-2 -19q0 -27 13.5 -37.5t33.5 -10.5q31 0 57 22.5t42.5 68.5t16.5 117t-23.5 130.5t-66.5 101.5t-102.5 65t-132.5 23
q-81 0 -148 -26t-116 -74t-75.5 -116t-26.5 -152q0 -85 26.5 -149.5t74.5 -108.5t111 -66.5t135 -22.5q76 0 122.5 19t81.5 42l35 -58q-27 -19 -60.5 -35.5t-77.5 -26.5t-105 -10zM446 96q35 0 62 25.5t42 66t15 85.5q0 31 -10 53t-29.5 34t-46.5 12q-29 0 -52 -14.5
t-39.5 -39.5t-25 -55.5t-8.5 -62.5q0 -33 10.5 -56t31.5 -35.5t50 -12.5z" />
    <glyph glyph-name="A" unicode="A" horiz-adv-x="671" 
d="M659 0h-143l-55 161h-253l-55 -161h-141l241 660h165zM239 263h191l-96 288z" />
    <glyph glyph-name="B" unicode="B" horiz-adv-x="672" 
d="M86 0v660h289q120 0 177 -47t57 -133q0 -53 -32 -94t-94 -52v-1q69 -10 106 -52t37 -100q0 -85 -61.5 -133t-179.5 -48h-299zM220 104h153q56 0 83 23t27 64q0 42 -27 64t-83 22h-153v-173zM220 383h137q109 0 109 85t-109 85h-137v-170z" />
    <glyph glyph-name="C" unicode="C" horiz-adv-x="683" 
d="M651 182q-19 -64 -60 -107t-97 -64t-123 -21q-98 0 -169.5 41t-110 117t-38.5 182t38.5 182t110 117t167.5 41q68 0 123 -18.5t93.5 -57t56.5 -95.5l-125 -53q-17 60 -52 85.5t-90 25.5q-54 0 -94.5 -26t-62.5 -76.5t-22 -124.5q0 -73 20.5 -124t60.5 -77t98 -26
q54 0 93.5 29t55.5 88z" />
    <glyph glyph-name="D" unicode="D" horiz-adv-x="719" 
d="M341 660q155 0 240 -85.5t85 -244.5q0 -158 -85 -244t-240 -86h-255v660h255zM334 110q94 0 141.5 56.5t47.5 163.5t-47.5 163.5t-141.5 56.5h-110v-440h110z" />
    <glyph glyph-name="E" unicode="E" horiz-adv-x="633" 
d="M86 0v660h495v-111h-357v-164h281v-106h-281v-168h371v-111h-509z" />
    <glyph glyph-name="F" unicode="F" horiz-adv-x="612" 
d="M580 549h-356v-167h281v-112h-281v-270h-138v660h494v-111z" />
    <glyph glyph-name="G" unicode="G" horiz-adv-x="723" 
d="M357 -10q-91 0 -159.5 40t-106.5 116t-38 183q0 106 40 182.5t113 117.5t171 41q107 0 173 -39.5t105 -122.5l-128 -55q-16 53 -54.5 78.5t-94.5 25.5t-97 -26.5t-63 -77t-22 -123.5q0 -75 21 -126.5t62.5 -77t102.5 -25.5q33 0 61.5 8t49.5 24t33 41t12 58v15h-173v101
h292v-348h-97l-10 144l24 -17q-22 -66 -77.5 -101.5t-139.5 -35.5z" />
    <glyph glyph-name="H" unicode="H" horiz-adv-x="739" 
d="M653 660v-660h-138v660h138zM224 660v-660h-138v660h138zM587 389v-111h-432v111h432z" />
    <glyph glyph-name="I" unicode="I" horiz-adv-x="310" 
d="M224 660v-660h-138v660h138z" />
    <glyph glyph-name="J" unicode="J" horiz-adv-x="599" 
d="M523 660v-417q0 -119 -67 -186t-190 -67q-88 0 -143 32t-76 90t-8 133l134 24q-12 -88 11 -127t85 -39q65 0 90.5 40t25.5 119v398h138z" />
    <glyph glyph-name="K" unicode="K" horiz-adv-x="679" 
d="M655 660l-302 -343l-11 11l-165 -187l-21 128l339 391h160zM224 660v-660h-138v660h138zM391 432l272 -432h-158l-220 355z" />
    <glyph glyph-name="L" unicode="L" horiz-adv-x="601" 
d="M224 111h348v-111h-486v660h138v-549z" />
    <glyph glyph-name="M" unicode="M" horiz-adv-x="890" 
d="M804 660v-660h-124v344l6 193h-2l-183 -537h-113l-182 537h-2l7 -193v-344h-125v660h200l119 -360l42 -149h2l43 148l118 361h194z" />
    <glyph glyph-name="N" unicode="N" horiz-adv-x="739" 
d="M653 660v-660h-158l-231 388l-57 108h-1l4 -114v-382h-124v660h157l231 -387l57 -109h2l-4 114v382h124z" />
    <glyph glyph-name="O" unicode="O" horiz-adv-x="741" 
d="M371 670q98 0 169 -41t109.5 -117t38.5 -182t-38.5 -182t-109.5 -117t-169 -41t-169.5 41t-110 117t-38.5 182t38.5 182t110 117t169.5 41zM371 557q-55 0 -94.5 -26t-60 -77t-20.5 -124t20.5 -124t60 -77t94.5 -26t94 26t59.5 77t20.5 124t-20.5 124t-59.5 77t-94 26z
" />
    <glyph glyph-name="P" unicode="P" horiz-adv-x="646" 
d="M363 660q76 0 130 -25.5t83.5 -73t29.5 -114.5t-29.5 -114.5t-83.5 -73t-130 -25.5h-139v-234h-138v660h277zM342 343q62 0 93 26.5t31 77.5q0 52 -31 78t-93 26h-118v-208h118z" />
    <glyph glyph-name="Q" unicode="Q" horiz-adv-x="741" 
d="M535 -200q-60 0 -108.5 20.5t-76.5 64.5t-28 112q0 16 3.5 34t11.5 35l90 14q-7 -18 -10.5 -32.5t-3.5 -26.5q0 -46 17 -70t45 -33t62 -9q41 0 70.5 9.5t49.5 26.5l25 -103q-25 -20 -66.5 -31t-80.5 -11zM371 670q98 0 169 -41t109.5 -117t38.5 -182t-38.5 -182
t-109.5 -117t-169 -41t-169.5 41t-110 117t-38.5 182t38.5 182t110 117t169.5 41zM371 557q-55 0 -94.5 -26t-60 -77t-20.5 -124t20.5 -124t60 -77t94.5 -26t94 26t59.5 77t20.5 124t-20.5 124t-59.5 77t-94 26z" />
    <glyph glyph-name="R" unicode="R" horiz-adv-x="680" 
d="M377 660q112 0 176 -54t64 -145q0 -97 -64 -148.5t-175 -51.5l-14 -8h-142v-253h-136v660h291zM361 358q58 0 86.5 23.5t28.5 72.5t-28.5 72.5t-86.5 23.5h-139v-192h139zM442 329l214 -329h-155l-177 289z" />
    <glyph glyph-name="S" unicode="S" horiz-adv-x="644" 
d="M327 670q90 0 158 -31t116 -92l-77 -89q-41 52 -89.5 76.5t-112.5 24.5q-42 0 -69.5 -11t-40 -29t-12.5 -40q0 -27 21 -45.5t72 -30.5l123 -28q98 -22 140.5 -65.5t42.5 -112.5q0 -65 -34 -111.5t-95 -71t-140 -24.5q-69 0 -126.5 16.5t-102.5 45.5t-75 67l78 93
q23 -32 57 -57t77.5 -39.5t91.5 -14.5q41 0 69.5 9.5t43 27t14.5 42.5q0 26 -17.5 44.5t-64.5 28.5l-134 30q-58 14 -99.5 36.5t-63 58t-21.5 84.5q0 59 32 106t92.5 74.5t145.5 27.5z" />
    <glyph glyph-name="T" unicode="T" horiz-adv-x="635" 
d="M608 660v-111h-221v-549h-138v549h-222v111h581z" />
    <glyph glyph-name="U" unicode="U" horiz-adv-x="710" 
d="M637 660v-400q0 -135 -72 -202.5t-210 -67.5t-210 67.5t-72 202.5v400h138v-394q0 -83 35.5 -123t108.5 -40t108 40t35 123v394h139z" />
    <glyph glyph-name="V" unicode="V" horiz-adv-x="670" 
d="M656 660l-240 -660h-161l-241 660h146l139 -420l38 -130l37 129l140 421h142z" />
    <glyph glyph-name="W" unicode="W" horiz-adv-x="984" 
d="M211 0l-192 660h147l130 -545l132 545h132l134 -545l129 545h141l-192 -660h-155l-92 360l-31 156h-2l-31 -156l-91 -360h-159z" />
    <glyph glyph-name="X" unicode="X" horiz-adv-x="640" 
d="M624 0h-164l-144 234l-142 -234h-158l227 333l-211 327h162l133 -222l135 222h150l-212 -322z" />
    <glyph glyph-name="Y" unicode="Y" horiz-adv-x="626" 
d="M616 660l-234 -413v-247h-138v247l-234 413h147l106 -197l50 -104l51 104l106 197h146z" />
    <glyph glyph-name="Z" unicode="Z" horiz-adv-x="633" 
d="M156 62l-25 48h462v-110h-549v104l426 494l24 -48h-442v110h529v-104z" />
    <glyph glyph-name="bracketleft" unicode="[" horiz-adv-x="375" 
d="M347 618h-141v-685h141v-101h-261v887h261v-101z" />
    <glyph glyph-name="backslash" unicode="\" horiz-adv-x="456" 
d="M20 719h127l290 -789h-128z" />
    <glyph glyph-name="bracketright" unicode="]" horiz-adv-x="375" 
d="M28 -67h141v685h-141v101h262v-887h-262v101z" />
    <glyph glyph-name="asciicircum" unicode="^" horiz-adv-x="593" 
d="M25 355l212 371h119l212 -371h-125l-146 275l-147 -275h-125z" />
    <glyph glyph-name="underscore" unicode="_" horiz-adv-x="539" 
d="M539 -77v-113h-539v113h539z" />
    <glyph glyph-name="grave" unicode="`" horiz-adv-x="500" 
d="M282 742l70 -170h-102l-100 170h132z" />
    <glyph glyph-name="a" unicode="a" horiz-adv-x="574" 
d="M357 319q0 43 -24.5 67t-64.5 24q-37 0 -65 -19t-41 -63l-117 36q17 66 74.5 106t154.5 40q66 0 115 -20.5t76.5 -61.5t27.5 -103v-203q0 -38 36 -38q17 0 32 5l-8 -85q-26 -13 -65 -13q-35 0 -63 12t-44 36.5t-16 61.5v4l24 4q-6 -38 -33 -64.5t-65.5 -40.5t-79.5 -14
q-51 0 -88 15.5t-57 45.5t-20 74q0 56 36 91.5t103 48.5l188 38l-1 -85l-120 -24q-34 -7 -51.5 -18.5t-17.5 -37.5q0 -25 18.5 -38t44.5 -13q21 0 41 5t36 16t25 30t9 46v135z" />
    <glyph glyph-name="b" unicode="b" horiz-adv-x="627" 
d="M366 -10q-46 0 -83.5 19.5t-62 54t-33.5 77.5l14 18l-8 -159h-121v719h137v-360l-13 21q16 56 61 93t113 37q60 0 107.5 -31t75 -89t27.5 -141q0 -81 -27.5 -139t-76 -89t-110.5 -31zM325 95q55 0 86.5 39.5t31.5 115.5t-31 115.5t-86 39.5q-36 0 -62 -19t-40.5 -54
t-14.5 -83t14.5 -83t41 -53t60.5 -18z" />
    <glyph glyph-name="c" unicode="c" horiz-adv-x="564" 
d="M299 510q67 0 113.5 -19.5t75 -53t40.5 -74.5l-128 -46q-10 45 -34 68t-65 23q-38 0 -65 -17.5t-41 -53t-14 -88.5t14.5 -88t42 -52t64.5 -17q30 0 51 10.5t34.5 30.5t18.5 48l124 -40q-11 -45 -41 -79t-77 -53t-109 -19q-77 0 -136 31t-91 89t-32 140t32 140t90 89
t133 31z" />
    <glyph glyph-name="d" unicode="d" horiz-adv-x="627" 
d="M261 -10q-62 0 -110.5 31t-76 89t-27.5 139q0 83 29 141.5t78.5 89t111.5 30.5q66 0 109 -38t56 -98l-13 -16v361h137v-719h-123l-9 152l16 -8q-6 -47 -31 -81.5t-63 -53.5t-84 -19zM301 95q36 0 62 18.5t40.5 54.5t14.5 86q0 48 -14 81.5t-40 51.5t-61 18
q-56 0 -87.5 -39.5t-31.5 -115.5t31 -115.5t86 -39.5z" />
    <glyph glyph-name="e" unicode="e" horiz-adv-x="579" 
d="M304 -10q-79 0 -137.5 31t-90.5 89t-32 140t32 140t89.5 89t131.5 31q76 0 129 -30.5t81 -83t28 -119.5q0 -20 -1 -38t-3 -32h-399v95h339l-66 -24q0 63 -28.5 97t-80.5 34q-38 0 -65.5 -18t-41.5 -53.5t-14 -89.5q0 -53 15.5 -87.5t44 -51.5t68.5 -17q44 0 71 17t42 47
l109 -42q-16 -39 -48.5 -67t-77 -42.5t-95.5 -14.5z" />
    <glyph glyph-name="f" unicode="f" horiz-adv-x="407" 
d="M295 729q35 0 63.5 -7.5t42.5 -18.5l-19 -91q-11 7 -25 11t-33 4q-39 0 -62 -17.5t-23 -59.5v-69l6 -27v-454h-137v560q0 42 14 74t39 53t59.5 31.5t74.5 10.5zM397 500v-102h-376v102h376z" />
    <glyph glyph-name="g" unicode="g" horiz-adv-x="549" 
d="M533 619l16 -98q-4 0 -8.5 0.5t-9.5 0.5q-45 0 -68.5 -20.5t-23.5 -56.5l-56 23q0 40 16 74.5t47.5 55.5t75.5 21h5h6zM369 94q81 0 125 -35t44 -98q0 -57 -33 -96.5t-92.5 -59.5t-137.5 -20q-129 0 -188.5 36t-59.5 94q0 41 31.5 69t104.5 31l-5 -16q-52 9 -79.5 34.5
t-27.5 70.5q0 46 35.5 75.5t96.5 34.5l60 -28h-14q-43 -3 -60.5 -17.5t-17.5 -32.5q0 -21 16.5 -31.5t47.5 -10.5h154zM276 -121q52 0 85.5 9t50 23t16.5 31q0 19 -15 30.5t-54 11.5h-169q-24 0 -39.5 -12t-15.5 -33q0 -28 37.5 -44t103.5 -16zM277 510q70 0 121.5 -20.5
t79 -58.5t27.5 -91q0 -52 -27.5 -90t-79 -58.5t-121.5 -20.5q-111 0 -170 45.5t-59 123.5q0 53 28 91t79 58.5t122 20.5zM277 424q-40 0 -66 -22t-26 -61t26 -61.5t66 -22.5t65.5 22.5t25.5 61.5t-25.5 61t-65.5 22z" />
    <glyph glyph-name="h" unicode="h" horiz-adv-x="619" 
d="M72 0v719h137v-304q24 48 66 71.5t95 23.5q52 0 92.5 -20t64 -60.5t23.5 -101.5v-328h-137v288q0 65 -25 89.5t-64 24.5q-29 0 -55.5 -13.5t-43 -44t-16.5 -80.5v-264h-137z" />
    <glyph glyph-name="i" unicode="i" horiz-adv-x="282" 
d="M141 572q-43 0 -64 18.5t-21 54.5q0 37 21 55.5t64 18.5t64 -18.5t21 -55.5q0 -36 -21 -54.5t-64 -18.5zM209 500v-500h-137v500h137z" />
    <glyph glyph-name="j" unicode="j" horiz-adv-x="282" 
d="M141 572q-43 0 -64 18.5t-21 54.5q0 37 21 55.5t64 18.5t64 -18.5t21 -55.5q0 -36 -21 -54.5t-64 -18.5zM209 500v-537q0 -65 -23.5 -104t-63.5 -56.5t-91 -17.5q-37 0 -67 8.5t-53 23.5l22 98q12 -10 30 -16.5t40 -6.5q31 0 50 18.5t19 65.5v524h137z" />
    <glyph glyph-name="k" unicode="k" horiz-adv-x="602" 
d="M581 500l-231 -241l-27 -13l-150 -161l-2 146l254 269h156zM209 719v-719h-137v719h137zM369 341l224 -341h-155l-163 261z" />
    <glyph glyph-name="l" unicode="l" horiz-adv-x="319" 
d="M207 719v-565q0 -35 12 -49t40 -14q17 0 28 2.5t28 7.5l-12 -90q-17 -10 -42.5 -15.5t-50.5 -5.5q-73 0 -106.5 35.5t-33.5 113.5v580h137z" />
    <glyph glyph-name="m" unicode="m" horiz-adv-x="945" 
d="M72 0v500h123l5 -90q25 50 68.5 75t96.5 25q54 0 97.5 -25t65.5 -74q16 33 43 55t60 33t67 11q49 0 89.5 -20t64.5 -60t24 -102v-328h-137v301q0 55 -24 78t-62 23q-30 0 -55.5 -15t-40 -44.5t-14.5 -73.5v-269h-137v301q0 55 -24.5 78t-62.5 23q-26 0 -51.5 -14t-42 -44
t-16.5 -79v-265h-137z" />
    <glyph glyph-name="n" unicode="n" horiz-adv-x="619" 
d="M72 0v500h123l8 -150l-17 16q12 49 38 80.5t63.5 47.5t82.5 16q52 0 92.5 -20t64 -60.5t23.5 -101.5v-328h-137v289q0 64 -25 88.5t-65 24.5q-28 0 -54.5 -13.5t-43 -43.5t-16.5 -80v-265h-137z" />
    <glyph glyph-name="o" unicode="o" horiz-adv-x="599" 
d="M300 510q76 0 133.5 -31t90 -89t32.5 -140q0 -81 -32.5 -139.5t-90 -89.5t-133.5 -31q-75 0 -133 31t-90.5 89.5t-32.5 139.5q0 82 32.5 140t90.5 89t133 31zM300 408q-38 0 -64.5 -17.5t-40.5 -52.5t-14 -88t14 -88t40.5 -52.5t64.5 -17.5q37 0 63.5 17.5t40.5 52.5
t14 88t-14 88t-40.5 52.5t-63.5 17.5z" />
    <glyph glyph-name="p" unicode="p" horiz-adv-x="627" 
d="M72 -210v710h123l9 -159l-17 18q9 44 33.5 78t62.5 53.5t85 19.5q61 0 109 -31t75.5 -88.5t27.5 -139.5t-28 -140.5t-76.5 -89.5t-110.5 -31q-66 0 -109.5 37t-59.5 93l13 21v-351h-137zM325 95q55 0 86.5 39.5t31.5 115.5t-30.5 115.5t-85.5 39.5q-35 0 -61.5 -18.5
t-41.5 -53t-15 -83.5q0 -47 14 -82.5t40.5 -54t61.5 -18.5z" />
    <glyph glyph-name="q" unicode="q" horiz-adv-x="627" 
d="M418 -210v366l16 -18q-7 -45 -31 -78t-60.5 -51.5t-81.5 -18.5q-62 0 -110.5 31t-76 89.5t-27.5 140.5q0 83 28.5 140.5t78.5 88t112 30.5q46 0 83 -19.5t61 -55t30 -81.5l-17 -10l9 156h123v-710h-137zM301 95q36 0 62 18.5t40.5 54t14.5 84.5q0 50 -14.5 84t-40.5 51.5
t-61 17.5q-55 0 -86.5 -39.5t-31.5 -115.5t31 -115.5t86 -39.5z" />
    <glyph glyph-name="r" unicode="r" horiz-adv-x="422" 
d="M72 0v500h119l9 -98q20 52 58.5 80t96.5 28q17 0 31 -3t23 -8l-16 -115q-10 4 -24.5 6t-37.5 2q-30 0 -58 -14.5t-46 -44t-18 -74.5v-259h-137z" />
    <glyph glyph-name="s" unicode="s" horiz-adv-x="531" 
d="M272 -10q-76 0 -138.5 27t-101.5 76l79 80q24 -36 64 -59t95 -23q39 0 62.5 11.5t23.5 36.5q0 16 -11 27.5t-44 18.5l-88 18q-87 18 -123.5 54.5t-36.5 94.5q0 41 24.5 77t73.5 58.5t122 22.5q75 0 130.5 -23.5t87.5 -69.5l-82 -80q-22 35 -57.5 53.5t-74.5 18.5
q-28 0 -48 -6t-30 -16.5t-10 -26.5t14 -27.5t51 -19.5l102 -21q74 -15 106 -50.5t32 -85.5q0 -48 -25.5 -85.5t-75 -59t-121.5 -21.5z" />
    <glyph glyph-name="t" unicode="t" horiz-adv-x="430" 
d="M249 653v-490q0 -36 18.5 -52.5t50.5 -16.5q26 0 44.5 7.5t33.5 20.5l22 -91q-24 -19 -60 -30t-76 -11q-50 0 -88.5 15t-60 48t-21.5 88v474zM409 500v-102h-389v102h389z" />
    <glyph glyph-name="u" unicode="u" horiz-adv-x="618" 
d="M246 -10q-50 0 -90 18t-63.5 57.5t-23.5 102.5v332h137v-299q0 -58 24 -80.5t69 -22.5q21 0 41 7.5t35.5 23.5t24.5 41.5t9 60.5v269h137v-500h-122l-5 87q-25 -50 -68.5 -73.5t-104.5 -23.5z" />
    <glyph glyph-name="v" unicode="v" horiz-adv-x="546" 
d="M400 500h142l-190 -500h-158l-190 500h147l123 -395z" />
    <glyph glyph-name="w" unicode="w" horiz-adv-x="876" 
d="M717 500h146l-160 -500h-158l-109 340l-105 -340h-158l-160 500h146l100 -383l111 383h136l112 -383z" />
    <glyph glyph-name="x" unicode="x" horiz-adv-x="569" 
d="M183 500l132 -219l37 1l200 -282h-159l-136 224l-41 4l-193 272h160zM549 500l-193 -269l-41 3l-146 -234h-155l207 284l39 -5l133 221h156z" />
    <glyph glyph-name="y" unicode="y" horiz-adv-x="546" 
d="M542 500l-202 -531q-24 -68 -53.5 -108t-68 -58t-91.5 -18q-39 0 -71.5 9.5t-56.5 24.5l29 99q19 -15 40 -21.5t48 -6.5q28 0 48.5 12t34.5 48l17 43l-55 130l-153 377h152l95 -300l26 -100l31 106l91 294h139z" />
    <glyph glyph-name="z" unicode="z" horiz-adv-x="523" 
d="M43 0v88l222 256l57 57l-83 -2h-194v101h429v-88l-221 -255l-57 -58l91 2h195v-101h-439z" />
    <glyph glyph-name="braceleft" unicode="{" horiz-adv-x="395" 
d="M361 -191q-77 0 -123.5 16.5t-68 50.5t-21.5 87v161q0 56 -25.5 80t-86.5 24v95q61 0 86.5 24t25.5 80v162q0 53 21.5 86.5t68 49.5t123.5 16v-92q-53 0 -76 -17t-23 -54v-176q0 -51 -26.5 -82.5t-77.5 -43.5q51 -13 77.5 -44.5t26.5 -82.5v-176q0 -37 23 -54t76 -17v-93
z" />
    <glyph glyph-name="bar" unicode="|" horiz-adv-x="292" 
d="M206 719v-887h-120v887h120z" />
    <glyph glyph-name="braceright" unicode="}" horiz-adv-x="395" 
d="M34 741q77 0 123.5 -16t67.5 -49.5t21 -87.5v-161q0 -56 25.5 -80t86.5 -24v-95q-61 0 -86.5 -24t-25.5 -80v-162q0 -53 -21 -86.5t-67.5 -50t-123.5 -16.5v93q53 0 76 17t23 54v176q0 51 26.5 82.5t76.5 43.5q-50 13 -76.5 44.5t-26.5 82.5v176q0 37 -23 54t-76 17v92z
" />
    <glyph glyph-name="asciitilde" unicode="~" horiz-adv-x="576" 
d="M533 410q-5 -87 -42.5 -132.5t-106.5 -45.5q-35 0 -59.5 10t-43 24t-36 24t-37.5 10q-23 0 -35.5 -16.5t-17.5 -48.5h-112q5 88 42.5 133t107.5 45q34 0 58.5 -10t43.5 -24t36.5 -24t37.5 -10q22 0 35 17t17 48h112z" />
    <glyph glyph-name="uni00A0" unicode="&#xa0;" horiz-adv-x="306" 
 />
    <glyph glyph-name="exclamdown" unicode="&#xa1;" horiz-adv-x="286" 
d="M71 -160v240l17 207h110l17 -207v-240h-144zM143 355q-39 0 -62 21t-23 56q0 36 23 56.5t62 20.5t62 -20.5t23 -56.5q0 -35 -23 -56t-62 -21z" />
    <glyph glyph-name="cent" unicode="&#xa2;" horiz-adv-x="572" 
d="M312 -10q-79 0 -138 31t-91 89t-32 140t32 140t90 89t135 31q67 0 112.5 -19t73.5 -52.5t41 -75.5l-109 -43q-11 49 -40 74t-73 25q-63 0 -102 -42t-39 -128q0 -58 18.5 -95t50.5 -55t72 -18q32 0 56 11t40 33t23 53l105 -36q-12 -46 -42 -80t-76 -53t-107 -19zM261 -100
v700h91v-700h-91z" />
    <glyph glyph-name="sterling" unicode="&#xa3;" horiz-adv-x="621" 
d="M62 273v73h415v-73h-415zM153 -10q-52 0 -84.5 24.5t-32.5 65.5q0 28 16 48.5t44 32t66 11.5q42 0 72.5 -8.5t54 -21t44.5 -26t43.5 -22t51.5 -8.5q37 0 54.5 21.5t16.5 67.5l92 -8q4 -54 -12 -94t-49 -61.5t-79 -21.5q-39 0 -71 12t-59.5 29.5t-53 35.5t-52 30t-56.5 12
q-22 0 -32 -7.5t-10 -20.5q0 -15 12 -23t30 -8q32 0 47.5 14t21 39.5t5.5 57.5q0 43 -14.5 77.5t-46.5 83.5q-19 33 -31 58.5t-17 48t-5 46.5q0 58 28.5 102t79.5 68.5t119 24.5q89 0 144 -41.5t75 -126.5l-112 -48q-13 55 -38.5 83t-73.5 28q-47 0 -75.5 -24.5t-28.5 -70.5
q0 -17 3.5 -32.5t12.5 -34.5t24 -48q23 -44 37.5 -86.5t14.5 -80.5q0 -35 -10 -70t-31 -64t-55 -46.5t-80 -17.5z" />
    <glyph glyph-name="currency" unicode="&#xa4;" horiz-adv-x="653" 
d="M327 538q62 0 110 -26.5t75 -73.5t27 -109q0 -61 -27 -108t-75 -74t-110 -27t-110 27t-75.5 74t-27.5 108q0 62 27.5 109t75.5 73.5t110 26.5zM327 435q-45 0 -73 -29.5t-28 -76.5t28 -76.5t73 -29.5q44 0 72 29.5t28 76.5t-28 76.5t-72 29.5zM129 607l127 -136l-70 -70
l-137 125zM184 258l70 -70l-125 -137l-80 81zM470 255l135 -123l-82 -81l-124 133zM523 607l82 -81l-133 -125l-71 71z" />
    <glyph glyph-name="yen" unicode="&#xa5;" horiz-adv-x="649" 
d="M260 0v116h-192v57h192v69h-192v60h122l54 -4l-220 362h146l108 -214l46 -101h2l45 102l108 213h146l-220 -362l54 4h123v-60h-193v-69h193v-57h-193v-116h-129z" />
    <glyph glyph-name="brokenbar" unicode="&#xa6;" horiz-adv-x="292" 
d="M206 719v-374h-120v374h120zM206 206v-374h-120v374h120z" />
    <glyph glyph-name="section" unicode="&#xa7;" horiz-adv-x="614" 
d="M420 113l-55 63q40 4 66 13.5t38.5 25t12.5 35.5q0 25 -19 42.5t-66 25.5l-162 30q-48 9 -81 30t-49 51.5t-16 65.5q0 52 28 91.5t79.5 61.5t120.5 22q77 0 131 -25t92 -73l-79 -68q-28 37 -65.5 54.5t-84.5 17.5q-56 0 -84 -19t-28 -48q0 -15 7.5 -28t27.5 -22.5
t58 -16.5l114 -20q67 -12 106.5 -32t56.5 -48.5t17 -66.5q0 -43 -19 -77t-56 -55.5t-91 -29.5zM297 -110q-86 0 -148 27t-96 73l80 70q23 -35 66.5 -56.5t100.5 -21.5q54 0 86.5 18t32.5 51q0 21 -17 34t-58 21l-158 32q-54 11 -89.5 31t-53 50.5t-17.5 71.5q0 42 19.5 72
t54 49t78.5 26l47 -60q-32 -7 -53 -17t-32 -23t-11 -32q0 -25 21.5 -42.5t71.5 -26.5l155 -29q77 -14 112.5 -51t35.5 -94q0 -52 -27.5 -91t-78.5 -60.5t-122 -21.5z" />
    <glyph glyph-name="dieresis" unicode="&#xa8;" horiz-adv-x="500" 
d="M144 705q35 0 55.5 -18.5t20.5 -51.5q0 -32 -20.5 -51t-55.5 -19q-34 0 -54 19t-20 51q0 33 20 51.5t54 18.5zM354 705q36 0 56 -18.5t20 -51.5q0 -32 -20 -51t-56 -19q-34 0 -54 19t-20 51q0 33 20 51.5t54 18.5z" />
    <glyph glyph-name="copyright" unicode="&#xa9;" horiz-adv-x="790" 
d="M395 -10q-101 0 -178.5 44t-121.5 121t-44 175q0 99 44 175.5t121.5 120.5t178.5 44t178.5 -44t121 -120.5t43.5 -175.5q0 -98 -43.5 -175t-121 -121t-178.5 -44zM395 67q78 0 137 34t92 94t33 135q0 76 -33 135.5t-92 93.5t-137 34t-137 -34t-92 -93.5t-33 -135.5
q0 -75 33 -135t92 -94t137 -34zM401 140q-88 0 -138 51t-50 138t50 138t138 51q65 0 107 -28.5t60 -76.5l-84 -41q-11 27 -30.5 38.5t-49.5 11.5q-41 0 -65 -24.5t-24 -68.5q0 -45 24 -69.5t65 -24.5q31 0 52.5 12t32.5 41l80 -36q-22 -56 -62.5 -84t-105.5 -28z" />
    <glyph glyph-name="ordfeminine" unicode="&#xaa;" horiz-adv-x="418" 
d="M141 314q-55 0 -84.5 25t-29.5 65q0 42 26 64.5t87 33.5l112 22v-49l-72 -16q-28 -6 -39.5 -16t-11.5 -28q0 -16 11.5 -25t30.5 -9q16 0 32 5.5t26.5 19t10.5 37.5v92q0 26 -14.5 40t-39.5 14t-45 -12t-30 -44l-83 26q11 46 51.5 75t108.5 29q77 0 117 -32t40 -97v-124
q0 -16 8 -23t20 -7q15 0 22 3l-8 -58q-10 -6 -22 -8.5t-27 -2.5q-38 0 -60.5 20t-22.5 59v18l14 -7q-6 -25 -23 -45.5t-44 -32.5t-61 -12zM31 169v76h349v-76h-349z" />
    <glyph glyph-name="guillemotleft" unicode="&#xab;" horiz-adv-x="552" 
d="M292 461l-124 -196l124 -196h-126l-125 196l125 196h126zM510 461l-124 -196l124 -196h-126l-125 196l125 196h126z" />
    <glyph glyph-name="logicalnot" unicode="&#xac;" horiz-adv-x="604" 
d="M545 316v-206h-116v206h116zM545 374v-105h-486v105h486z" />
    <glyph glyph-name="uni00AD" unicode="&#xad;" horiz-adv-x="521" 
d="M437 324v-118h-353v118h353z" />
    <glyph glyph-name="registered" unicode="&#xae;" horiz-adv-x="790" 
d="M395 -10q-101 0 -178.5 44t-121.5 121t-44 175q0 99 44 175.5t121.5 120.5t178.5 44t178.5 -43.5t121 -120.5t43.5 -176q0 -98 -43.5 -175t-121 -121t-178.5 -44zM454 148l-84 147l76 23l113 -170h-105zM395 67q78 0 137 34t92 94t33 135q0 76 -33 135.5t-92 93.5
t-137 34t-137 -34t-92 -93.5t-33 -135.5q0 -75 33 -135t92 -94t137 -34zM250 148v367h166q40 0 70 -15.5t47.5 -41.5t17.5 -63q0 -56 -39 -87.5t-103 -31.5h-71v-128h-88zM338 339h63q28 0 44 12.5t16 39.5t-16 39.5t-44 12.5h-63v-104z" />
    <glyph glyph-name="macron" unicode="&#xaf;" horiz-adv-x="500" 
d="M425 670v-91h-350v91h350z" />
    <glyph glyph-name="degree" unicode="&#xb0;" horiz-adv-x="482" 
d="M241 313q-57 0 -99.5 22.5t-66.5 62.5t-24 94q0 53 24 93.5t66.5 62.5t99.5 22q58 0 100.5 -22t66.5 -62.5t24 -93.5q0 -54 -24 -94t-66.5 -62.5t-100.5 -22.5zM241 406q39 0 63 24.5t24 61.5q0 38 -24 62t-63 24q-37 0 -61.5 -24t-24.5 -62q0 -37 24.5 -61.5t61.5 -24.5
z" />
    <glyph glyph-name="plusminus" unicode="&#xb1;" horiz-adv-x="604" 
d="M355 648v-474h-105v474h105zM550 461v-102h-496v102h496zM550 100v-100h-496v100h496z" />
    <glyph glyph-name="uni00B2" unicode="&#xb2;" horiz-adv-x="382" 
d="M33 333v67q23 14 45.5 28t44.5 29q44 32 70.5 56.5t37.5 44.5t11 40q0 25 -14.5 40.5t-43.5 15.5q-31 0 -48 -21.5t-18 -61.5l-98 24q2 65 47 102.5t120 37.5q58 0 94 -19t53 -48.5t17 -61.5q0 -27 -12.5 -52.5t-38 -51t-64.5 -52.5q-15 -10 -32 -19t-36 -18v-1
q14 1 39 2t43 1h107v-82h-324z" />
    <glyph glyph-name="uni00B3" unicode="&#xb3;" horiz-adv-x="373" 
d="M189 735q70 0 109 -30t39 -81q0 -28 -11.5 -48t-30 -31t-40.5 -12v-3q25 0 45.5 -10t32.5 -29t12 -48q0 -35 -21.5 -61t-58.5 -40.5t-85 -14.5q-69 0 -110 26.5t-56 76.5l97 33q5 -30 22 -44t48 -14q28 0 44 13.5t16 37.5t-17 34t-49 10h-8t-9 -1v60q4 -1 7.5 -1h6.5
q30 0 45.5 12t15.5 36t-14 36t-39 12t-41 -13t-21 -40l-93 28q11 53 56 79.5t108 26.5z" />
    <glyph glyph-name="acute" unicode="&#xb4;" horiz-adv-x="562" 
d="M250 742h132l-100 -170h-101z" />
    <glyph glyph-name="uni00B5" unicode="&#xb5;" horiz-adv-x="622" 
d="M72 -210v710h137v-296q0 -57 24 -81.5t69 -24.5q31 0 55.5 14t39.5 45t15 81v262h137v-500h-119l-6 87q-22 -48 -61.5 -72.5t-89.5 -24.5q-27 0 -50.5 8t-40.5 26l27 38v-272h-137z" />
    <glyph glyph-name="paragraph" unicode="&#xb6;" horiz-adv-x="715" 
d="M296 -100v282q-76 1 -134.5 29t-91.5 81.5t-33 127.5q0 76 35 130t98.5 82t146.5 28h322v-760h-113v653h-115v-653h-115zM294 289v264q-46 0 -78 -16t-48.5 -46t-16.5 -70q0 -41 16.5 -70.5t48.5 -45.5t78 -16z" />
    <glyph glyph-name="periodcentered" unicode="&#xb7;" horiz-adv-x="256" 
d="M129 435q40 0 63.5 -22t23.5 -59q0 -38 -23.5 -59.5t-63.5 -21.5t-63.5 21.5t-23.5 59.5q0 37 23.5 59t63.5 22z" />
    <glyph glyph-name="cedilla" unicode="&#xb8;" horiz-adv-x="500" 
d="M189 8l41 26q72 -14 104.5 -46t32.5 -81q0 -54 -36.5 -88t-97.5 -34q-35 0 -58.5 8.5t-40.5 20.5l24 73q13 -8 27.5 -14t35.5 -6q26 0 43 16t17 46q0 24 -20.5 42t-71.5 37z" />
    <glyph glyph-name="uni00B9" unicode="&#xb9;" horiz-adv-x="277" 
d="M143 730h89v-397h-104v229q0 13 1 31l2 36q-24 -19 -53 -33t-62 -19v86q20 4 45.5 14t48 24.5t33.5 28.5z" />
    <glyph glyph-name="ordmasculine" unicode="&#xba;" horiz-adv-x="400" 
d="M200 314q-78 0 -125.5 46t-47.5 128q0 83 47.5 129t125.5 46t125 -46t47 -129q0 -82 -47 -128t-125 -46zM36 169v76h328v-76h-328zM200 386q35 0 51 25.5t16 76.5q0 52 -16 78t-51 26t-51 -26t-16 -78q0 -51 16 -76.5t51 -25.5z" />
    <glyph glyph-name="guillemotright" unicode="&#xbb;" horiz-adv-x="552" 
d="M260 69l123 196l-123 196h125l126 -196l-126 -196h-125zM41 69l124 196l-124 196h126l125 -196l-125 -196h-126z" />
    <glyph glyph-name="onequarter" unicode="&#xbc;" horiz-adv-x="841" 
d="M143 665h89v-397h-104v229q0 13 1 31l2 36q-24 -19 -53 -33t-62 -19v86q20 4 45.5 14t48 24.5t33.5 28.5zM111 0l477 660h105l-477 -660h-105zM825 156v-70h-64v-90h-90v90h-200v49l169 258h121v-237h64zM563 156h108v91q0 20 1 40t2 38h-3q-6 -12 -14.5 -28t-16.5 -29z
" />
    <glyph glyph-name="onehalf" unicode="&#xbd;" horiz-adv-x="909" 
d="M143 665h89v-397h-104v229q0 13 1 31l2 36q-24 -19 -53 -33t-62 -19v86q20 4 45.5 14t48 24.5t33.5 28.5zM111 0l477 660h105l-477 -660h-105zM560 -4v67q23 14 45.5 28t44.5 29q44 32 70.5 56.5t37.5 44.5t11 40q0 25 -14.5 40.5t-43.5 15.5q-31 0 -48 -21.5t-18 -61.5
l-98 24q2 65 47 102.5t120 37.5q58 0 94 -19t53 -48.5t17 -61.5q0 -27 -12.5 -52.5t-38 -51t-64.5 -52.5q-15 -10 -32 -19t-36 -18v-1q14 1 39 2t43 1h107v-82h-324z" />
    <glyph glyph-name="threequarters" unicode="&#xbe;" horiz-adv-x="937" 
d="M189 670q70 0 109 -30t39 -81q0 -28 -11.5 -48t-30 -31t-40.5 -12v-3q25 0 45.5 -10t32.5 -29t12 -48q0 -35 -21.5 -61t-58.5 -40.5t-85 -14.5q-69 0 -110 26.5t-56 76.5l97 33q5 -30 22 -44t48 -14q28 0 44 13.5t16 37.5t-17 34t-49 10h-8t-9 -1v60q4 -1 7.5 -1h6.5
q30 0 45.5 12t15.5 36t-14 36t-39 12t-41 -13t-21 -40l-93 28q11 53 56 79.5t108 26.5zM207 0l477 660h105l-477 -660h-105zM921 156v-70h-64v-90h-90v90h-200v49l169 258h121v-237h64zM659 156h108v91q0 20 1 40t2 38h-3q-6 -12 -14.5 -28t-16.5 -29z" />
    <glyph glyph-name="questiondown" unicode="&#xbf;" horiz-adv-x="580" 
d="M287 -170q-71 0 -126 21t-86.5 61.5t-31.5 99.5q0 61 26 99.5t69 58.5t95 25l6 94h125v-152q-67 -7 -104.5 -21t-53.5 -34.5t-16 -50.5q0 -27 11.5 -46.5t35.5 -29.5t59 -10q52 0 83.5 30t37.5 84l130 -51q-12 -52 -44.5 -92t-86 -63t-129.5 -23zM301 356q-39 0 -62 20.5
t-23 55.5q0 36 23 56.5t62 20.5t62 -20.5t23 -56.5q0 -35 -23 -55.5t-62 -20.5z" />
    <glyph glyph-name="Agrave" unicode="&#xc0;" horiz-adv-x="671" 
d="M659 0h-143l-55 161h-253l-55 -161h-141l241 660h165zM239 263h191l-96 288zM330 892l63 -162h-101l-88 162h126z" />
    <glyph glyph-name="Aacute" unicode="&#xc1;" horiz-adv-x="671" 
d="M659 0h-143l-55 161h-253l-55 -161h-141l241 660h165zM239 263h191l-96 288zM337 892h126l-88 -162h-101z" />
    <glyph glyph-name="Acircumflex" unicode="&#xc2;" horiz-adv-x="671" 
d="M659 0h-143l-55 161h-253l-55 -161h-141l241 660h165zM239 263h191l-96 288zM508 730h-103l-70 98l-70 -98h-103l104 162h138z" />
    <glyph glyph-name="Atilde" unicode="&#xc3;" horiz-adv-x="671" 
d="M659 0h-143l-55 161h-253l-55 -161h-141l241 660h165zM239 263h191l-96 288zM526 878q-2 -50 -17.5 -83.5t-41.5 -50t-60 -16.5q-28 0 -48 9.5t-34.5 21t-28 21t-28.5 9.5q-19 0 -28.5 -15.5t-13.5 -45.5h-84q4 75 36.5 112.5t87.5 37.5q27 0 46.5 -9.5t33.5 -21.5
t26.5 -21t27.5 -9q20 0 29.5 15.5t12.5 45.5h84z" />
    <glyph glyph-name="Adieresis" unicode="&#xc4;" horiz-adv-x="671" 
d="M659 0h-143l-55 161h-253l-55 -161h-141l241 660h165zM239 263h191l-96 288zM229 865q35 0 55.5 -18.5t20.5 -51.5q0 -32 -20.5 -51t-55.5 -19q-34 0 -54 19t-20 51q0 33 20 51.5t54 18.5zM439 865q36 0 56 -18.5t20 -51.5q0 -32 -20 -51t-56 -19q-34 0 -54 19t-20 51
q0 33 20 51.5t54 18.5z" />
    <glyph glyph-name="Aring" unicode="&#xc5;" horiz-adv-x="671" 
d="M659 0h-143l-55 161h-253l-55 -161h-141l241 660h165zM239 263h191l-96 288zM334 844q61 0 97.5 -33.5t36.5 -89.5t-36.5 -89.5t-97.5 -33.5q-60 0 -97.5 33.5t-37.5 89.5t37.5 89.5t97.5 33.5zM334 780q-26 0 -43 -16.5t-17 -42.5t17 -42t43 -16q27 0 43.5 16t16.5 42
t-16.5 42.5t-43.5 16.5z" />
    <glyph glyph-name="AE" unicode="&#xc6;" horiz-adv-x="935" 
d="M563 108h334v-108h-465v202h-198l-93 -202h-141l321 660h562v-108h-320v-168h244v-103h-244v-173zM274 301h158v254h-34z" />
    <glyph glyph-name="Ccedilla" unicode="&#xc7;" horiz-adv-x="683" 
d="M651 182q-19 -64 -60 -107t-97 -64t-123 -21q-98 0 -169.5 41t-110 117t-38.5 182t38.5 182t110 117t167.5 41q68 0 123 -18.5t93.5 -57t56.5 -95.5l-125 -53q-17 60 -52 85.5t-90 25.5q-54 0 -94.5 -26t-62.5 -76.5t-22 -124.5q0 -73 20.5 -124t60.5 -77t98 -26
q54 0 93.5 29t55.5 88zM295 8l41 26q72 -14 104.5 -46t32.5 -81q0 -54 -36.5 -88t-97.5 -34q-35 0 -58.5 8.5t-40.5 20.5l24 73q13 -8 27.5 -14t35.5 -6q26 0 43 16t17 46q0 24 -20.5 42t-71.5 37z" />
    <glyph glyph-name="Egrave" unicode="&#xc8;" horiz-adv-x="633" 
d="M86 0v660h495v-111h-357v-164h281v-106h-281v-168h371v-111h-509zM332 892l63 -162h-101l-88 162h126z" />
    <glyph glyph-name="Eacute" unicode="&#xc9;" horiz-adv-x="633" 
d="M86 0v660h495v-111h-357v-164h281v-106h-281v-168h371v-111h-509zM332 892h126l-88 -162h-101z" />
    <glyph glyph-name="Ecircumflex" unicode="&#xca;" horiz-adv-x="633" 
d="M86 0v660h495v-111h-357v-164h281v-106h-281v-168h371v-111h-509zM507 730h-103l-70 98l-70 -98h-103l104 162h138z" />
    <glyph glyph-name="Edieresis" unicode="&#xcb;" horiz-adv-x="633" 
d="M86 0v660h495v-111h-357v-164h281v-106h-281v-168h371v-111h-509zM228 865q35 0 55.5 -18.5t20.5 -51.5q0 -32 -20.5 -51t-55.5 -19q-34 0 -54 19t-20 51q0 33 20 51.5t54 18.5zM438 865q36 0 56 -18.5t20 -51.5q0 -32 -20 -51t-56 -19q-34 0 -54 19t-20 51q0 33 20 51.5
t54 18.5z" />
    <glyph glyph-name="Igrave" unicode="&#xcc;" horiz-adv-x="310" 
d="M224 660v-660h-138v660h138zM147 892l63 -162h-101l-88 162h126z" />
    <glyph glyph-name="Iacute" unicode="&#xcd;" horiz-adv-x="310" 
d="M224 660v-660h-138v660h138zM163 892h126l-88 -162h-101z" />
    <glyph glyph-name="Icircumflex" unicode="&#xce;" horiz-adv-x="310" 
d="M224 660v-660h-138v660h138zM328 730h-103l-70 98l-70 -98h-103l104 162h138z" />
    <glyph glyph-name="Idieresis" unicode="&#xcf;" horiz-adv-x="310" 
d="M58 865q35 0 54.5 -18.5t19.5 -51.5q0 -32 -19.5 -51t-54.5 -19q-33 0 -52.5 19t-19.5 51q0 33 19.5 51.5t52.5 18.5zM250 865q35 0 54.5 -18.5t19.5 -51.5q0 -32 -19.5 -51t-54.5 -19q-33 0 -52.5 19t-19.5 51q0 33 19.5 51.5t52.5 18.5zM224 660v-660h-138v660h138z
" />
    <glyph glyph-name="Eth" unicode="&#xd0;" horiz-adv-x="740" 
d="M18 280v103h381v-103h-381zM362 660q155 0 239.5 -85.5t84.5 -244.5q0 -158 -84.5 -244t-239.5 -86h-255v660h255zM354 110q95 0 142.5 56.5t47.5 163.5t-47.5 163.5t-142.5 56.5h-109v-440h109z" />
    <glyph glyph-name="Ntilde" unicode="&#xd1;" horiz-adv-x="739" 
d="M653 660v-660h-158l-231 388l-57 108h-1l4 -114v-382h-124v660h157l231 -387l57 -109h2l-4 114v382h124zM563 878q-2 -50 -17.5 -83.5t-41.5 -50t-60 -16.5q-28 0 -48 9.5t-34.5 21t-28 21t-28.5 9.5q-19 0 -28.5 -15.5t-13.5 -45.5h-84q4 75 36.5 112.5t87.5 37.5
q27 0 46.5 -9.5t33.5 -21.5t26.5 -21t27.5 -9q20 0 29.5 15.5t12.5 45.5h84z" />
    <glyph glyph-name="Ograve" unicode="&#xd2;" horiz-adv-x="741" 
d="M371 670q98 0 169 -41t109.5 -117t38.5 -182t-38.5 -182t-109.5 -117t-169 -41t-169.5 41t-110 117t-38.5 182t38.5 182t110 117t169.5 41zM371 557q-55 0 -94.5 -26t-60 -77t-20.5 -124t20.5 -124t60 -77t94.5 -26t94 26t59.5 77t20.5 124t-20.5 124t-59.5 77t-94 26z
M362 892l63 -162h-101l-88 162h126z" />
    <glyph glyph-name="Oacute" unicode="&#xd3;" horiz-adv-x="741" 
d="M371 670q98 0 169 -41t109.5 -117t38.5 -182t-38.5 -182t-109.5 -117t-169 -41t-169.5 41t-110 117t-38.5 182t38.5 182t110 117t169.5 41zM371 557q-55 0 -94.5 -26t-60 -77t-20.5 -124t20.5 -124t60 -77t94.5 -26t94 26t59.5 77t20.5 124t-20.5 124t-59.5 77t-94 26z
M373 892h126l-88 -162h-101z" />
    <glyph glyph-name="Ocircumflex" unicode="&#xd4;" horiz-adv-x="741" 
d="M371 670q98 0 169 -41t109.5 -117t38.5 -182t-38.5 -182t-109.5 -117t-169 -41t-169.5 41t-110 117t-38.5 182t38.5 182t110 117t169.5 41zM371 557q-55 0 -94.5 -26t-60 -77t-20.5 -124t20.5 -124t60 -77t94.5 -26t94 26t59.5 77t20.5 124t-20.5 124t-59.5 77t-94 26z
M544 730h-103l-70 98l-70 -98h-103l104 162h138z" />
    <glyph glyph-name="Otilde" unicode="&#xd5;" horiz-adv-x="741" 
d="M371 670q98 0 169 -41t109.5 -117t38.5 -182t-38.5 -182t-109.5 -117t-169 -41t-169.5 41t-110 117t-38.5 182t38.5 182t110 117t169.5 41zM371 557q-55 0 -94.5 -26t-60 -77t-20.5 -124t20.5 -124t60 -77t94.5 -26t94 26t59.5 77t20.5 124t-20.5 124t-59.5 77t-94 26z
M562 878q-2 -50 -17.5 -83.5t-41.5 -50t-60 -16.5q-28 0 -48 9.5t-34.5 21t-28 21t-28.5 9.5q-19 0 -28.5 -15.5t-13.5 -45.5h-84q4 75 36.5 112.5t87.5 37.5q27 0 46.5 -9.5t33.5 -21.5t26.5 -21t27.5 -9q20 0 29.5 15.5t12.5 45.5h84z" />
    <glyph glyph-name="Odieresis" unicode="&#xd6;" horiz-adv-x="741" 
d="M371 670q98 0 169 -41t109.5 -117t38.5 -182t-38.5 -182t-109.5 -117t-169 -41t-169.5 41t-110 117t-38.5 182t38.5 182t110 117t169.5 41zM371 557q-55 0 -94.5 -26t-60 -77t-20.5 -124t20.5 -124t60 -77t94.5 -26t94 26t59.5 77t20.5 124t-20.5 124t-59.5 77t-94 26z
M265 865q35 0 55.5 -18.5t20.5 -51.5q0 -32 -20.5 -51t-55.5 -19q-34 0 -54 19t-20 51q0 33 20 51.5t54 18.5zM475 865q36 0 56 -18.5t20 -51.5q0 -32 -20 -51t-56 -19q-34 0 -54 19t-20 51q0 33 20 51.5t54 18.5z" />
    <glyph glyph-name="multiply" unicode="&#xd7;" horiz-adv-x="604" 
d="M462 85l77 78l-397 398l-78 -78zM142 85l397 398l-77 78l-398 -398z" />
    <glyph glyph-name="Oslash" unicode="&#xd8;" horiz-adv-x="741" 
d="M244 95l-48 39l293 410l49 -37zM72 -31l113 153l50 -39l-87 -114h-76zM554 525l-50 39l89 118h77zM371 670q98 0 169 -41t109.5 -117t38.5 -182t-38.5 -182t-109.5 -117t-169 -41t-169.5 41t-110 117t-38.5 182t38.5 182t110 117t169.5 41zM371 557q-55 0 -94.5 -26
t-60 -77t-20.5 -124t20.5 -124t60 -77t94.5 -26t94 26t59.5 77t20.5 124t-20.5 124t-59.5 77t-94 26z" />
    <glyph glyph-name="Ugrave" unicode="&#xd9;" horiz-adv-x="710" 
d="M637 660v-400q0 -135 -72 -202.5t-210 -67.5t-210 67.5t-72 202.5v400h138v-394q0 -83 35.5 -123t108.5 -40t108 40t35 123v394h139zM353 877l63 -162h-101l-88 162h126z" />
    <glyph glyph-name="Uacute" unicode="&#xda;" horiz-adv-x="710" 
d="M637 660v-400q0 -135 -72 -202.5t-210 -67.5t-210 67.5t-72 202.5v400h138v-394q0 -83 35.5 -123t108.5 -40t108 40t35 123v394h139zM357 877h126l-88 -162h-101z" />
    <glyph glyph-name="Ucircumflex" unicode="&#xdb;" horiz-adv-x="710" 
d="M637 660v-400q0 -135 -72 -202.5t-210 -67.5t-210 67.5t-72 202.5v400h138v-394q0 -83 35.5 -123t108.5 -40t108 40t35 123v394h139zM528 715h-103l-70 98l-70 -98h-103l104 162h138z" />
    <glyph glyph-name="Udieresis" unicode="&#xdc;" horiz-adv-x="710" 
d="M637 660v-400q0 -135 -72 -202.5t-210 -67.5t-210 67.5t-72 202.5v400h138v-394q0 -83 35.5 -123t108.5 -40t108 40t35 123v394h139zM249 850q35 0 55.5 -18.5t20.5 -51.5q0 -32 -20.5 -51t-55.5 -19q-34 0 -54 19t-20 51q0 33 20 51.5t54 18.5zM459 850q36 0 56 -18.5
t20 -51.5q0 -32 -20 -51t-56 -19q-34 0 -54 19t-20 51q0 33 20 51.5t54 18.5z" />
    <glyph glyph-name="Yacute" unicode="&#xdd;" horiz-adv-x="626" 
d="M616 660l-234 -413v-247h-138v247l-234 413h147l106 -197l50 -104l51 104l106 197h146zM315 880h126l-88 -162h-101z" />
    <glyph glyph-name="Thorn" unicode="&#xde;" horiz-adv-x="657" 
d="M357 553q125 0 190.5 -55.5t65.5 -160.5t-65.5 -160.5t-190.5 -55.5h-202v109h193q124 0 124 108q0 54 -31.5 80t-92.5 26h-193v109h202zM224 660v-660h-138v660h138z" />
    <glyph glyph-name="germandbls" unicode="&#xdf;" horiz-adv-x="636" 
d="M417 371q60 0 99 -24.5t58.5 -65t19.5 -88.5q0 -55 -22 -101t-67.5 -74t-116.5 -28q-46 0 -80 10t-52 23l26 95q15 -9 34 -16.5t51 -7.5q45 0 71 31.5t26 81.5q0 54 -31 82t-91 28h-57l11 102h37q52 0 79 30t27 74q0 48 -30 71.5t-77 23.5q-69 0 -96 -39.5t-27 -121.5
v-457h-137v474q0 76 25.5 132t84.5 87t157 31q78 0 130 -25t78.5 -66t26.5 -92q0 -40 -18 -78t-53 -62.5t-86 -27.5v-2z" />
    <glyph glyph-name="agrave" unicode="&#xe0;" horiz-adv-x="574" 
d="M357 319q0 43 -24.5 67t-64.5 24q-37 0 -65 -19t-41 -63l-117 36q17 66 74.5 106t154.5 40q66 0 115 -20.5t76.5 -61.5t27.5 -103v-203q0 -38 36 -38q17 0 32 5l-8 -85q-26 -13 -65 -13q-35 0 -63 12t-44 36.5t-16 61.5v4l24 4q-6 -38 -33 -64.5t-65.5 -40.5t-79.5 -14
q-51 0 -88 15.5t-57 45.5t-20 74q0 56 36 91.5t103 48.5l188 38l-1 -85l-120 -24q-34 -7 -51.5 -18.5t-17.5 -37.5q0 -25 18.5 -38t44.5 -13q21 0 41 5t36 16t25 30t9 46v135zM264 742l70 -170h-102l-100 170h132z" />
    <glyph glyph-name="aacute" unicode="&#xe1;" horiz-adv-x="574" 
d="M357 319q0 43 -24.5 67t-64.5 24q-37 0 -65 -19t-41 -63l-117 36q17 66 74.5 106t154.5 40q66 0 115 -20.5t76.5 -61.5t27.5 -103v-203q0 -38 36 -38q17 0 32 5l-8 -85q-26 -13 -65 -13q-35 0 -63 12t-44 36.5t-16 61.5v4l24 4q-6 -38 -33 -64.5t-65.5 -40.5t-79.5 -14
q-51 0 -88 15.5t-57 45.5t-20 74q0 56 36 91.5t103 48.5l188 38l-1 -85l-120 -24q-34 -7 -51.5 -18.5t-17.5 -37.5q0 -25 18.5 -38t44.5 -13q21 0 41 5t36 16t25 30t9 46v135zM279 742h132l-100 -170h-101z" />
    <glyph glyph-name="acircumflex" unicode="&#xe2;" horiz-adv-x="574" 
d="M357 319q0 43 -24.5 67t-64.5 24q-37 0 -65 -19t-41 -63l-117 36q17 66 74.5 106t154.5 40q66 0 115 -20.5t76.5 -61.5t27.5 -103v-203q0 -38 36 -38q17 0 32 5l-8 -85q-26 -13 -65 -13q-35 0 -63 12t-44 36.5t-16 61.5v4l24 4q-6 -38 -33 -64.5t-65.5 -40.5t-79.5 -14
q-51 0 -88 15.5t-57 45.5t-20 74q0 56 36 91.5t103 48.5l188 38l-1 -85l-120 -24q-34 -7 -51.5 -18.5t-17.5 -37.5q0 -25 18.5 -38t44.5 -13q21 0 41 5t36 16t25 30t9 46v135zM456 565h-105l-75 98l-75 -98h-105l111 171h138z" />
    <glyph glyph-name="atilde" unicode="&#xe3;" horiz-adv-x="574" 
d="M357 319q0 43 -24.5 67t-64.5 24q-37 0 -65 -19t-41 -63l-117 36q17 66 74.5 106t154.5 40q66 0 115 -20.5t76.5 -61.5t27.5 -103v-203q0 -38 36 -38q17 0 32 5l-8 -85q-26 -13 -65 -13q-35 0 -63 12t-44 36.5t-16 61.5v4l24 4q-6 -38 -33 -64.5t-65.5 -40.5t-79.5 -14
q-51 0 -88 15.5t-57 45.5t-20 74q0 56 36 91.5t103 48.5l188 38l-1 -85l-120 -24q-34 -7 -51.5 -18.5t-17.5 -37.5q0 -25 18.5 -38t44.5 -13q21 0 41 5t36 16t25 30t9 46v135zM467 718q-2 -50 -17.5 -83.5t-41.5 -50t-60 -16.5q-28 0 -48 9.5t-34.5 21t-28 21t-28.5 9.5
q-19 0 -28.5 -15.5t-13.5 -45.5h-84q4 75 36.5 112.5t87.5 37.5q27 0 46.5 -9.5t33.5 -21.5t26.5 -21t27.5 -9q20 0 29.5 15.5t12.5 45.5h84z" />
    <glyph glyph-name="adieresis" unicode="&#xe4;" horiz-adv-x="574" 
d="M357 319q0 43 -24.5 67t-64.5 24q-37 0 -65 -19t-41 -63l-117 36q17 66 74.5 106t154.5 40q66 0 115 -20.5t76.5 -61.5t27.5 -103v-203q0 -38 36 -38q17 0 32 5l-8 -85q-26 -13 -65 -13q-35 0 -63 12t-44 36.5t-16 61.5v4l24 4q-6 -38 -33 -64.5t-65.5 -40.5t-79.5 -14
q-51 0 -88 15.5t-57 45.5t-20 74q0 56 36 91.5t103 48.5l188 38l-1 -85l-120 -24q-34 -7 -51.5 -18.5t-17.5 -37.5q0 -25 18.5 -38t44.5 -13q21 0 41 5t36 16t25 30t9 46v135zM170 705q35 0 55.5 -18.5t20.5 -51.5q0 -32 -20.5 -51t-55.5 -19q-34 0 -54 19t-20 51
q0 33 20 51.5t54 18.5zM380 705q36 0 56 -18.5t20 -51.5q0 -32 -20 -51t-56 -19q-34 0 -54 19t-20 51q0 33 20 51.5t54 18.5z" />
    <glyph glyph-name="aring" unicode="&#xe5;" horiz-adv-x="574" 
d="M357 319q0 43 -24.5 67t-64.5 24q-37 0 -65 -19t-41 -63l-117 36q17 66 74.5 106t154.5 40q66 0 115 -20.5t76.5 -61.5t27.5 -103v-203q0 -38 36 -38q17 0 32 5l-8 -85q-26 -13 -65 -13q-35 0 -63 12t-44 36.5t-16 61.5v4l24 4q-6 -38 -33 -64.5t-65.5 -40.5t-79.5 -14
q-51 0 -88 15.5t-57 45.5t-20 74q0 56 36 91.5t103 48.5l188 38l-1 -85l-120 -24q-34 -7 -51.5 -18.5t-17.5 -37.5q0 -25 18.5 -38t44.5 -13q21 0 41 5t36 16t25 30t9 46v135zM274 806q61 0 97.5 -33.5t36.5 -89.5t-36.5 -89.5t-97.5 -33.5q-60 0 -97.5 33.5t-37.5 89.5
t37.5 89.5t97.5 33.5zM274 742q-26 0 -43 -16.5t-17 -42.5t17 -42t43 -16q27 0 43.5 16t16.5 42t-16.5 42.5t-43.5 16.5z" />
    <glyph glyph-name="ae" unicode="&#xe6;" horiz-adv-x="887" 
d="M218 -10q-52 0 -91 15.5t-60.5 46t-21.5 75.5q0 56 36.5 90t100.5 47l176 35v19q0 44 -24.5 68t-65.5 24q-36 0 -63.5 -19t-41.5 -63l-114 36q6 42 36 75t77.5 52t105.5 19q71 0 122 -28t71 -85h-43q20 36 49.5 61t67.5 38.5t82 13.5q72 0 122.5 -30.5t77 -83
t26.5 -119.5q0 -17 -1 -33.5t-3 -36.5h-347v0q0 -60 38 -87.5t90 -27.5q41 0 65 17t39 47l110 -42q-16 -39 -47 -67t-73.5 -42.5t-91.5 -14.5q-82 0 -139.5 38.5t-80.5 112.5l32 -1q-5 -33 -23 -60t-46.5 -47.5t-65.5 -31.5t-81 -11zM250 87q21 0 40.5 5.5t34.5 16.5t24 29
t9 42v36l-105 -22q-37 -7 -52.5 -19t-15.5 -37q0 -21 15.5 -36t49.5 -15zM493 302h219q-1 33 -14.5 57t-36 37t-52.5 13q-47 0 -77.5 -28t-38.5 -79z" />
    <glyph glyph-name="ccedilla" unicode="&#xe7;" horiz-adv-x="564" 
d="M299 510q67 0 113.5 -19.5t75 -53t40.5 -74.5l-128 -46q-10 45 -34 68t-65 23q-38 0 -65 -17.5t-41 -53t-14 -88.5t14.5 -88t42 -52t64.5 -17q30 0 51 10.5t34.5 30.5t18.5 48l124 -40q-11 -45 -41 -79t-77 -53t-109 -19q-77 0 -136 31t-91 89t-32 140t32 140t90 89
t133 31zM230 8l41 26q72 -14 104.5 -46t32.5 -81q0 -54 -36.5 -88t-97.5 -34q-35 0 -58.5 8.5t-40.5 20.5l24 73q13 -8 27.5 -14t35.5 -6q26 0 43 16t17 46q0 24 -20.5 42t-71.5 37z" />
    <glyph glyph-name="egrave" unicode="&#xe8;" 
d="M304 -10q-79 0 -137.5 31t-90.5 89t-32 140t32 140t89.5 89t131.5 31q76 0 129 -30.5t81 -83t28 -119.5q0 -20 -1 -38t-3 -32h-399v95h339l-66 -24q0 63 -28.5 97t-80.5 34q-38 0 -65.5 -18t-41.5 -53.5t-14 -89.5q0 -53 15.5 -87.5t44 -51.5t68.5 -17q44 0 71 17t42 47
l109 -42q-16 -39 -48.5 -67t-77 -42.5t-95.5 -14.5zM281 742l70 -170h-102l-100 170h132z" />
    <glyph glyph-name="eacute" unicode="&#xe9;" 
d="M304 -10q-79 0 -137.5 31t-90.5 89t-32 140t32 140t89.5 89t131.5 31q76 0 129 -30.5t81 -83t28 -119.5q0 -20 -1 -38t-3 -32h-399v95h339l-66 -24q0 63 -28.5 97t-80.5 34q-38 0 -65.5 -18t-41.5 -53.5t-14 -89.5q0 -53 15.5 -87.5t44 -51.5t68.5 -17q44 0 71 17t42 47
l109 -42q-16 -39 -48.5 -67t-77 -42.5t-95.5 -14.5zM296 742h132l-100 -170h-101z" />
    <glyph glyph-name="ecircumflex" unicode="&#xea;" 
d="M304 -10q-79 0 -137.5 31t-90.5 89t-32 140t32 140t89.5 89t131.5 31q76 0 129 -30.5t81 -83t28 -119.5q0 -20 -1 -38t-3 -32h-399v95h339l-66 -24q0 63 -28.5 97t-80.5 34q-38 0 -65.5 -18t-41.5 -53.5t-14 -89.5q0 -53 15.5 -87.5t44 -51.5t68.5 -17q44 0 71 17t42 47
l109 -42q-16 -39 -48.5 -67t-77 -42.5t-95.5 -14.5zM473 565h-105l-75 98l-75 -98h-105l111 171h138z" />
    <glyph glyph-name="edieresis" unicode="&#xeb;" 
d="M304 -10q-79 0 -137.5 31t-90.5 89t-32 140t32 140t89.5 89t131.5 31q76 0 129 -30.5t81 -83t28 -119.5q0 -20 -1 -38t-3 -32h-399v95h339l-66 -24q0 63 -28.5 97t-80.5 34q-38 0 -65.5 -18t-41.5 -53.5t-14 -89.5q0 -53 15.5 -87.5t44 -51.5t68.5 -17q44 0 71 17t42 47
l109 -42q-16 -39 -48.5 -67t-77 -42.5t-95.5 -14.5zM187 705q35 0 55.5 -18.5t20.5 -51.5q0 -32 -20.5 -51t-55.5 -19q-34 0 -54 19t-20 51q0 33 20 51.5t54 18.5zM397 705q36 0 56 -18.5t20 -51.5q0 -32 -20 -51t-56 -19q-34 0 -54 19t-20 51q0 33 20 51.5t54 18.5z" />
    <glyph glyph-name="igrave" unicode="&#xec;" horiz-adv-x="282" 
d="M209 500v-500h-137v500h137zM129 742l70 -170h-102l-100 170h132z" />
    <glyph glyph-name="iacute" unicode="&#xed;" horiz-adv-x="282" 
d="M209 500v-500h-137v500h137zM144 742h132l-100 -170h-101z" />
    <glyph glyph-name="icircumflex" unicode="&#xee;" horiz-adv-x="282" 
d="M209 500v-500h-137v500h137zM321 565h-105l-75 98l-75 -98h-105l111 171h138z" />
    <glyph glyph-name="idieresis" unicode="&#xef;" horiz-adv-x="282" 
d="M231 564q-34 0 -53 19t-19 52q0 34 19 52.5t53 18.5q35 0 53.5 -18.5t18.5 -52.5q0 -33 -18.5 -52t-53.5 -19zM51 564q-34 0 -53 19t-19 52q0 34 19 52.5t53 18.5t53 -18.5t19 -52.5q0 -33 -19 -52t-53 -19zM209 500v-500h-137v500h137z" />
    <glyph glyph-name="eth" unicode="&#xf0;" horiz-adv-x="610" 
d="M298 -10q-77 0 -133 29.5t-86 86.5t-30 135q0 79 30.5 135t84 85.5t121.5 29.5q67 0 107.5 -27t60.5 -73l-8 -6q-9 58 -29 105t-51.5 87t-76 76t-102.5 72h140q49 -27 91 -67.5t73 -94t48.5 -120t17.5 -145.5q0 -96 -31 -165t-88 -106t-139 -37zM304 92q40 0 67 19
t41 52.5t14 77.5q0 51 -14 85t-40.5 51.5t-64.5 17.5t-64.5 -17.5t-40.5 -51.5t-14 -85q0 -73 30 -111t86 -38zM197 537l-13 61l186 37l30 -51zM422 588l-28 51l153 36l15 -59z" />
    <glyph glyph-name="ntilde" unicode="&#xf1;" horiz-adv-x="619" 
d="M72 0v500h123l8 -150l-17 16q12 49 38 80.5t63.5 47.5t82.5 16q52 0 92.5 -20t64 -60.5t23.5 -101.5v-328h-137v289q0 64 -25 88.5t-65 24.5q-28 0 -54.5 -13.5t-43 -43.5t-16.5 -80v-265h-137zM506 718q-2 -50 -17.5 -83.5t-41.5 -50t-60 -16.5q-28 0 -48 9.5t-34.5 21
t-28 21t-28.5 9.5q-19 0 -28.5 -15.5t-13.5 -45.5h-84q4 75 36.5 112.5t87.5 37.5q27 0 46.5 -9.5t33.5 -21.5t26.5 -21t27.5 -9q20 0 29.5 15.5t12.5 45.5h84z" />
    <glyph glyph-name="ograve" unicode="&#xf2;" horiz-adv-x="599" 
d="M300 510q76 0 133.5 -31t90 -89t32.5 -140q0 -81 -32.5 -139.5t-90 -89.5t-133.5 -31q-75 0 -133 31t-90.5 89.5t-32.5 139.5q0 82 32.5 140t90.5 89t133 31zM300 408q-38 0 -64.5 -17.5t-40.5 -52.5t-14 -88t14 -88t40.5 -52.5t64.5 -17.5q37 0 63.5 17.5t40.5 52.5
t14 88t-14 88t-40.5 52.5t-63.5 17.5zM288 742l70 -170h-102l-100 170h132z" />
    <glyph glyph-name="oacute" unicode="&#xf3;" horiz-adv-x="599" 
d="M300 510q76 0 133.5 -31t90 -89t32.5 -140q0 -81 -32.5 -139.5t-90 -89.5t-133.5 -31q-75 0 -133 31t-90.5 89.5t-32.5 139.5q0 82 32.5 140t90.5 89t133 31zM300 408q-38 0 -64.5 -17.5t-40.5 -52.5t-14 -88t14 -88t40.5 -52.5t64.5 -17.5q37 0 63.5 17.5t40.5 52.5
t14 88t-14 88t-40.5 52.5t-63.5 17.5zM303 742h132l-100 -170h-101z" />
    <glyph glyph-name="ocircumflex" unicode="&#xf4;" horiz-adv-x="599" 
d="M300 510q76 0 133.5 -31t90 -89t32.5 -140q0 -81 -32.5 -139.5t-90 -89.5t-133.5 -31q-75 0 -133 31t-90.5 89.5t-32.5 139.5q0 82 32.5 140t90.5 89t133 31zM300 408q-38 0 -64.5 -17.5t-40.5 -52.5t-14 -88t14 -88t40.5 -52.5t64.5 -17.5q37 0 63.5 17.5t40.5 52.5
t14 88t-14 88t-40.5 52.5t-63.5 17.5zM480 565h-105l-75 98l-75 -98h-105l111 171h138z" />
    <glyph glyph-name="otilde" unicode="&#xf5;" horiz-adv-x="599" 
d="M300 510q76 0 133.5 -31t90 -89t32.5 -140q0 -81 -32.5 -139.5t-90 -89.5t-133.5 -31q-75 0 -133 31t-90.5 89.5t-32.5 139.5q0 82 32.5 140t90.5 89t133 31zM300 408q-38 0 -64.5 -17.5t-40.5 -52.5t-14 -88t14 -88t40.5 -52.5t64.5 -17.5q37 0 63.5 17.5t40.5 52.5
t14 88t-14 88t-40.5 52.5t-63.5 17.5zM491 718q-2 -50 -17.5 -83.5t-41.5 -50t-60 -16.5q-28 0 -48 9.5t-34.5 21t-28 21t-28.5 9.5q-19 0 -28.5 -15.5t-13.5 -45.5h-84q4 75 36.5 112.5t87.5 37.5q27 0 46.5 -9.5t33.5 -21.5t26.5 -21t27.5 -9q20 0 29.5 15.5t12.5 45.5h84
z" />
    <glyph glyph-name="odieresis" unicode="&#xf6;" horiz-adv-x="599" 
d="M300 510q76 0 133.5 -31t90 -89t32.5 -140q0 -81 -32.5 -139.5t-90 -89.5t-133.5 -31q-75 0 -133 31t-90.5 89.5t-32.5 139.5q0 82 32.5 140t90.5 89t133 31zM300 408q-38 0 -64.5 -17.5t-40.5 -52.5t-14 -88t14 -88t40.5 -52.5t64.5 -17.5q37 0 63.5 17.5t40.5 52.5
t14 88t-14 88t-40.5 52.5t-63.5 17.5zM194 705q35 0 55.5 -18.5t20.5 -51.5q0 -32 -20.5 -51t-55.5 -19q-34 0 -54 19t-20 51q0 33 20 51.5t54 18.5zM404 705q36 0 56 -18.5t20 -51.5q0 -32 -20 -51t-56 -19q-34 0 -54 19t-20 51q0 33 20 51.5t54 18.5z" />
    <glyph glyph-name="divide" unicode="&#xf7;" horiz-adv-x="616" 
d="M557 374v-105h-498v105h498zM308 189q35 0 55.5 -20.5t20.5 -55.5t-20.5 -55t-55.5 -20t-56 20t-21 55t21 55.5t56 20.5zM308 605q35 0 55.5 -20.5t20.5 -55.5t-20.5 -55t-55.5 -20t-56 20t-21 55t21 55.5t56 20.5z" />
    <glyph glyph-name="oslash" unicode="&#xf8;" horiz-adv-x="599" 
d="M300 510q76 0 133.5 -31t90 -89t32.5 -140q0 -81 -32.5 -139.5t-90 -89.5t-133.5 -31q-75 0 -133 31t-90.5 89.5t-32.5 139.5q0 82 32.5 140t90.5 89t133 31zM300 408q-38 0 -64.5 -17.5t-40.5 -52.5t-14 -88t14 -88t40.5 -52.5t64.5 -17.5q37 0 63.5 17.5t40.5 52.5
t14 88t-14 88t-40.5 52.5t-63.5 17.5zM49 -27l435 553h67l-435 -553h-67z" />
    <glyph glyph-name="ugrave" unicode="&#xf9;" horiz-adv-x="618" 
d="M246 -10q-50 0 -90 18t-63.5 57.5t-23.5 102.5v332h137v-299q0 -58 24 -80.5t69 -22.5q21 0 41 7.5t35.5 23.5t24.5 41.5t9 60.5v269h137v-500h-122l-5 87q-25 -50 -68.5 -73.5t-104.5 -23.5zM293 736l70 -170h-102l-100 170h132z" />
    <glyph glyph-name="uacute" unicode="&#xfa;" horiz-adv-x="618" 
d="M246 -10q-50 0 -90 18t-63.5 57.5t-23.5 102.5v332h137v-299q0 -58 24 -80.5t69 -22.5q21 0 41 7.5t35.5 23.5t24.5 41.5t9 60.5v269h137v-500h-122l-5 87q-25 -50 -68.5 -73.5t-104.5 -23.5zM308 736h132l-100 -170h-101z" />
    <glyph glyph-name="ucircumflex" unicode="&#xfb;" horiz-adv-x="618" 
d="M246 -10q-50 0 -90 18t-63.5 57.5t-23.5 102.5v332h137v-299q0 -58 24 -80.5t69 -22.5q21 0 41 7.5t35.5 23.5t24.5 41.5t9 60.5v269h137v-500h-122l-5 87q-25 -50 -68.5 -73.5t-104.5 -23.5zM485 559h-105l-75 98l-75 -98h-105l111 171h138z" />
    <glyph glyph-name="udieresis" unicode="&#xfc;" horiz-adv-x="618" 
d="M246 -10q-50 0 -90 18t-63.5 57.5t-23.5 102.5v332h137v-299q0 -58 24 -80.5t69 -22.5q21 0 41 7.5t35.5 23.5t24.5 41.5t9 60.5v269h137v-500h-122l-5 87q-25 -50 -68.5 -73.5t-104.5 -23.5zM199 699q35 0 55.5 -18.5t20.5 -51.5q0 -32 -20.5 -51t-55.5 -19
q-34 0 -54 19t-20 51q0 33 20 51.5t54 18.5zM409 699q36 0 56 -18.5t20 -51.5q0 -32 -20 -51t-56 -19q-34 0 -54 19t-20 51q0 33 20 51.5t54 18.5z" />
    <glyph glyph-name="yacute" unicode="&#xfd;" horiz-adv-x="546" 
d="M542 500l-202 -531q-24 -68 -53.5 -108t-68 -58t-91.5 -18q-39 0 -71.5 9.5t-56.5 24.5l29 99q19 -15 40 -21.5t48 -6.5q28 0 48.5 12t34.5 48l17 43l-55 130l-153 377h152l95 -300l26 -100l31 106l91 294h139zM286 736h132l-100 -170h-101z" />
    <glyph glyph-name="thorn" unicode="&#xfe;" horiz-adv-x="627" 
d="M72 -210v929h137v-352l-13 13q16 56 61 93t113 37q60 0 107.5 -31t75 -89t27.5 -141q0 -81 -28 -139t-76.5 -89t-110.5 -31q-66 0 -109.5 37t-59.5 93l13 21v-351h-137zM325 95q55 0 86.5 39.5t31.5 115.5t-30.5 115.5t-85.5 39.5q-35 0 -61.5 -18.5t-41.5 -53t-15 -83.5
q0 -47 14 -82.5t40.5 -54t61.5 -18.5z" />
    <glyph glyph-name="ydieresis" unicode="&#xff;" horiz-adv-x="546" 
d="M542 500l-202 -531q-24 -68 -53.5 -108t-68 -58t-91.5 -18q-39 0 -71.5 9.5t-56.5 24.5l29 99q19 -15 40 -21.5t48 -6.5q28 0 48.5 12t34.5 48l17 43l-55 130l-153 377h152l95 -300l26 -100l31 106l91 294h139zM177 699q35 0 55.5 -18.5t20.5 -51.5q0 -32 -20.5 -51
t-55.5 -19q-34 0 -54 19t-20 51q0 33 20 51.5t54 18.5zM387 699q36 0 56 -18.5t20 -51.5q0 -32 -20 -51t-56 -19q-34 0 -54 19t-20 51q0 33 20 51.5t54 18.5z" />
    <glyph glyph-name="Amacron" unicode="&#x100;" horiz-adv-x="671" 
d="M659 0h-143l-55 161h-253l-55 -161h-141l241 660h165zM239 263h191l-96 288zM510 830v-91h-350v91h350z" />
    <glyph glyph-name="amacron" unicode="&#x101;" horiz-adv-x="574" 
d="M357 319q0 43 -24.5 67t-64.5 24q-37 0 -65 -19t-41 -63l-117 36q17 66 74.5 106t154.5 40q66 0 115 -20.5t76.5 -61.5t27.5 -103v-203q0 -38 36 -38q17 0 32 5l-8 -85q-26 -13 -65 -13q-35 0 -63 12t-44 36.5t-16 61.5v4l24 4q-6 -38 -33 -64.5t-65.5 -40.5t-79.5 -14
q-51 0 -88 15.5t-57 45.5t-20 74q0 56 36 91.5t103 48.5l188 38l-1 -85l-120 -24q-34 -7 -51.5 -18.5t-17.5 -37.5q0 -25 18.5 -38t44.5 -13q21 0 41 5t36 16t25 30t9 46v135zM451 670v-91h-350v91h350z" />
    <glyph glyph-name="Abreve" unicode="&#x102;" horiz-adv-x="671" 
d="M659 0h-143l-55 161h-253l-55 -161h-141l241 660h165zM239 263h191l-96 288zM496 880q0 -72 -43.5 -114.5t-117.5 -42.5q-73 0 -117 42.5t-44 114.5h93q0 -32 17.5 -53.5t50.5 -21.5q34 0 51 21.5t17 53.5h93z" />
    <glyph glyph-name="abreve" unicode="&#x103;" horiz-adv-x="574" 
d="M357 319q0 43 -24.5 67t-64.5 24q-37 0 -65 -19t-41 -63l-117 36q17 66 74.5 106t154.5 40q66 0 115 -20.5t76.5 -61.5t27.5 -103v-203q0 -38 36 -38q17 0 32 5l-8 -85q-26 -13 -65 -13q-35 0 -63 12t-44 36.5t-16 61.5v4l24 4q-6 -38 -33 -64.5t-65.5 -40.5t-79.5 -14
q-51 0 -88 15.5t-57 45.5t-20 74q0 56 36 91.5t103 48.5l188 38l-1 -85l-120 -24q-34 -7 -51.5 -18.5t-17.5 -37.5q0 -25 18.5 -38t44.5 -13q21 0 41 5t36 16t25 30t9 46v135zM437 720q0 -72 -43.5 -114.5t-117.5 -42.5q-73 0 -117 42.5t-44 114.5h93q0 -32 17.5 -53.5
t50.5 -21.5q34 0 51 21.5t17 53.5h93z" />
    <glyph glyph-name="Aogonek" unicode="&#x104;" horiz-adv-x="671" 
d="M572 -215q-38 0 -68 12.5t-47 36.5t-17 61q0 53 40 87t115 49l64 -31q-47 -11 -73.5 -24.5t-36.5 -29t-10 -33.5q0 -22 15.5 -34.5t42.5 -12.5q12 0 25.5 2t23.5 9l21 -71q-18 -12 -42.5 -16.5t-52.5 -4.5zM659 0h-143l-55 161h-253l-55 -161h-141l241 660h165zM239 263
h191l-96 288z" />
    <glyph glyph-name="aogonek" unicode="&#x105;" horiz-adv-x="574" 
d="M467 -224q-35 0 -64 12.5t-46 36.5t-17 58q0 57 42 91t117 55l55 -24q-46 -19 -72 -36t-36.5 -33t-10.5 -33q0 -21 15.5 -33t39.5 -12q12 0 25.5 2t23.5 8l17 -73q-16 -9 -39.5 -14t-49.5 -5zM356 319q0 43 -22.5 67t-64.5 24q-40 0 -68 -18.5t-39 -63.5l-114 36
q15 66 73 106t155 40q67 0 115.5 -20.5t75 -60t26.5 -98.5v-209q0 -37 38 -37q16 0 30 4l-7 -84q-26 -13 -66 -13q-36 0 -64 12t-44 36.5t-16 61.5v10l21 -2q-8 -38 -35 -65t-64 -41t-77 -14q-48 0 -85.5 15.5t-58.5 45.5t-21 74q0 55 36.5 91t103.5 49l188 38v-72l-120 -25
q-39 -8 -57 -23.5t-18 -42.5q0 -25 19 -41t54 -16q21 0 40 6t34 18t23.5 29.5t8.5 41.5v141z" />
    <glyph glyph-name="Cacute" unicode="&#x106;" horiz-adv-x="683" 
d="M651 182q-19 -64 -60 -107t-97 -64t-123 -21q-98 0 -169.5 41t-110 117t-38.5 182t38.5 182t110 117t167.5 41q68 0 123 -18.5t93.5 -57t56.5 -95.5l-125 -53q-17 60 -52 85.5t-90 25.5q-54 0 -94.5 -26t-62.5 -76.5t-22 -124.5q0 -73 20.5 -124t60.5 -77t98 -26
q54 0 93.5 29t55.5 88zM368 892h126l-88 -162h-101z" />
    <glyph glyph-name="cacute" unicode="&#x107;" horiz-adv-x="564" 
d="M299 510q67 0 113.5 -19.5t75 -53t40.5 -74.5l-128 -46q-10 45 -34 68t-65 23q-38 0 -65 -17.5t-41 -53t-14 -88.5t14.5 -88t42 -52t64.5 -17q30 0 51 10.5t34.5 30.5t18.5 48l124 -40q-11 -45 -41 -79t-77 -53t-109 -19q-77 0 -136 31t-91 89t-32 140t32 140t90 89
t133 31zM297 742h132l-100 -170h-101z" />
    <glyph glyph-name="Ccircumflex" unicode="&#x108;" horiz-adv-x="683" 
d="M651 182q-19 -64 -60 -107t-97 -64t-123 -21q-98 0 -169.5 41t-110 117t-38.5 182t38.5 182t110 117t167.5 41q68 0 123 -18.5t93.5 -57t56.5 -95.5l-125 -53q-17 60 -52 85.5t-90 25.5q-54 0 -94.5 -26t-62.5 -76.5t-22 -124.5q0 -73 20.5 -124t60.5 -77t98 -26
q54 0 93.5 29t55.5 88zM539 730h-103l-70 98l-70 -98h-103l104 162h138z" />
    <glyph glyph-name="ccircumflex" unicode="&#x109;" horiz-adv-x="564" 
d="M299 510q67 0 113.5 -19.5t75 -53t40.5 -74.5l-128 -46q-10 45 -34 68t-65 23q-38 0 -65 -17.5t-41 -53t-14 -88.5t14.5 -88t42 -52t64.5 -17q30 0 51 10.5t34.5 30.5t18.5 48l124 -40q-11 -45 -41 -79t-77 -53t-109 -19q-77 0 -136 31t-91 89t-32 140t32 140t90 89
t133 31zM474 565h-105l-75 98l-75 -98h-105l111 171h138z" />
    <glyph glyph-name="Cdotaccent" unicode="&#x10a;" horiz-adv-x="683" 
d="M651 182q-19 -64 -60 -107t-97 -64t-123 -21q-98 0 -169.5 41t-110 117t-38.5 182t38.5 182t110 117t167.5 41q68 0 123 -18.5t93.5 -57t56.5 -95.5l-125 -53q-17 60 -52 85.5t-90 25.5q-54 0 -94.5 -26t-62.5 -76.5t-22 -124.5q0 -73 20.5 -124t60.5 -77t98 -26
q54 0 93.5 29t55.5 88zM366 880q39 0 60 -19.5t21 -53.5q0 -35 -21 -54t-60 -19q-38 0 -59 19t-21 54q0 34 21 53.5t59 19.5z" />
    <glyph glyph-name="cdotaccent" unicode="&#x10b;" horiz-adv-x="564" 
d="M299 510q67 0 113.5 -19.5t75 -53t40.5 -74.5l-128 -46q-10 45 -34 68t-65 23q-38 0 -65 -17.5t-41 -53t-14 -88.5t14.5 -88t42 -52t64.5 -17q30 0 51 10.5t34.5 30.5t18.5 48l124 -40q-11 -45 -41 -79t-77 -53t-109 -19q-77 0 -136 31t-91 89t-32 140t32 140t90 89
t133 31zM294 720q39 0 60 -19.5t21 -53.5q0 -35 -21 -54t-60 -19q-38 0 -59 19t-21 54q0 34 21 53.5t59 19.5z" />
    <glyph glyph-name="Ccaron" unicode="&#x10c;" horiz-adv-x="683" 
d="M651 182q-19 -64 -60 -107t-97 -64t-123 -21q-98 0 -169.5 41t-110 117t-38.5 182t38.5 182t110 117t167.5 41q68 0 123 -18.5t93.5 -57t56.5 -95.5l-125 -53q-17 60 -52 85.5t-90 25.5q-54 0 -94.5 -26t-62.5 -76.5t-22 -124.5q0 -73 20.5 -124t60.5 -77t98 -26
q54 0 93.5 29t55.5 88zM539 892l-104 -162h-138l-104 162h103l70 -97l70 97h103z" />
    <glyph glyph-name="ccaron" unicode="&#x10d;" horiz-adv-x="564" 
d="M299 510q67 0 113.5 -19.5t75 -53t40.5 -74.5l-128 -46q-10 45 -34 68t-65 23q-38 0 -65 -17.5t-41 -53t-14 -88.5t14.5 -88t42 -52t64.5 -17q30 0 51 10.5t34.5 30.5t18.5 48l124 -40q-11 -45 -41 -79t-77 -53t-109 -19q-77 0 -136 31t-91 89t-32 140t32 140t90 89
t133 31zM471 742l-111 -170h-137l-111 170h105l75 -98l75 98h104z" />
    <glyph glyph-name="Dcaron" unicode="&#x10e;" horiz-adv-x="719" 
d="M341 660q155 0 240 -85.5t85 -244.5q0 -158 -85 -244t-240 -86h-255v660h255zM334 110q94 0 141.5 56.5t47.5 163.5t-47.5 163.5t-141.5 56.5h-110v-440h110zM525 892l-104 -162h-138l-104 162h103l70 -97l70 97h103z" />
    <glyph glyph-name="dcaron" unicode="&#x10f;" horiz-adv-x="683" 
d="M733 719l-49 -224h-82l21 224h110zM261 -10q-62 0 -110.5 31t-76 89t-27.5 139q0 83 29 141.5t78.5 89t111.5 30.5q66 0 109 -38t56 -98l-13 -16v361h137v-719h-123l-9 152l16 -8q-6 -47 -31 -81.5t-63 -53.5t-84 -19zM301 95q36 0 62 18.5t40.5 54.5t14.5 86
q0 48 -14 81.5t-40 51.5t-61 18q-56 0 -87.5 -39.5t-31.5 -115.5t31 -115.5t86 -39.5z" />
    <glyph glyph-name="Dcroat" unicode="&#x110;" horiz-adv-x="740" 
d="M18 280v103h381v-103h-381zM362 660q155 0 239.5 -85.5t84.5 -244.5q0 -158 -84.5 -244t-239.5 -86h-255v660h255zM354 110q95 0 142.5 56.5t47.5 163.5t-47.5 163.5t-142.5 56.5h-109v-440h109z" />
    <glyph glyph-name="dcroat" unicode="&#x111;" horiz-adv-x="628" 
d="M279 548v84h354v-84h-354zM261 -10q-62 0 -110.5 31t-76 89t-27.5 139q0 83 29 141.5t78.5 89t111.5 30.5q66 0 109 -38t56 -98l-13 -16v361h137v-719h-123l-9 152l16 -8q-6 -47 -31 -81.5t-63 -53.5t-84 -19zM301 95q36 0 62 18.5t40.5 54.5t14.5 86q0 48 -14 81.5
t-40 51.5t-61 18q-56 0 -87.5 -39.5t-31.5 -115.5t31 -115.5t86 -39.5z" />
    <glyph glyph-name="Emacron" unicode="&#x112;" horiz-adv-x="633" 
d="M86 0v660h495v-111h-357v-164h281v-106h-281v-168h371v-111h-509zM509 830v-91h-350v91h350z" />
    <glyph glyph-name="emacron" unicode="&#x113;" 
d="M304 -10q-79 0 -137.5 31t-90.5 89t-32 140t32 140t89.5 89t131.5 31q76 0 129 -30.5t81 -83t28 -119.5q0 -20 -1 -38t-3 -32h-399v95h339l-66 -24q0 63 -28.5 97t-80.5 34q-38 0 -65.5 -18t-41.5 -53.5t-14 -89.5q0 -53 15.5 -87.5t44 -51.5t68.5 -17q44 0 71 17t42 47
l109 -42q-16 -39 -48.5 -67t-77 -42.5t-95.5 -14.5zM468 670v-91h-350v91h350z" />
    <glyph glyph-name="Ebreve" unicode="&#x114;" horiz-adv-x="633" 
d="M86 0v660h495v-111h-357v-164h281v-106h-281v-168h371v-111h-509zM495 880q0 -72 -43.5 -114.5t-117.5 -42.5q-73 0 -117 42.5t-44 114.5h93q0 -32 17.5 -53.5t50.5 -21.5q34 0 51 21.5t17 53.5h93z" />
    <glyph glyph-name="ebreve" unicode="&#x115;" 
d="M304 -10q-79 0 -137.5 31t-90.5 89t-32 140t32 140t89.5 89t131.5 31q76 0 129 -30.5t81 -83t28 -119.5q0 -20 -1 -38t-3 -32h-399v95h339l-66 -24q0 63 -28.5 97t-80.5 34q-38 0 -65.5 -18t-41.5 -53.5t-14 -89.5q0 -53 15.5 -87.5t44 -51.5t68.5 -17q44 0 71 17t42 47
l109 -42q-16 -39 -48.5 -67t-77 -42.5t-95.5 -14.5zM454 720q0 -72 -43.5 -114.5t-117.5 -42.5q-73 0 -117 42.5t-44 114.5h93q0 -32 17.5 -53.5t50.5 -21.5q34 0 51 21.5t17 53.5h93z" />
    <glyph glyph-name="Edotaccent" unicode="&#x116;" horiz-adv-x="633" 
d="M86 0v660h495v-111h-357v-164h281v-106h-281v-168h371v-111h-509zM334 880q39 0 60 -19.5t21 -53.5q0 -35 -21 -54t-60 -19q-38 0 -59 19t-21 54q0 34 21 53.5t59 19.5z" />
    <glyph glyph-name="edotaccent" unicode="&#x117;" 
d="M304 -10q-79 0 -137.5 31t-90.5 89t-32 140t32 140t89.5 89t131.5 31q76 0 129 -30.5t81 -83t28 -119.5q0 -20 -1 -38t-3 -32h-399v95h339l-66 -24q0 63 -28.5 97t-80.5 34q-38 0 -65.5 -18t-41.5 -53.5t-14 -89.5q0 -53 15.5 -87.5t44 -51.5t68.5 -17q44 0 71 17t42 47
l109 -42q-16 -39 -48.5 -67t-77 -42.5t-95.5 -14.5zM293 720q39 0 60 -19.5t21 -53.5q0 -35 -21 -54t-60 -19q-38 0 -59 19t-21 54q0 34 21 53.5t59 19.5z" />
    <glyph glyph-name="Eogonek" unicode="&#x118;" horiz-adv-x="633" 
d="M502 -225q-38 0 -67.5 12.5t-46.5 36.5t-17 58q0 57 47.5 91t128.5 55l49 -28q-71 -22 -99 -46t-28 -50q0 -23 16.5 -35.5t42.5 -12.5q12 0 25.5 2.5t23.5 8.5l20 -71q-18 -11 -42.5 -16t-52.5 -5zM86 0v660h495v-111h-357v-164h281v-106h-281v-168h371v-111h-509z" />
    <glyph glyph-name="eogonek" unicode="&#x119;" 
d="M304 -10q-79 0 -137.5 31t-90.5 89t-32 140t32 140t89.5 89t131.5 31q76 0 129 -30.5t81 -83t28 -119.5q0 -20 -1 -38t-3 -32h-399v95h339l-66 -24q0 63 -28.5 97t-80.5 34q-38 0 -65.5 -18t-41.5 -53.5t-14 -89.5q0 -53 15.5 -87.5t44 -51.5t68.5 -17q44 0 71 17t42 47
l109 -42q-16 -39 -48.5 -67t-77 -42.5t-95.5 -14.5zM324 -222q-61 0 -95 29.5t-34 78.5q0 58 39.5 91t113.5 51l58 -21q-46 -16 -71.5 -31.5t-35.5 -31.5t-10 -36q0 -23 15.5 -35.5t41.5 -12.5q13 0 26 2.5t23 7.5l16 -74q-17 -9 -39 -13.5t-48 -4.5z" />
    <glyph glyph-name="Ecaron" unicode="&#x11a;" horiz-adv-x="633" 
d="M86 0v660h495v-111h-357v-164h281v-106h-281v-168h371v-111h-509zM507 892l-104 -162h-138l-104 162h103l70 -97l70 97h103z" />
    <glyph glyph-name="ecaron" unicode="&#x11b;" 
d="M304 -10q-79 0 -137.5 31t-90.5 89t-32 140t32 140t89.5 89t131.5 31q76 0 129 -30.5t81 -83t28 -119.5q0 -20 -1 -38t-3 -32h-399v95h339l-66 -24q0 63 -28.5 97t-80.5 34q-38 0 -65.5 -18t-41.5 -53.5t-14 -89.5q0 -53 15.5 -87.5t44 -51.5t68.5 -17q44 0 71 17t42 47
l109 -42q-16 -39 -48.5 -67t-77 -42.5t-95.5 -14.5zM470 742l-111 -170h-137l-111 170h105l75 -98l75 98h104z" />
    <glyph glyph-name="Gcircumflex" unicode="&#x11c;" horiz-adv-x="723" 
d="M357 -10q-91 0 -159.5 40t-106.5 116t-38 183q0 106 40 182.5t113 117.5t171 41q107 0 173 -39.5t105 -122.5l-128 -55q-16 53 -54.5 78.5t-94.5 25.5t-97 -26.5t-63 -77t-22 -123.5q0 -75 21 -126.5t62.5 -77t102.5 -25.5q33 0 61.5 8t49.5 24t33 41t12 58v15h-173v101
h292v-348h-97l-10 144l24 -17q-22 -66 -77.5 -101.5t-139.5 -35.5zM543 730h-103l-70 98l-70 -98h-103l104 162h138z" />
    <glyph glyph-name="gcircumflex" unicode="&#x11d;" horiz-adv-x="549" 
d="M102 565l94 171h126l93 -171h-89l-67 103l-68 -103h-89zM538 619l19 -98q-2 1 -4 1h-5q-45 0 -71 -21t-26 -64l-56 29q1 46 19.5 80t50 53.5t70.5 19.5h2h1zM369 94q81 0 125 -35t44 -98q0 -57 -33 -96.5t-92.5 -59.5t-137.5 -20q-129 0 -188.5 36t-59.5 94q0 41 31.5 69
t104.5 31l-5 -16q-52 9 -79.5 34.5t-27.5 70.5q0 46 35.5 75.5t96.5 34.5l60 -28h-14q-43 -3 -60.5 -17.5t-17.5 -32.5q0 -21 16.5 -31.5t47.5 -10.5h154zM276 -121q52 0 85.5 9t50 23t16.5 31q0 19 -15 30.5t-54 11.5h-169q-24 0 -39.5 -12t-15.5 -33q0 -28 37.5 -44
t103.5 -16zM277 510q70 0 121.5 -20.5t79 -58.5t27.5 -91q0 -52 -27.5 -90t-79 -58.5t-121.5 -20.5q-111 0 -170 45.5t-59 123.5q0 53 28 91t79 58.5t122 20.5zM277 424q-40 0 -66 -22t-26 -61t26 -61.5t66 -22.5t65.5 22.5t25.5 61.5t-25.5 61t-65.5 22z" />
    <glyph glyph-name="Gbreve" unicode="&#x11e;" horiz-adv-x="723" 
d="M357 -10q-91 0 -159.5 40t-106.5 116t-38 183q0 106 40 182.5t113 117.5t171 41q107 0 173 -39.5t105 -122.5l-128 -55q-16 53 -54.5 78.5t-94.5 25.5t-97 -26.5t-63 -77t-22 -123.5q0 -75 21 -126.5t62.5 -77t102.5 -25.5q33 0 61.5 8t49.5 24t33 41t12 58v15h-173v101
h292v-348h-97l-10 144l24 -17q-22 -66 -77.5 -101.5t-139.5 -35.5zM531 880q0 -72 -43.5 -114.5t-117.5 -42.5q-73 0 -117 42.5t-44 114.5h93q0 -32 17.5 -53.5t50.5 -21.5q34 0 51 21.5t17 53.5h93z" />
    <glyph glyph-name="gbreve" unicode="&#x11f;" horiz-adv-x="549" 
d="M538 619l19 -98q-2 1 -4 1h-5q-45 0 -71 -21t-26 -64l-56 29q1 46 19.5 80t50 53.5t70.5 19.5h2h1zM369 94q81 0 125 -35t44 -98q0 -57 -33 -96.5t-92.5 -59.5t-137.5 -20q-129 0 -188.5 36t-59.5 94q0 41 31.5 69t104.5 31l-5 -16q-52 9 -79.5 34.5t-27.5 70.5
q0 46 35.5 75.5t96.5 34.5l60 -28h-14q-43 -3 -60.5 -17.5t-17.5 -32.5q0 -21 16.5 -31.5t47.5 -10.5h154zM276 -121q52 0 85.5 9t50 23t16.5 31q0 19 -15 30.5t-54 11.5h-169q-24 0 -39.5 -12t-15.5 -33q0 -28 37.5 -44t103.5 -16zM277 510q70 0 121.5 -20.5t79 -58.5
t27.5 -91q0 -52 -27.5 -90t-79 -58.5t-121.5 -20.5q-111 0 -170 45.5t-59 123.5q0 53 28 91t79 58.5t122 20.5zM277 424q-40 0 -66 -22t-26 -61t26 -61.5t66 -22.5t65.5 22.5t25.5 61.5t-25.5 61t-65.5 22zM443 720q0 -72 -44 -114.5t-117 -42.5q-74 0 -118 42.5t-44 114.5
h93q1 -32 18 -53.5t51 -21.5t50.5 21.5t17.5 53.5h93z" />
    <glyph glyph-name="Gdotaccent" unicode="&#x120;" horiz-adv-x="723" 
d="M357 -10q-91 0 -159.5 40t-106.5 116t-38 183q0 106 40 182.5t113 117.5t171 41q107 0 173 -39.5t105 -122.5l-128 -55q-16 53 -54.5 78.5t-94.5 25.5t-97 -26.5t-63 -77t-22 -123.5q0 -75 21 -126.5t62.5 -77t102.5 -25.5q33 0 61.5 8t49.5 24t33 41t12 58v15h-173v101
h292v-348h-97l-10 144l24 -17q-22 -66 -77.5 -101.5t-139.5 -35.5zM370 880q39 0 60 -19.5t21 -53.5q0 -35 -21 -54t-60 -19q-38 0 -59 19t-21 54q0 34 21 53.5t59 19.5z" />
    <glyph glyph-name="gdotaccent" unicode="&#x121;" horiz-adv-x="549" 
d="M533 619l16 -98q-4 0 -8.5 0.5t-9.5 0.5q-45 0 -68.5 -20.5t-23.5 -56.5l-56 23q0 40 16 74.5t47.5 55.5t75.5 21h5h6zM369 94q81 0 125 -35t44 -98q0 -57 -33 -96.5t-92.5 -59.5t-137.5 -20q-129 0 -188.5 36t-59.5 94q0 41 31.5 69t104.5 31l-5 -16q-52 9 -79.5 34.5
t-27.5 70.5q0 46 35.5 75.5t96.5 34.5l60 -28h-14q-43 -3 -60.5 -17.5t-17.5 -32.5q0 -21 16.5 -31.5t47.5 -10.5h154zM276 -121q52 0 85.5 9t50 23t16.5 31q0 19 -15 30.5t-54 11.5h-169q-24 0 -39.5 -12t-15.5 -33q0 -28 37.5 -44t103.5 -16zM277 510q70 0 121.5 -20.5
t79 -58.5t27.5 -91q0 -52 -27.5 -90t-79 -58.5t-121.5 -20.5q-111 0 -170 45.5t-59 123.5q0 53 28 91t79 58.5t122 20.5zM277 424q-40 0 -66 -22t-26 -61t26 -61.5t66 -22.5t65.5 22.5t25.5 61.5t-25.5 61t-65.5 22zM262 720q39 0 60 -19.5t21 -53.5q0 -35 -21 -54t-60 -19
q-38 0 -59 19t-21 54q0 34 21 53.5t59 19.5z" />
    <glyph glyph-name="uni0122" unicode="&#x122;" horiz-adv-x="723" 
d="M357 -10q-91 0 -159.5 40t-106.5 116t-38 183q0 106 40 182.5t113 117.5t171 41q107 0 173 -39.5t105 -122.5l-128 -55q-16 53 -54.5 78.5t-94.5 25.5t-97 -26.5t-63 -77t-22 -123.5q0 -75 21 -126.5t62.5 -77t102.5 -25.5q33 0 61.5 8t49.5 24t33 41t12 58v15h-173v101
h292v-348h-97l-10 144l24 -17q-22 -66 -77.5 -101.5t-139.5 -35.5zM463 -66l-69 -173h-93l37 173h125z" />
    <glyph glyph-name="uni0123" unicode="&#x123;" horiz-adv-x="549" 
d="M533 619l16 -98q-4 0 -8.5 0.5t-9.5 0.5q-45 0 -68.5 -20.5t-23.5 -56.5l-56 23q0 40 16 74.5t47.5 55.5t75.5 21h5h6zM369 94q81 0 125 -35t44 -98q0 -57 -33 -96.5t-92.5 -59.5t-137.5 -20q-129 0 -188.5 36t-59.5 94q0 41 31.5 69t104.5 31l-5 -16q-52 9 -79.5 34.5
t-27.5 70.5q0 46 35.5 75.5t96.5 34.5l60 -28h-14q-43 -3 -60.5 -17.5t-17.5 -32.5q0 -21 16.5 -31.5t47.5 -10.5h154zM276 -121q52 0 85.5 9t50 23t16.5 31q0 19 -15 30.5t-54 11.5h-169q-24 0 -39.5 -12t-15.5 -33q0 -28 37.5 -44t103.5 -16zM277 510q70 0 121.5 -20.5
t79 -58.5t27.5 -91q0 -52 -27.5 -90t-79 -58.5t-121.5 -20.5q-111 0 -170 45.5t-59 123.5q0 53 28 91t79 58.5t122 20.5zM277 424q-40 0 -66 -22t-26 -61t26 -61.5t66 -22.5t65.5 22.5t25.5 61.5t-25.5 61t-65.5 22zM374 774l-38 -202h-123l71 202h90z" />
    <glyph glyph-name="Hcircumflex" unicode="&#x124;" horiz-adv-x="739" 
d="M653 660v-660h-138v660h138zM224 660v-660h-138v660h138zM587 389v-111h-432v111h432zM543 730h-103l-70 98l-70 -98h-103l104 162h138z" />
    <glyph glyph-name="hcircumflex" unicode="&#x125;" horiz-adv-x="619" 
d="M72 0v719h137v-304q24 48 66 71.5t95 23.5q52 0 92.5 -20t64 -60.5t23.5 -101.5v-328h-137v288q0 65 -25 89.5t-64 24.5q-29 0 -55.5 -13.5t-43 -44t-16.5 -80.5v-264h-137zM314 776h-103l-70 98l-70 -98h-103l104 162h138z" />
    <glyph glyph-name="Hbar" unicode="&#x126;" horiz-adv-x="739" 
d="M653 660v-660h-138v660h138zM224 660v-660h-138v660h138zM587 389v-111h-432v111h432zM727 565v-86h-715v86h715z" />
    <glyph glyph-name="hbar" unicode="&#x127;" horiz-adv-x="619" 
d="M-4 632h353v-84h-353v84zM72 0v719h137v-304q24 48 66 71.5t95 23.5q52 0 92.5 -20t64 -60.5t23.5 -101.5v-328h-137v288q0 65 -25 89.5t-64 24.5q-29 0 -55.5 -13.5t-43 -44t-16.5 -80.5v-264h-137z" />
    <glyph glyph-name="Itilde" unicode="&#x128;" horiz-adv-x="310" 
d="M224 660v-660h-138v660h138zM346 878q-2 -50 -17.5 -83.5t-41.5 -50t-60 -16.5q-28 0 -48 9.5t-34.5 21t-28 21t-28.5 9.5q-19 0 -28.5 -15.5t-13.5 -45.5h-84q4 75 36.5 112.5t87.5 37.5q27 0 46.5 -9.5t33.5 -21.5t26.5 -21t27.5 -9q20 0 29.5 15.5t12.5 45.5h84z" />
    <glyph glyph-name="itilde" unicode="&#x129;" horiz-adv-x="282" 
d="M209 500v-500h-137v500h137zM332 718q-2 -50 -17.5 -83.5t-41.5 -50t-60 -16.5q-28 0 -48 9.5t-34.5 21t-28 21t-28.5 9.5q-19 0 -28.5 -15.5t-13.5 -45.5h-84q4 75 36.5 112.5t87.5 37.5q27 0 46.5 -9.5t33.5 -21.5t26.5 -21t27.5 -9q20 0 29.5 15.5t12.5 45.5h84z" />
    <glyph glyph-name="Imacron" unicode="&#x12a;" horiz-adv-x="310" 
d="M284 830v-91h-259v91h259zM224 660v-660h-138v660h138z" />
    <glyph glyph-name="imacron" unicode="&#x12b;" horiz-adv-x="282" 
d="M265 670v-91h-248v91h248zM209 500v-500h-137v500h137z" />
    <glyph glyph-name="Ibreve" unicode="&#x12c;" horiz-adv-x="310" 
d="M224 660v-660h-138v660h138zM316 880q0 -72 -43.5 -114.5t-117.5 -42.5q-73 0 -117 42.5t-44 114.5h93q0 -32 17.5 -53.5t50.5 -21.5q34 0 51 21.5t17 53.5h93z" />
    <glyph glyph-name="ibreve" unicode="&#x12d;" horiz-adv-x="282" 
d="M209 500v-500h-137v500h137zM302 720q0 -72 -43.5 -114.5t-117.5 -42.5q-73 0 -117 42.5t-44 114.5h93q0 -32 17.5 -53.5t50.5 -21.5q34 0 51 21.5t17 53.5h93z" />
    <glyph glyph-name="Iogonek" unicode="&#x12e;" horiz-adv-x="310" 
d="M147 -229q-35 0 -65 12t-48.5 36.5t-18.5 62.5q0 43 19.5 71t54 47.5t77.5 33.5l58 -34q-55 -26 -80 -49.5t-25 -50.5q0 -22 13.5 -34.5t40.5 -12.5q11 0 24 2.5t21 6.5l20 -70q-17 -10 -39.5 -15.5t-51.5 -5.5zM224 660v-660h-138v660h138z" />
    <glyph glyph-name="iogonek" unicode="&#x12f;" horiz-adv-x="282" 
d="M132 -229q-34 0 -64.5 12t-48.5 36.5t-18 62.5q0 43 19.5 71t53.5 47.5t78 33.5l57 -34q-55 -26 -80 -49.5t-25 -50.5q0 -22 14 -34.5t40 -12.5q12 0 24.5 2.5t21.5 6.5l20 -70q-17 -10 -40 -15.5t-52 -5.5zM141 572q-43 0 -64 18.5t-21 54.5q0 37 21 55.5t64 18.5
t64 -18.5t21 -55.5q0 -36 -21 -54.5t-64 -18.5zM209 500v-500h-137v500h137z" />
    <glyph glyph-name="Idotaccent" unicode="&#x130;" horiz-adv-x="310" 
d="M224 660v-660h-138v660h138zM155 880q39 0 60 -19.5t21 -53.5q0 -35 -21 -54t-60 -19q-38 0 -59 19t-21 54q0 34 21 53.5t59 19.5z" />
    <glyph glyph-name="dotlessi" unicode="&#x131;" horiz-adv-x="282" 
d="M209 500v-500h-137v500h137z" />
    <glyph glyph-name="IJ" unicode="&#x132;" horiz-adv-x="909" 
d="M224 660v-660h-138v660h138zM833 660v-417q0 -119 -67 -186t-190 -67q-88 0 -143 32t-76 90t-8 133l134 24q-12 -88 11 -127t85 -39q65 0 90.5 40t25.5 119v398h138z" />
    <glyph glyph-name="ij" unicode="&#x133;" horiz-adv-x="564" 
d="M141 572q-43 0 -64 18.5t-21 54.5q0 37 21 55.5t64 18.5t64 -18.5t21 -55.5q0 -36 -21 -54.5t-64 -18.5zM209 500v-500h-137v500h137zM423 572q-43 0 -64 18.5t-21 54.5q0 37 21 55.5t64 18.5t64 -18.5t21 -55.5q0 -36 -21 -54.5t-64 -18.5zM491 500v-537
q0 -65 -23.5 -104t-63.5 -56.5t-91 -17.5q-37 0 -67 8.5t-53 23.5l22 98q12 -10 30 -16.5t40 -6.5q31 0 50 18.5t19 65.5v524h137z" />
    <glyph glyph-name="Jcircumflex" unicode="&#x134;" horiz-adv-x="599" 
d="M523 660v-417q0 -119 -67 -186t-190 -67q-88 0 -143 32t-76 90t-8 133l134 24q-12 -88 11 -127t85 -39q65 0 90.5 40t25.5 119v398h138zM627 730h-103l-70 98l-70 -98h-103l104 162h138z" />
    <glyph glyph-name="jcircumflex" unicode="&#x135;" horiz-adv-x="282" 
d="M209 500v-537q0 -65 -23.5 -104t-63.5 -56.5t-91 -17.5q-37 0 -67 8.5t-53 23.5l22 98q12 -10 30 -16.5t40 -6.5q31 0 50 18.5t19 65.5v524h137zM321 565h-105l-75 98l-75 -98h-105l111 171h138z" />
    <glyph glyph-name="uni0136" unicode="&#x136;" horiz-adv-x="679" 
d="M655 660l-302 -343l-11 11l-165 -187l-21 128l339 391h160zM224 660v-660h-138v660h138zM391 432l272 -432h-158l-220 355zM435 -66l-69 -173h-93l37 173h125z" />
    <glyph glyph-name="uni0137" unicode="&#x137;" horiz-adv-x="602" 
d="M581 500l-231 -241l-27 -13l-150 -161l-2 146l254 269h156zM209 719v-719h-137v719h137zM369 341l224 -341h-155l-163 261zM391 -66l-69 -173h-93l37 173h125z" />
    <glyph glyph-name="kgreenlandic" unicode="&#x138;" horiz-adv-x="602" 
d="M581 500l-231 -241l-27 -13l-150 -161l-2 146l255 269h155zM209 500v-500h-137v500h137zM369 341l224 -341h-155l-163 261z" />
    <glyph glyph-name="Lacute" unicode="&#x139;" horiz-adv-x="601" 
d="M224 111h348v-111h-486v660h138v-549zM157 892h126l-88 -162h-101z" />
    <glyph glyph-name="lacute" unicode="&#x13a;" horiz-adv-x="319" 
d="M207 719v-565q0 -35 12 -49t40 -14q17 0 28 2.5t28 7.5l-12 -90q-17 -10 -42.5 -15.5t-50.5 -5.5q-73 0 -106.5 35.5t-33.5 113.5v580h137zM69 779l54 145h126l-80 -145h-100z" />
    <glyph glyph-name="uni013B" unicode="&#x13b;" horiz-adv-x="601" 
d="M224 111h348v-111h-486v660h138v-549zM413 -66l-69 -173h-93l37 173h125z" />
    <glyph glyph-name="uni013C" unicode="&#x13c;" horiz-adv-x="319" 
d="M207 719v-565q0 -35 12 -49t40 -14q17 0 28 2.5t28 7.5l-12 -90q-17 -10 -42.5 -15.5t-50.5 -5.5q-73 0 -106.5 35.5t-33.5 113.5v580h137zM264 -66l-69 -173h-93l37 173h125z" />
    <glyph glyph-name="Lcaron" unicode="&#x13d;" horiz-adv-x="601" 
d="M487 660l-53 -224h-92l23 224h122zM224 111h348v-111h-486v660h138v-549z" />
    <glyph glyph-name="lcaron" unicode="&#x13e;" horiz-adv-x="363" 
d="M383 719l-49 -224h-82l21 224h110zM207 719v-565q0 -35 12 -49t40 -14q17 0 28 2.5t28 7.5l-12 -90q-17 -10 -42.5 -15.5t-50.5 -5.5q-73 0 -106.5 35.5t-33.5 113.5v580h137z" />
    <glyph glyph-name="Ldot" unicode="&#x13f;" horiz-adv-x="634" 
d="M224 111h348v-111h-486v660h138v-549zM478 449q40 0 63.5 -22t23.5 -59q0 -38 -23.5 -59.5t-63.5 -21.5t-63.5 21.5t-23.5 59.5q0 37 23.5 59t63.5 22z" />
    <glyph glyph-name="ldot" unicode="&#x140;" horiz-adv-x="464" 
d="M207 719v-565q0 -35 12 -49t40 -14q17 0 28 2.5t28 7.5l-12 -90q-17 -10 -42.5 -15.5t-50.5 -5.5q-73 0 -106.5 35.5t-33.5 113.5v580h137zM372 442q40 0 63.5 -22t23.5 -59q0 -38 -23.5 -59.5t-63.5 -21.5t-63.5 21.5t-23.5 59.5q0 37 23.5 59t63.5 22z" />
    <glyph glyph-name="Lslash" unicode="&#x141;" horiz-adv-x="653" 
d="M450 498v-110l-420 -211v110zM277 111h348v-111h-486v660h138v-549z" />
    <glyph glyph-name="lslash" unicode="&#x142;" horiz-adv-x="394" 
d="M365 506v-106l-138 -86l-38 -16l-161 -98v106l139 84l39 14zM255 719v-565q0 -35 12 -49t40 -14q17 0 28 2.5t28 7.5l-12 -90q-17 -10 -42.5 -15.5t-50.5 -5.5q-73 0 -106.5 35.5t-33.5 113.5v580h137z" />
    <glyph glyph-name="Nacute" unicode="&#x143;" horiz-adv-x="739" 
d="M653 660v-660h-158l-231 388l-57 108h-1l4 -114v-382h-124v660h157l231 -387l57 -109h2l-4 114v382h124zM374 892h126l-88 -162h-101z" />
    <glyph glyph-name="nacute" unicode="&#x144;" horiz-adv-x="619" 
d="M72 0v500h123l8 -150l-17 16q12 49 38 80.5t63.5 47.5t82.5 16q52 0 92.5 -20t64 -60.5t23.5 -101.5v-328h-137v289q0 64 -25 88.5t-65 24.5q-28 0 -54.5 -13.5t-43 -43.5t-16.5 -80v-265h-137zM318 742h132l-100 -170h-101z" />
    <glyph glyph-name="uni0145" unicode="&#x145;" horiz-adv-x="739" 
d="M653 660v-660h-158l-231 388l-57 108h-1l4 -114v-382h-124v660h157l231 -387l57 -109h2l-4 114v382h124zM456 -66l-69 -173h-93l37 173h125z" />
    <glyph glyph-name="uni0146" unicode="&#x146;" horiz-adv-x="619" 
d="M72 0v500h123l8 -150l-17 16q12 49 38 80.5t63.5 47.5t82.5 16q52 0 92.5 -20t64 -60.5t23.5 -101.5v-328h-137v289q0 64 -25 88.5t-65 24.5q-28 0 -54.5 -13.5t-43 -43.5t-16.5 -80v-265h-137zM395 -66l-69 -173h-93l37 173h125z" />
    <glyph glyph-name="Ncaron" unicode="&#x147;" horiz-adv-x="739" 
d="M653 660v-660h-158l-231 388l-57 108h-1l4 -114v-382h-124v660h157l231 -387l57 -109h2l-4 114v382h124zM545 892l-104 -162h-138l-104 162h103l70 -97l70 97h103z" />
    <glyph glyph-name="ncaron" unicode="&#x148;" horiz-adv-x="619" 
d="M72 0v500h123l8 -150l-17 16q12 49 38 80.5t63.5 47.5t82.5 16q52 0 92.5 -20t64 -60.5t23.5 -101.5v-328h-137v289q0 64 -25 88.5t-65 24.5q-28 0 -54.5 -13.5t-43 -43.5t-16.5 -80v-265h-137zM492 742l-111 -170h-137l-111 170h105l75 -98l75 98h104z" />
    <glyph glyph-name="Eng" unicode="&#x14a;" horiz-adv-x="739" 
d="M483 -215q-36 0 -64.5 8t-50.5 21l20 103q13 -10 31.5 -17t42.5 -7q29 0 48 18.5t19 64.5v29l-263 388l-59 106h-1l4 -117v-382h-124v660h157l240 -361l45 -84h1v445h124v-697q0 -65 -23 -104t-61.5 -56.5t-85.5 -17.5z" />
    <glyph glyph-name="eng" unicode="&#x14b;" horiz-adv-x="619" 
d="M550 183v-212q0 -69 -23.5 -110t-63 -58.5t-88.5 -17.5q-40 0 -70 8.5t-53 23.5l22 98q12 -10 30 -16.5t40 -6.5q31 0 50 18.5t19 65.5v207h137zM72 0v500h123l8 -150l-17 16q12 49 38 80.5t63.5 47.5t82.5 16q52 0 92.5 -20t64 -60.5t23.5 -101.5v-328h-137v289
q0 64 -25 88.5t-65 24.5q-28 0 -54.5 -13.5t-43 -43.5t-16.5 -80v-265h-137z" />
    <glyph glyph-name="Omacron" unicode="&#x14c;" horiz-adv-x="741" 
d="M371 670q98 0 169 -41t109.5 -117t38.5 -182t-38.5 -182t-109.5 -117t-169 -41t-169.5 41t-110 117t-38.5 182t38.5 182t110 117t169.5 41zM371 557q-55 0 -94.5 -26t-60 -77t-20.5 -124t20.5 -124t60 -77t94.5 -26t94 26t59.5 77t20.5 124t-20.5 124t-59.5 77t-94 26z
M546 830v-91h-350v91h350z" />
    <glyph glyph-name="omacron" unicode="&#x14d;" horiz-adv-x="599" 
d="M300 510q76 0 133.5 -31t90 -89t32.5 -140q0 -81 -32.5 -139.5t-90 -89.5t-133.5 -31q-75 0 -133 31t-90.5 89.5t-32.5 139.5q0 82 32.5 140t90.5 89t133 31zM300 408q-38 0 -64.5 -17.5t-40.5 -52.5t-14 -88t14 -88t40.5 -52.5t64.5 -17.5q37 0 63.5 17.5t40.5 52.5
t14 88t-14 88t-40.5 52.5t-63.5 17.5zM475 670v-91h-350v91h350z" />
    <glyph glyph-name="Obreve" unicode="&#x14e;" horiz-adv-x="741" 
d="M371 670q98 0 169 -41t109.5 -117t38.5 -182t-38.5 -182t-109.5 -117t-169 -41t-169.5 41t-110 117t-38.5 182t38.5 182t110 117t169.5 41zM371 557q-55 0 -94.5 -26t-60 -77t-20.5 -124t20.5 -124t60 -77t94.5 -26t94 26t59.5 77t20.5 124t-20.5 124t-59.5 77t-94 26z
M532 880q0 -72 -43.5 -114.5t-117.5 -42.5q-73 0 -117 42.5t-44 114.5h93q0 -32 17.5 -53.5t50.5 -21.5q34 0 51 21.5t17 53.5h93z" />
    <glyph glyph-name="obreve" unicode="&#x14f;" horiz-adv-x="599" 
d="M300 510q76 0 133.5 -31t90 -89t32.5 -140q0 -81 -32.5 -139.5t-90 -89.5t-133.5 -31q-75 0 -133 31t-90.5 89.5t-32.5 139.5q0 82 32.5 140t90.5 89t133 31zM300 408q-38 0 -64.5 -17.5t-40.5 -52.5t-14 -88t14 -88t40.5 -52.5t64.5 -17.5q37 0 63.5 17.5t40.5 52.5
t14 88t-14 88t-40.5 52.5t-63.5 17.5zM461 720q0 -72 -43.5 -114.5t-117.5 -42.5q-73 0 -117 42.5t-44 114.5h93q0 -32 17.5 -53.5t50.5 -21.5q34 0 51 21.5t17 53.5h93z" />
    <glyph glyph-name="Ohungarumlaut" unicode="&#x150;" horiz-adv-x="741" 
d="M371 670q98 0 169 -41t109.5 -117t38.5 -182t-38.5 -182t-109.5 -117t-169 -41t-169.5 41t-110 117t-38.5 182t38.5 182t110 117t169.5 41zM371 557q-55 0 -94.5 -26t-60 -77t-20.5 -124t20.5 -124t60 -77t94.5 -26t94 26t59.5 77t20.5 124t-20.5 124t-59.5 77t-94 26z
M483 892h126l-88 -162h-101zM277 892h126l-88 -162h-101z" />
    <glyph glyph-name="ohungarumlaut" unicode="&#x151;" horiz-adv-x="599" 
d="M300 510q76 0 133.5 -31t90 -89t32.5 -140q0 -81 -32.5 -139.5t-90 -89.5t-133.5 -31q-75 0 -133 31t-90.5 89.5t-32.5 139.5q0 82 32.5 140t90.5 89t133 31zM300 408q-38 0 -64.5 -17.5t-40.5 -52.5t-14 -88t14 -88t40.5 -52.5t64.5 -17.5q37 0 63.5 17.5t40.5 52.5
t14 88t-14 88t-40.5 52.5t-63.5 17.5zM334 572l72 170h123l-96 -170h-99zM135 572l72 170h123l-96 -170h-99z" />
    <glyph glyph-name="OE" unicode="&#x152;" horiz-adv-x="1060" 
d="M669 111h353v-111h-453v86q-36 -45 -89 -70.5t-119 -25.5q-95 0 -164 41t-106.5 117t-37.5 182t37.5 182t107 117t165.5 41q66 0 118 -25t88 -70v85h439v-111h-339v-164h263v-106h-263v-168zM368 103q52 0 89.5 26t57.5 77t20 124t-20 124t-57.5 77t-89.5 26
q-56 0 -95 -26t-59 -77t-20 -124t20 -124t59 -77t95 -26z" />
    <glyph glyph-name="oe" unicode="&#x153;" horiz-adv-x="957" 
d="M294 -10q-70 0 -127.5 31t-90 89.5t-32.5 139.5q0 82 32.5 140t90 89t127.5 31q75 0 130.5 -33.5t83.5 -98.5l-40 -1q28 66 82.5 99.5t128.5 33.5q73 0 125.5 -30t81 -83t28.5 -120q0 -17 -1.5 -32t-3.5 -26h-398v76h271q-2 55 -30.5 84.5t-76.5 29.5q-39 0 -66 -18
t-41.5 -53.5t-14.5 -89.5q0 -52 15.5 -87.5t44.5 -52t69 -16.5q44 0 71 17t42 47l109 -42q-16 -39 -48.5 -67t-76.5 -42.5t-96 -14.5q-75 0 -131 33t-84 98h40q-27 -65 -83 -98t-131 -33zM300 92q37 0 63.5 17.5t40.5 52.5t14 88t-14 88t-40.5 52.5t-63.5 17.5
q-38 0 -64.5 -17.5t-40.5 -52.5t-14 -88t14 -88t40.5 -52.5t64.5 -17.5z" />
    <glyph glyph-name="Racute" unicode="&#x154;" horiz-adv-x="680" 
d="M377 660q112 0 176 -54t64 -145q0 -97 -64 -148.5t-175 -51.5l-14 -8h-142v-253h-136v660h291zM361 358q58 0 86.5 23.5t28.5 72.5t-28.5 72.5t-86.5 23.5h-139v-192h139zM442 329l214 -329h-155l-177 289zM329 892h126l-88 -162h-101z" />
    <glyph glyph-name="racute" unicode="&#x155;" horiz-adv-x="422" 
d="M72 0v500h119l9 -98q20 52 58.5 80t96.5 28q17 0 31 -3t23 -8l-16 -115q-10 4 -24.5 6t-37.5 2q-30 0 -58 -14.5t-46 -44t-18 -74.5v-259h-137zM243 742h132l-100 -170h-101z" />
    <glyph glyph-name="uni0156" unicode="&#x156;" horiz-adv-x="680" 
d="M377 660q112 0 176 -54t64 -145q0 -97 -64 -148.5t-175 -51.5l-14 -8h-142v-253h-136v660h291zM361 358q58 0 86.5 23.5t28.5 72.5t-28.5 72.5t-86.5 23.5h-139v-192h139zM442 329l214 -329h-155l-177 289zM432 -66l-69 -173h-93l37 173h125z" />
    <glyph glyph-name="uni0157" unicode="&#x157;" horiz-adv-x="422" 
d="M72 0v500h119l9 -98q20 52 58.5 80t96.5 28q17 0 31 -3t23 -8l-16 -115q-10 4 -24.5 6t-37.5 2q-30 0 -58 -14.5t-46 -44t-18 -74.5v-259h-137zM209 -66l-69 -173h-93l37 173h125z" />
    <glyph glyph-name="Rcaron" unicode="&#x158;" horiz-adv-x="680" 
d="M377 660q112 0 176 -54t64 -145q0 -97 -64 -148.5t-175 -51.5l-14 -8h-142v-253h-136v660h291zM361 358q58 0 86.5 23.5t28.5 72.5t-28.5 72.5t-86.5 23.5h-139v-192h139zM442 329l214 -329h-155l-177 289zM500 892l-104 -162h-138l-104 162h103l70 -97l70 97h103z" />
    <glyph glyph-name="rcaron" unicode="&#x159;" horiz-adv-x="422" 
d="M72 0v500h119l9 -98q20 52 58.5 80t96.5 28q17 0 31 -3t23 -8l-16 -115q-10 4 -24.5 6t-37.5 2q-30 0 -58 -14.5t-46 -44t-18 -74.5v-259h-137zM417 742l-111 -170h-137l-111 170h105l75 -98l75 98h104z" />
    <glyph glyph-name="Sacute" unicode="&#x15a;" horiz-adv-x="644" 
d="M327 670q90 0 158 -31t116 -92l-77 -89q-41 52 -89.5 76.5t-112.5 24.5q-42 0 -69.5 -11t-40 -29t-12.5 -40q0 -27 21 -45.5t72 -30.5l123 -28q98 -22 140.5 -65.5t42.5 -112.5q0 -65 -34 -111.5t-95 -71t-140 -24.5q-69 0 -126.5 16.5t-102.5 45.5t-75 67l78 93
q23 -32 57 -57t77.5 -39.5t91.5 -14.5q41 0 69.5 9.5t43 27t14.5 42.5q0 26 -17.5 44.5t-64.5 28.5l-134 30q-58 14 -99.5 36.5t-63 58t-21.5 84.5q0 59 32 106t92.5 74.5t145.5 27.5zM330 892h126l-88 -162h-101z" />
    <glyph glyph-name="sacute" unicode="&#x15b;" horiz-adv-x="531" 
d="M272 -10q-76 0 -138.5 27t-101.5 76l79 80q24 -36 64 -59t95 -23q39 0 62.5 11.5t23.5 36.5q0 16 -11 27.5t-44 18.5l-88 18q-87 18 -123.5 54.5t-36.5 94.5q0 41 24.5 77t73.5 58.5t122 22.5q75 0 130.5 -23.5t87.5 -69.5l-82 -80q-22 35 -57.5 53.5t-74.5 18.5
q-28 0 -48 -6t-30 -16.5t-10 -26.5t14 -27.5t51 -19.5l102 -21q74 -15 106 -50.5t32 -85.5q0 -48 -25.5 -85.5t-75 -59t-121.5 -21.5zM273 742h132l-100 -170h-101z" />
    <glyph glyph-name="Scircumflex" unicode="&#x15c;" horiz-adv-x="644" 
d="M327 670q90 0 158 -31t116 -92l-77 -89q-41 52 -89.5 76.5t-112.5 24.5q-42 0 -69.5 -11t-40 -29t-12.5 -40q0 -27 21 -45.5t72 -30.5l123 -28q98 -22 140.5 -65.5t42.5 -112.5q0 -65 -34 -111.5t-95 -71t-140 -24.5q-69 0 -126.5 16.5t-102.5 45.5t-75 67l78 93
q23 -32 57 -57t77.5 -39.5t91.5 -14.5q41 0 69.5 9.5t43 27t14.5 42.5q0 26 -17.5 44.5t-64.5 28.5l-134 30q-58 14 -99.5 36.5t-63 58t-21.5 84.5q0 59 32 106t92.5 74.5t145.5 27.5zM501 730h-103l-70 98l-70 -98h-103l104 162h138z" />
    <glyph glyph-name="scircumflex" unicode="&#x15d;" horiz-adv-x="531" 
d="M272 -10q-76 0 -138.5 27t-101.5 76l79 80q24 -36 64 -59t95 -23q39 0 62.5 11.5t23.5 36.5q0 16 -11 27.5t-44 18.5l-88 18q-87 18 -123.5 54.5t-36.5 94.5q0 41 24.5 77t73.5 58.5t122 22.5q75 0 130.5 -23.5t87.5 -69.5l-82 -80q-22 35 -57.5 53.5t-74.5 18.5
q-28 0 -48 -6t-30 -16.5t-10 -26.5t14 -27.5t51 -19.5l102 -21q74 -15 106 -50.5t32 -85.5q0 -48 -25.5 -85.5t-75 -59t-121.5 -21.5zM450 565h-105l-75 98l-75 -98h-105l111 171h138z" />
    <glyph glyph-name="Scedilla" unicode="&#x15e;" horiz-adv-x="644" 
d="M327 670q90 0 158 -31t116 -92l-77 -89q-41 52 -89.5 76.5t-112.5 24.5q-42 0 -69.5 -11t-40 -29t-12.5 -40q0 -27 21 -45.5t72 -30.5l123 -28q98 -22 140.5 -65.5t42.5 -112.5q0 -65 -34 -111.5t-95 -71t-140 -24.5q-69 0 -126.5 16.5t-102.5 45.5t-75 67l78 93
q23 -32 57 -57t77.5 -39.5t91.5 -14.5q41 0 69.5 9.5t43 27t14.5 42.5q0 26 -17.5 44.5t-64.5 28.5l-134 30q-58 14 -99.5 36.5t-63 58t-21.5 84.5q0 59 32 106t92.5 74.5t145.5 27.5zM255 8l41 26q72 -14 104.5 -46t32.5 -81q0 -54 -36.5 -88t-97.5 -34q-35 0 -58.5 8.5
t-40.5 20.5l24 73q13 -8 27.5 -14t35.5 -6q26 0 43 16t17 46q0 24 -20.5 42t-71.5 37z" />
    <glyph glyph-name="scedilla" unicode="&#x15f;" horiz-adv-x="531" 
d="M272 -10q-76 0 -138.5 27t-101.5 76l79 80q24 -36 64 -59t95 -23q39 0 62.5 11.5t23.5 36.5q0 16 -11 27.5t-44 18.5l-88 18q-87 18 -123.5 54.5t-36.5 94.5q0 41 24.5 77t73.5 58.5t122 22.5q75 0 130.5 -23.5t87.5 -69.5l-82 -80q-22 35 -57.5 53.5t-74.5 18.5
q-28 0 -48 -6t-30 -16.5t-10 -26.5t14 -27.5t51 -19.5l102 -21q74 -15 106 -50.5t32 -85.5q0 -48 -25.5 -85.5t-75 -59t-121.5 -21.5zM203 8l41 26q72 -14 104.5 -46t32.5 -81q0 -54 -36.5 -88t-97.5 -34q-35 0 -58.5 8.5t-40.5 20.5l24 73q13 -8 27.5 -14t35.5 -6
q26 0 43 16t17 46q0 24 -20.5 42t-71.5 37z" />
    <glyph glyph-name="Scaron" unicode="&#x160;" horiz-adv-x="644" 
d="M327 670q90 0 158 -31t116 -92l-77 -89q-41 52 -89.5 76.5t-112.5 24.5q-42 0 -69.5 -11t-40 -29t-12.5 -40q0 -27 21 -45.5t72 -30.5l123 -28q98 -22 140.5 -65.5t42.5 -112.5q0 -65 -34 -111.5t-95 -71t-140 -24.5q-69 0 -126.5 16.5t-102.5 45.5t-75 67l78 93
q23 -32 57 -57t77.5 -39.5t91.5 -14.5q41 0 69.5 9.5t43 27t14.5 42.5q0 26 -17.5 44.5t-64.5 28.5l-134 30q-58 14 -99.5 36.5t-63 58t-21.5 84.5q0 59 32 106t92.5 74.5t145.5 27.5zM501 892l-104 -162h-138l-104 162h103l70 -97l70 97h103z" />
    <glyph glyph-name="scaron" unicode="&#x161;" horiz-adv-x="531" 
d="M272 -10q-76 0 -138.5 27t-101.5 76l79 80q24 -36 64 -59t95 -23q39 0 62.5 11.5t23.5 36.5q0 16 -11 27.5t-44 18.5l-88 18q-87 18 -123.5 54.5t-36.5 94.5q0 41 24.5 77t73.5 58.5t122 22.5q75 0 130.5 -23.5t87.5 -69.5l-82 -80q-22 35 -57.5 53.5t-74.5 18.5
q-28 0 -48 -6t-30 -16.5t-10 -26.5t14 -27.5t51 -19.5l102 -21q74 -15 106 -50.5t32 -85.5q0 -48 -25.5 -85.5t-75 -59t-121.5 -21.5zM447 742l-111 -170h-137l-111 170h105l75 -98l75 98h104z" />
    <glyph glyph-name="uni0162" unicode="&#x162;" horiz-adv-x="635" 
d="M259 5l32 29q72 -14 104.5 -46t32.5 -81q0 -54 -36.5 -88t-97.5 -34q-35 0 -58.5 8.5t-40.5 20.5l24 73q13 -8 27.5 -14t35.5 -6q27 0 43.5 16t16.5 46q0 24 -19 41.5t-64 34.5zM608 660v-111h-221v-549h-138v549h-222v111h581z" />
    <glyph glyph-name="uni0163" unicode="&#x163;" horiz-adv-x="430" 
d="M249 653v-490q0 -36 18.5 -52.5t50.5 -16.5q26 0 44.5 7.5t33.5 20.5l22 -91q-24 -19 -60 -30t-76 -11q-50 0 -88.5 15t-60 48t-21.5 88v474zM409 500v-102h-389v102h389zM187 8l41 26q72 -14 104.5 -46t32.5 -81q0 -54 -36.5 -88t-97.5 -34q-35 0 -58.5 8.5t-40.5 20.5
l24 73q13 -8 27.5 -14t35.5 -6q26 0 43 16t17 46q0 24 -20.5 42t-71.5 37z" />
    <glyph glyph-name="Tcaron" unicode="&#x164;" horiz-adv-x="635" 
d="M608 660v-111h-221v-549h-138v549h-222v111h581zM491 892l-104 -162h-138l-104 162h103l70 -97l70 97h103z" />
    <glyph glyph-name="tcaron" unicode="&#x165;" horiz-adv-x="430" 
d="M431 767l-49 -208h-81l20 208h110zM249 653v-490q0 -36 18.5 -52.5t50.5 -16.5q26 0 44.5 7.5t33.5 20.5l22 -91q-24 -19 -60 -30t-76 -11q-50 0 -88.5 15t-60 48t-21.5 88v474zM409 500v-102h-389v102h389z" />
    <glyph glyph-name="Tbar" unicode="&#x166;" horiz-adv-x="635" 
d="M608 660v-111h-221v-549h-138v549h-222v111h581zM539 364v-111h-443v111h443z" />
    <glyph glyph-name="tbar" unicode="&#x167;" horiz-adv-x="431" 
d="M411 329v-84h-391v84h391zM249 653v-490q0 -36 18.5 -52.5t51.5 -16.5q25 0 44 7.5t34 20.5l21 -91q-23 -19 -59 -30t-76 -11q-50 0 -88.5 15t-60 48t-22.5 88v474zM410 500v-102h-389v102h389z" />
    <glyph glyph-name="Utilde" unicode="&#x168;" horiz-adv-x="710" 
d="M637 660v-400q0 -135 -72 -202.5t-210 -67.5t-210 67.5t-72 202.5v400h138v-394q0 -83 35.5 -123t108.5 -40t108 40t35 123v394h139zM546 863q-2 -50 -17.5 -83.5t-41.5 -50t-60 -16.5q-28 0 -48 9.5t-34.5 21t-28 21t-28.5 9.5q-19 0 -28.5 -15.5t-13.5 -45.5h-84
q4 75 36.5 112.5t87.5 37.5q27 0 46.5 -9.5t33.5 -21.5t26.5 -21t27.5 -9q20 0 29.5 15.5t12.5 45.5h84z" />
    <glyph glyph-name="utilde" unicode="&#x169;" horiz-adv-x="618" 
d="M246 -10q-50 0 -90 18t-63.5 57.5t-23.5 102.5v332h137v-299q0 -58 24 -80.5t69 -22.5q21 0 41 7.5t35.5 23.5t24.5 41.5t9 60.5v269h137v-500h-122l-5 87q-25 -50 -68.5 -73.5t-104.5 -23.5zM496 712q-2 -50 -17.5 -83.5t-41.5 -50t-60 -16.5q-28 0 -48 9.5t-34.5 21
t-28 21t-28.5 9.5q-19 0 -28.5 -15.5t-13.5 -45.5h-84q4 75 36.5 112.5t87.5 37.5q27 0 46.5 -9.5t33.5 -21.5t26.5 -21t27.5 -9q20 0 29.5 15.5t12.5 45.5h84z" />
    <glyph glyph-name="Umacron" unicode="&#x16a;" horiz-adv-x="710" 
d="M637 660v-400q0 -135 -72 -202.5t-210 -67.5t-210 67.5t-72 202.5v400h138v-394q0 -83 35.5 -123t108.5 -40t108 40t35 123v394h139zM530 815v-91h-350v91h350z" />
    <glyph glyph-name="umacron" unicode="&#x16b;" horiz-adv-x="618" 
d="M246 -10q-50 0 -90 18t-63.5 57.5t-23.5 102.5v332h137v-299q0 -58 24 -80.5t69 -22.5q21 0 41 7.5t35.5 23.5t24.5 41.5t9 60.5v269h137v-500h-122l-5 87q-25 -50 -68.5 -73.5t-104.5 -23.5zM480 664v-91h-350v91h350z" />
    <glyph glyph-name="Ubreve" unicode="&#x16c;" horiz-adv-x="710" 
d="M637 660v-400q0 -135 -72 -202.5t-210 -67.5t-210 67.5t-72 202.5v400h138v-394q0 -83 35.5 -123t108.5 -40t108 40t35 123v394h139zM516 865q0 -72 -43.5 -114.5t-117.5 -42.5q-73 0 -117 42.5t-44 114.5h93q0 -32 17.5 -53.5t50.5 -21.5q34 0 51 21.5t17 53.5h93z" />
    <glyph glyph-name="ubreve" unicode="&#x16d;" horiz-adv-x="618" 
d="M246 -10q-50 0 -90 18t-63.5 57.5t-23.5 102.5v332h137v-299q0 -58 24 -80.5t69 -22.5q21 0 41 7.5t35.5 23.5t24.5 41.5t9 60.5v269h137v-500h-122l-5 87q-25 -50 -68.5 -73.5t-104.5 -23.5zM466 714q0 -72 -43.5 -114.5t-117.5 -42.5q-73 0 -117 42.5t-44 114.5h93
q0 -32 17.5 -53.5t50.5 -21.5q34 0 51 21.5t17 53.5h93z" />
    <glyph glyph-name="Uring" unicode="&#x16e;" horiz-adv-x="710" 
d="M637 660v-400q0 -135 -72 -202.5t-210 -67.5t-210 67.5t-72 202.5v400h138v-394q0 -83 35.5 -123t108.5 -40t108 40t35 123v394h139zM353 931q61 0 97.5 -33.5t36.5 -89.5t-36.5 -89.5t-97.5 -33.5q-60 0 -97.5 33.5t-37.5 89.5t37.5 89.5t97.5 33.5zM353 867
q-26 0 -43 -16.5t-17 -42.5t17 -42t43 -16q27 0 43.5 16t16.5 42t-16.5 42.5t-43.5 16.5z" />
    <glyph glyph-name="uring" unicode="&#x16f;" horiz-adv-x="618" 
d="M246 -10q-50 0 -90 18t-63.5 57.5t-23.5 102.5v332h137v-299q0 -58 24 -80.5t69 -22.5q21 0 41 7.5t35.5 23.5t24.5 41.5t9 60.5v269h137v-500h-122l-5 87q-25 -50 -68.5 -73.5t-104.5 -23.5zM303 800q61 0 97.5 -33.5t36.5 -89.5t-36.5 -89.5t-97.5 -33.5
q-60 0 -97.5 33.5t-37.5 89.5t37.5 89.5t97.5 33.5zM303 736q-26 0 -43 -16.5t-17 -42.5t17 -42t43 -16q27 0 43.5 16t16.5 42t-16.5 42.5t-43.5 16.5z" />
    <glyph glyph-name="Uhungarumlaut" unicode="&#x170;" horiz-adv-x="710" 
d="M637 660v-400q0 -135 -72 -202.5t-210 -67.5t-210 67.5t-72 202.5v400h138v-394q0 -83 35.5 -123t108.5 -40t108 40t35 123v394h139zM467 877h126l-88 -162h-101zM261 877h126l-88 -162h-101z" />
    <glyph glyph-name="uhungarumlaut" unicode="&#x171;" horiz-adv-x="618" 
d="M246 -10q-50 0 -90 18t-63.5 57.5t-23.5 102.5v332h137v-299q0 -58 24 -80.5t69 -22.5q21 0 41 7.5t35.5 23.5t24.5 41.5t9 60.5v269h137v-500h-122l-5 87q-25 -50 -68.5 -73.5t-104.5 -23.5zM339 566l72 170h123l-96 -170h-99zM140 566l72 170h123l-96 -170h-99z" />
    <glyph glyph-name="Uogonek" unicode="&#x172;" horiz-adv-x="710" 
d="M637 660v-400q0 -135 -72 -202.5t-210 -67.5t-210 67.5t-72 202.5v400h138v-394q0 -83 35.5 -123t108.5 -40t108 40t35 123v394h139zM402 -219q-61 0 -95 29.5t-34 78.5q0 58 39.5 91t113.5 51l58 -21q-46 -16 -71.5 -31.5t-35.5 -31.5t-10 -36q0 -23 15.5 -35.5
t41.5 -12.5q13 0 26 2.5t23 7.5l16 -74q-17 -9 -39 -13.5t-48 -4.5z" />
    <glyph glyph-name="uogonek" unicode="&#x173;" horiz-adv-x="618" 
d="M469 -229q-35 0 -65.5 12t-48.5 36.5t-18 62.5q0 43 19.5 71t53.5 47.5t78 33.5l58 -34q-56 -26 -81 -49.5t-25 -50.5q0 -22 14 -34.5t40 -12.5q12 0 24.5 2.5t21.5 6.5l20 -70q-17 -10 -40 -15.5t-51 -5.5zM246 -10q-50 0 -90 18t-63.5 57.5t-23.5 102.5v332h137v-299
q0 -58 24 -80.5t69 -22.5q21 0 41 7.5t35.5 23.5t24.5 41.5t9 60.5v269h137v-500h-122l-5 87q-25 -50 -68.5 -73.5t-104.5 -23.5z" />
    <glyph glyph-name="Wcircumflex" unicode="&#x174;" horiz-adv-x="984" 
d="M211 0l-192 660h147l130 -545l132 545h132l134 -545l129 545h141l-192 -660h-155l-92 360l-31 156h-2l-31 -156l-91 -360h-159zM665 730h-103l-70 98l-70 -98h-103l104 162h138z" />
    <glyph glyph-name="wcircumflex" unicode="&#x175;" horiz-adv-x="876" 
d="M717 500h146l-160 -500h-158l-109 340l-105 -340h-158l-160 500h146l100 -383l111 383h136l112 -383zM618 565h-105l-75 98l-75 -98h-105l111 171h138z" />
    <glyph glyph-name="Ycircumflex" unicode="&#x176;" horiz-adv-x="626" 
d="M616 660l-234 -413v-247h-138v247l-234 413h147l106 -197l50 -104l51 104l106 197h146zM486 718h-103l-70 98l-70 -98h-103l104 162h138z" />
    <glyph glyph-name="ycircumflex" unicode="&#x177;" horiz-adv-x="546" 
d="M542 500l-202 -531q-24 -68 -53.5 -108t-68 -58t-91.5 -18q-39 0 -71.5 9.5t-56.5 24.5l29 99q19 -15 40 -21.5t48 -6.5q28 0 48.5 12t34.5 48l17 43l-55 130l-153 377h152l95 -300l26 -100l31 106l91 294h139zM463 559h-105l-75 98l-75 -98h-105l111 171h138z" />
    <glyph glyph-name="Ydieresis" unicode="&#x178;" horiz-adv-x="626" 
d="M616 660l-234 -413v-247h-138v247l-234 413h147l106 -197l50 -104l51 104l106 197h146zM207 853q35 0 55.5 -18.5t20.5 -51.5q0 -32 -20.5 -51t-55.5 -19q-34 0 -54 19t-20 51q0 33 20 51.5t54 18.5zM417 853q36 0 56 -18.5t20 -51.5q0 -32 -20 -51t-56 -19q-34 0 -54 19
t-20 51q0 33 20 51.5t54 18.5z" />
    <glyph glyph-name="Zacute" unicode="&#x179;" horiz-adv-x="633" 
d="M156 62l-25 48h462v-110h-549v104l426 494l24 -48h-442v110h529v-104zM317 892h126l-88 -162h-101z" />
    <glyph glyph-name="zacute" unicode="&#x17a;" horiz-adv-x="523" 
d="M43 0v88l222 256l57 57l-83 -2h-194v101h429v-88l-221 -255l-57 -58l91 2h195v-101h-439zM255 742h132l-100 -170h-101z" />
    <glyph glyph-name="Zdotaccent" unicode="&#x17b;" horiz-adv-x="633" 
d="M156 62l-25 48h462v-110h-549v104l426 494l24 -48h-442v110h529v-104zM315 880q39 0 60 -19.5t21 -53.5q0 -35 -21 -54t-60 -19q-38 0 -59 19t-21 54q0 34 21 53.5t59 19.5z" />
    <glyph glyph-name="zdotaccent" unicode="&#x17c;" horiz-adv-x="523" 
d="M43 0v88l222 256l57 57l-83 -2h-194v101h429v-88l-221 -255l-57 -58l91 2h195v-101h-439zM252 720q39 0 60 -19.5t21 -53.5q0 -35 -21 -54t-60 -19q-38 0 -59 19t-21 54q0 34 21 53.5t59 19.5z" />
    <glyph glyph-name="Zcaron" unicode="&#x17d;" horiz-adv-x="633" 
d="M156 62l-25 48h462v-110h-549v104l426 494l24 -48h-442v110h529v-104zM488 892l-104 -162h-138l-104 162h103l70 -97l70 97h103z" />
    <glyph glyph-name="zcaron" unicode="&#x17e;" horiz-adv-x="523" 
d="M43 0v88l222 256l57 57l-83 -2h-194v101h429v-88l-221 -255l-57 -58l91 2h195v-101h-439zM429 742l-111 -170h-137l-111 170h105l75 -98l75 98h104z" />
    <glyph glyph-name="longs" unicode="&#x17f;" horiz-adv-x="301" 
d="M70 0v560q0 56 20.5 94t59 56.5t90.5 18.5q33 0 54.5 -6t35.5 -18l-12 -91q-10 7 -20 10t-24 3q-32 0 -51 -18.5t-19 -59.5v-549h-134z" />
    <glyph glyph-name="uni018E" unicode="&#x18e;" horiz-adv-x="633" 
d="M547 0h-509v111h371v168h-281v106h281v164h-357v111h495v-660z" />
    <glyph glyph-name="uni018F" unicode="&#x18f;" horiz-adv-x="710" 
d="M340 -10q-91 0 -158 38.5t-102.5 109t-35.5 164.5q0 14 1 28t2 29h529v-93h-461l72 47q-1 -10 -1.5 -19t-0.5 -17q0 -57 21.5 -95.5t58.5 -58.5t82 -20q55 0 92.5 25.5t57 77.5t19.5 130q0 71 -20.5 120.5t-59.5 75t-95 25.5q-61 0 -99.5 -30t-55.5 -87l-133 34
q21 65 63 108.5t100 65.5t126 22q98 0 168.5 -41t108 -117t37.5 -182t-38.5 -182t-109.5 -117t-168 -41z" />
    <glyph glyph-name="florin" unicode="&#x192;" horiz-adv-x="506" 
d="M403 730q34 0 55.5 -5.5t46.5 -20.5l-19 -94q-27 19 -62 19q-32 0 -52.5 -20.5t-27.5 -60.5l-85 -510q-13 -81 -58.5 -123.5t-120.5 -42.5q-35 0 -56.5 5.5t-45.5 20.5l18 94q26 -18 62 -18q33 0 53.5 20t26.5 59l85 510q14 82 59.5 124.5t120.5 42.5zM461 411v-101h-417
v101h417z" />
    <glyph glyph-name="Ohorn" unicode="&#x1a0;" horiz-adv-x="741" 
d="M666 766q0 -90 -50 -140t-148 -50l-13 84q61 0 84.5 26.5t23.5 79.5h103zM371 670q98 0 169 -41t109.5 -117t38.5 -182t-38.5 -182t-109.5 -117t-169 -41t-169.5 41t-110 117t-38.5 182t38.5 182t110 117t169.5 41zM371 557q-55 0 -94.5 -26t-60 -77t-20.5 -124
t20.5 -124t60 -77t94.5 -26t94 26t59.5 77t20.5 124t-20.5 124t-59.5 77t-94 26z" />
    <glyph glyph-name="ohorn" unicode="&#x1a1;" horiz-adv-x="599" 
d="M300 510q76 0 133.5 -31t90 -89t32.5 -140q0 -81 -32.5 -139.5t-90 -89.5t-133.5 -31q-75 0 -133 31t-90.5 89.5t-32.5 139.5q0 82 32.5 140t90.5 89t133 31zM300 408q-38 0 -64.5 -17.5t-40.5 -52.5t-14 -88t14 -88t40.5 -52.5t64.5 -17.5q37 0 63.5 17.5t40.5 52.5
t14 88t-14 88t-40.5 52.5t-63.5 17.5zM379 422v78q36 0 56 26t20 87h99q0 -98 -47 -144.5t-128 -46.5z" />
    <glyph glyph-name="Uhorn" unicode="&#x1af;" horiz-adv-x="710" 
d="M637 660v-400q0 -135 -72 -202.5t-210 -67.5t-210 67.5t-72 202.5v400h138v-394q0 -83 35.5 -123t108.5 -40t108 40t35 123v394h139zM747 766q0 -90 -48 -140t-140 -50l-12 84q53 0 75 26.5t22 79.5h103z" />
    <glyph glyph-name="uhorn" unicode="&#x1b0;" horiz-adv-x="626" 
d="M246 -10q-50 0 -90 18t-63.5 57.5t-23.5 102.5v332h137v-299q0 -58 24 -80.5t69 -22.5q21 0 41 7.5t35.5 23.5t24.5 41.5t9 60.5v269h137v-500h-122l-5 87q-25 -50 -68.5 -73.5t-104.5 -23.5zM476 422v78q36 0 56 26t20 87h99q0 -98 -47 -144.5t-128 -46.5z" />
    <glyph glyph-name="uni01C4" unicode="&#x1c4;" horiz-adv-x="1344" 
d="M341 660q155 0 240 -85.5t85 -244.5q0 -158 -85 -244t-240 -86h-255v660h255zM334 110q94 0 141.5 56.5t47.5 163.5t-47.5 163.5t-141.5 56.5h-110v-440h110zM867 62l-25 48h462v-110h-549v104l426 494l24 -48h-442v110h529v-104zM1199 892l-104 -162h-138l-104 162h103
l70 -97l70 97h103z" />
    <glyph glyph-name="uni01C5" unicode="&#x1c5;" horiz-adv-x="1238" 
d="M341 660q155 0 240 -85.5t85 -244.5q0 -158 -85 -244t-240 -86h-255v660h255zM334 110q94 0 141.5 56.5t47.5 163.5t-47.5 163.5t-141.5 56.5h-110v-440h110zM758 0v88l222 256l57 57l-83 -2h-194v101h429v-88l-221 -255l-57 -58l91 2h195v-101h-439zM1144 742l-111 -170
h-137l-111 170h105l75 -98l75 98h104z" />
    <glyph glyph-name="uni01C6" unicode="&#x1c6;" horiz-adv-x="1150" 
d="M261 -10q-62 0 -110.5 31t-76 89t-27.5 139q0 83 29 141.5t78.5 89t111.5 30.5q66 0 109 -38t56 -98l-13 -16v361h137v-719h-123l-9 152l16 -8q-6 -47 -31 -81.5t-63 -53.5t-84 -19zM301 95q36 0 62 18.5t40.5 54.5t14.5 86q0 48 -14 81.5t-40 51.5t-61 18
q-56 0 -87.5 -39.5t-31.5 -115.5t31 -115.5t86 -39.5zM670 0v88l222 256l57 57l-83 -2h-194v101h429v-88l-221 -255l-57 -58l91 2h195v-101h-439zM1056 742l-111 -170h-137l-111 170h105l75 -98l75 98h104z" />
    <glyph glyph-name="uni01C7" unicode="&#x1c7;" horiz-adv-x="1200" 
d="M224 111h348v-111h-486v660h138v-549zM1124 660v-417q0 -119 -67 -186t-190 -67q-88 0 -143 32t-76 90t-8 133l134 24q-12 -88 11 -127t85 -39q65 0 90.5 40t25.5 119v398h138z" />
    <glyph glyph-name="uni01C8" unicode="&#x1c8;" horiz-adv-x="883" 
d="M224 111h348v-111h-486v660h138v-549zM742 572q-43 0 -64 18.5t-21 54.5q0 37 21 55.5t64 18.5t64 -18.5t21 -55.5q0 -36 -21 -54.5t-64 -18.5zM810 500v-537q0 -65 -23.5 -104t-63.5 -56.5t-91 -17.5q-37 0 -67 8.5t-53 23.5l22 98q12 -10 30 -16.5t40 -6.5
q31 0 50 18.5t19 65.5v524h137z" />
    <glyph glyph-name="uni01C9" unicode="&#x1c9;" horiz-adv-x="601" 
d="M207 719v-565q0 -35 12 -49t40 -14q17 0 28 2.5t28 7.5l-12 -90q-17 -10 -42.5 -15.5t-50.5 -5.5q-73 0 -106.5 35.5t-33.5 113.5v580h137zM460 572q-43 0 -64 18.5t-21 54.5q0 37 21 55.5t64 18.5t64 -18.5t21 -55.5q0 -36 -21 -54.5t-64 -18.5zM528 500v-537
q0 -65 -23.5 -104t-63.5 -56.5t-91 -17.5q-37 0 -67 8.5t-53 23.5l22 98q12 -10 30 -16.5t40 -6.5q31 0 50 18.5t19 65.5v524h137z" />
    <glyph glyph-name="uni01CA" unicode="&#x1ca;" horiz-adv-x="1338" 
d="M653 660v-660h-158l-231 388l-57 108h-1l4 -114v-382h-124v660h157l231 -387l57 -109h2l-4 114v382h124zM1262 660v-417q0 -119 -67 -186t-190 -67q-88 0 -143 32t-76 90t-8 133l134 24q-12 -88 11 -127t85 -39q65 0 90.5 40t25.5 119v398h138z" />
    <glyph glyph-name="uni01CB" unicode="&#x1cb;" horiz-adv-x="1021" 
d="M653 660v-660h-158l-231 388l-57 108h-1l4 -114v-382h-124v660h157l231 -387l57 -109h2l-4 114v382h124zM880 572q-43 0 -64 18.5t-21 54.5q0 37 21 55.5t64 18.5t64 -18.5t21 -55.5q0 -36 -21 -54.5t-64 -18.5zM948 500v-537q0 -65 -23.5 -104t-63.5 -56.5t-91 -17.5
q-37 0 -67 8.5t-53 23.5l22 98q12 -10 30 -16.5t40 -6.5q31 0 50 18.5t19 65.5v524h137z" />
    <glyph glyph-name="uni01CC" unicode="&#x1cc;" horiz-adv-x="901" 
d="M72 0v500h123l8 -150l-17 16q12 49 38 80.5t63.5 47.5t82.5 16q52 0 92.5 -20t64 -60.5t23.5 -101.5v-328h-137v289q0 64 -25 88.5t-65 24.5q-28 0 -54.5 -13.5t-43 -43.5t-16.5 -80v-265h-137zM760 572q-43 0 -64 18.5t-21 54.5q0 37 21 55.5t64 18.5t64 -18.5t21 -55.5
q0 -36 -21 -54.5t-64 -18.5zM828 500v-537q0 -65 -23.5 -104t-63.5 -56.5t-91 -17.5q-37 0 -67 8.5t-53 23.5l22 98q12 -10 30 -16.5t40 -6.5q31 0 50 18.5t19 65.5v524h137z" />
    <glyph glyph-name="uni01DD" unicode="&#x1dd;" 
d="M278 510q80 0 137 -31t88.5 -89t31.5 -140t-32 -140t-88.5 -89t-131.5 -31t-129 32t-82.5 85t-28.5 116q0 17 1.5 32.5t2.5 25.5h399v-76h-339l67 21q0 -41 13.5 -71.5t38 -47t58.5 -16.5q39 0 65.5 18t40 54t13.5 89t-14 88t-41.5 51.5t-69.5 16.5q-45 0 -73 -19.5
t-44 -49.5l-110 42q18 38 51.5 67t78 45.5t97.5 16.5z" />
    <glyph glyph-name="Gcaron" unicode="&#x1e6;" horiz-adv-x="723" 
d="M357 -10q-91 0 -159.5 40t-106.5 116t-38 183q0 106 40 182.5t113 117.5t171 41q107 0 173 -39.5t105 -122.5l-128 -55q-16 53 -54.5 78.5t-94.5 25.5t-97 -26.5t-63 -77t-22 -123.5q0 -75 21 -126.5t62.5 -77t102.5 -25.5q33 0 61.5 8t49.5 24t33 41t12 58v15h-173v101
h292v-348h-97l-10 144l24 -17q-22 -66 -77.5 -101.5t-139.5 -35.5zM543 892l-104 -162h-138l-104 162h103l70 -97l70 97h103z" />
    <glyph glyph-name="gcaron" unicode="&#x1e7;" horiz-adv-x="549" 
d="M533 619l16 -98q-4 0 -8.5 0.5t-9.5 0.5q-45 0 -68.5 -20.5t-23.5 -56.5l-56 23q0 40 16 74.5t47.5 55.5t75.5 21h5h6zM369 94q81 0 125 -35t44 -98q0 -57 -33 -96.5t-92.5 -59.5t-137.5 -20q-129 0 -188.5 36t-59.5 94q0 41 31.5 69t104.5 31l-5 -16q-52 9 -79.5 34.5
t-27.5 70.5q0 46 35.5 75.5t96.5 34.5l60 -28h-14q-43 -3 -60.5 -17.5t-17.5 -32.5q0 -21 16.5 -31.5t47.5 -10.5h154zM276 -121q52 0 85.5 9t50 23t16.5 31q0 19 -15 30.5t-54 11.5h-169q-24 0 -39.5 -12t-15.5 -33q0 -28 37.5 -44t103.5 -16zM277 510q70 0 121.5 -20.5
t79 -58.5t27.5 -91q0 -52 -27.5 -90t-79 -58.5t-121.5 -20.5q-111 0 -170 45.5t-59 123.5q0 53 28 91t79 58.5t122 20.5zM277 424q-40 0 -66 -22t-26 -61t26 -61.5t66 -22.5t65.5 22.5t25.5 61.5t-25.5 61t-65.5 22zM439 742l-111 -170h-137l-111 170h105l75 -98l75 98h104z
" />
    <glyph glyph-name="uni01EA" unicode="&#x1ea;" horiz-adv-x="741" 
d="M371 670q98 0 169 -41t109.5 -117t38.5 -182t-38.5 -182t-109.5 -117t-169 -41t-169.5 41t-110 117t-38.5 182t38.5 182t110 117t169.5 41zM371 557q-55 0 -94.5 -26t-60 -77t-20.5 -124t20.5 -124t60 -77t94.5 -26t94 26t59.5 77t20.5 124t-20.5 124t-59.5 77t-94 26z
M403 -222q-61 0 -95 29.5t-34 78.5q0 58 39.5 91t113.5 51l58 -21q-46 -16 -71.5 -31.5t-35.5 -31.5t-10 -36q0 -23 15.5 -35.5t41.5 -12.5q13 0 26 2.5t23 7.5l16 -74q-17 -9 -39 -13.5t-48 -4.5z" />
    <glyph glyph-name="uni01EB" unicode="&#x1eb;" horiz-adv-x="599" 
d="M300 510q76 0 133.5 -31t90 -89t32.5 -140q0 -81 -32.5 -139.5t-90 -89.5t-133.5 -31q-75 0 -133 31t-90.5 89.5t-32.5 139.5q0 82 32.5 140t90.5 89t133 31zM300 408q-38 0 -64.5 -17.5t-40.5 -52.5t-14 -88t14 -88t40.5 -52.5t64.5 -17.5q37 0 63.5 17.5t40.5 52.5
t14 88t-14 88t-40.5 52.5t-63.5 17.5zM334 -216q-61 0 -95 29.5t-34 78.5q0 58 39.5 91t113.5 51l58 -21q-46 -16 -71.5 -31.5t-35.5 -31.5t-10 -36q0 -23 15.5 -35.5t41.5 -12.5q13 0 26 2.5t23 7.5l16 -74q-17 -9 -39 -13.5t-48 -4.5z" />
    <glyph glyph-name="uni01F1" unicode="&#x1f1;" horiz-adv-x="1344" 
d="M341 660q155 0 240 -85.5t85 -244.5q0 -158 -85 -244t-240 -86h-255v660h255zM334 110q94 0 141.5 56.5t47.5 163.5t-47.5 163.5t-141.5 56.5h-110v-440h110zM867 62l-25 48h462v-110h-549v104l426 494l24 -48h-442v110h529v-104z" />
    <glyph glyph-name="uni01F2" unicode="&#x1f2;" horiz-adv-x="1238" 
d="M341 660q155 0 240 -85.5t85 -244.5q0 -158 -85 -244t-240 -86h-255v660h255zM334 110q94 0 141.5 56.5t47.5 163.5t-47.5 163.5t-141.5 56.5h-110v-440h110zM758 0v88l222 256l57 57l-83 -2h-194v101h429v-88l-221 -255l-57 -58l91 2h195v-101h-439z" />
    <glyph glyph-name="uni01F3" unicode="&#x1f3;" horiz-adv-x="1150" 
d="M261 -10q-62 0 -110.5 31t-76 89t-27.5 139q0 83 29 141.5t78.5 89t111.5 30.5q66 0 109 -38t56 -98l-13 -16v361h137v-719h-123l-9 152l16 -8q-6 -47 -31 -81.5t-63 -53.5t-84 -19zM301 95q36 0 62 18.5t40.5 54.5t14.5 86q0 48 -14 81.5t-40 51.5t-61 18
q-56 0 -87.5 -39.5t-31.5 -115.5t31 -115.5t86 -39.5zM670 0v88l222 256l57 57l-83 -2h-194v101h429v-88l-221 -255l-57 -58l91 2h195v-101h-439z" />
    <glyph glyph-name="Aringacute" unicode="&#x1fa;" horiz-adv-x="671" 
d="M659 0h-143l-55 161h-253l-55 -161h-141l241 660h165zM239 263h191l-96 288zM334 844q61 0 97.5 -33.5t36.5 -89.5t-36.5 -89.5t-97.5 -33.5q-60 0 -97.5 33.5t-37.5 89.5t37.5 89.5t97.5 33.5zM334 780q-26 0 -43 -16.5t-17 -42.5t17 -42t43 -16q27 0 43.5 16t16.5 42
t-16.5 42.5t-43.5 16.5zM344 1050h126l-88 -162h-101z" />
    <glyph glyph-name="aringacute" unicode="&#x1fb;" horiz-adv-x="574" 
d="M357 319q0 43 -24.5 67t-64.5 24q-37 0 -65 -19t-41 -63l-117 36q17 66 74.5 106t154.5 40q66 0 115 -20.5t76.5 -61.5t27.5 -103v-203q0 -38 36 -38q17 0 32 5l-8 -85q-26 -13 -65 -13q-35 0 -63 12t-44 36.5t-16 61.5v4l24 4q-6 -38 -33 -64.5t-65.5 -40.5t-79.5 -14
q-51 0 -88 15.5t-57 45.5t-20 74q0 56 36 91.5t103 48.5l188 38l-1 -85l-120 -24q-34 -7 -51.5 -18.5t-17.5 -37.5q0 -25 18.5 -38t44.5 -13q21 0 41 5t36 16t25 30t9 46v135zM274 806q61 0 97.5 -33.5t36.5 -89.5t-36.5 -89.5t-97.5 -33.5q-60 0 -97.5 33.5t-37.5 89.5
t37.5 89.5t97.5 33.5zM274 742q-26 0 -43 -16.5t-17 -42.5t17 -42t43 -16q27 0 43.5 16t16.5 42t-16.5 42.5t-43.5 16.5zM227 842l54 145h126l-80 -145h-100z" />
    <glyph glyph-name="AEacute" unicode="&#x1fc;" horiz-adv-x="935" 
d="M563 108h334v-108h-465v202h-198l-93 -202h-141l321 660h562v-108h-320v-168h244v-103h-244v-173zM274 301h158v254h-34zM499 892h126l-88 -162h-101z" />
    <glyph glyph-name="aeacute" unicode="&#x1fd;" horiz-adv-x="885" 
d="M218 -10q-52 0 -91 15.5t-60.5 46t-21.5 75.5q0 56 36.5 90t100.5 47l176 35v19q0 44 -24.5 68t-65.5 24q-36 0 -63.5 -19t-41.5 -63l-114 36q6 42 36 75t77.5 52t105.5 19q71 0 122 -28t71 -85h-43q20 36 49.5 61t67.5 38.5t82 13.5q72 0 122.5 -30.5t77 -83
t26.5 -119.5q0 -17 -1 -33.5t-3 -36.5h-347v0q0 -60 38 -87.5t90 -27.5q41 0 65 17t39 47l110 -42q-16 -39 -47 -67t-73.5 -42.5t-91.5 -14.5q-82 0 -139.5 38.5t-80.5 112.5l32 -1q-5 -33 -23 -60t-46.5 -47.5t-65.5 -31.5t-81 -11zM250 87q21 0 40.5 5.5t34.5 16.5t24 29
t9 42v36l-105 -22q-37 -7 -52.5 -19t-15.5 -37q0 -21 15.5 -36t49.5 -15zM493 302h219q-1 33 -14.5 57t-36 37t-52.5 13q-47 0 -77.5 -28t-38.5 -79zM440 742h132l-100 -170h-101z" />
    <glyph glyph-name="Oslashacute" unicode="&#x1fe;" horiz-adv-x="741" 
d="M244 95l-48 39l293 410l49 -37zM72 -31l113 153l50 -39l-87 -114h-76zM554 525l-50 39l89 118h77zM371 670q98 0 169 -41t109.5 -117t38.5 -182t-38.5 -182t-109.5 -117t-169 -41t-169.5 41t-110 117t-38.5 182t38.5 182t110 117t169.5 41zM371 557q-55 0 -94.5 -26
t-60 -77t-20.5 -124t20.5 -124t60 -77t94.5 -26t94 26t59.5 77t20.5 124t-20.5 124t-59.5 77t-94 26zM373 892h126l-88 -162h-101z" />
    <glyph glyph-name="oslashacute" unicode="&#x1ff;" horiz-adv-x="599" 
d="M300 510q76 0 133.5 -31t90 -89t32.5 -140q0 -81 -32.5 -139.5t-90 -89.5t-133.5 -31q-75 0 -133 31t-90.5 89.5t-32.5 139.5q0 82 32.5 140t90.5 89t133 31zM300 408q-38 0 -64.5 -17.5t-40.5 -52.5t-14 -88t14 -88t40.5 -52.5t64.5 -17.5q37 0 63.5 17.5t40.5 52.5
t14 88t-14 88t-40.5 52.5t-63.5 17.5zM49 -27l435 553h67l-435 -553h-67zM303 742h132l-100 -170h-101z" />
    <glyph glyph-name="uni0200" unicode="&#x200;" horiz-adv-x="671" 
d="M659 0h-143l-55 161h-253l-55 -161h-141l241 660h165zM239 263h191l-96 288zM223 892l63 -162h-102l-88 162h127zM429 892l63 -162h-101l-88 162h126z" />
    <glyph glyph-name="uni0201" unicode="&#x201;" horiz-adv-x="574" 
d="M357 319q0 43 -24.5 67t-64.5 24q-37 0 -65 -19t-41 -63l-117 36q17 66 74.5 106t154.5 40q66 0 115 -20.5t76.5 -61.5t27.5 -103v-203q0 -38 36 -38q17 0 32 5l-8 -85q-26 -13 -65 -13q-35 0 -63 12t-44 36.5t-16 61.5v4l24 4q-6 -38 -33 -64.5t-65.5 -40.5t-79.5 -14
q-51 0 -88 15.5t-57 45.5t-20 74q0 56 36 91.5t103 48.5l188 38l-1 -85l-120 -24q-34 -7 -51.5 -18.5t-17.5 -37.5q0 -25 18.5 -38t44.5 -13q21 0 41 5t36 16t25 30t9 46v135zM236 572h-99l-96 170h123zM434 572h-98l-96 170h123z" />
    <glyph glyph-name="uni0202" unicode="&#x202;" horiz-adv-x="671" 
d="M659 0h-143l-55 161h-253l-55 -161h-141l241 660h165zM239 263h191l-96 288zM496 723h-93q0 32 -17 53.5t-51 21.5q-33 0 -50.5 -21.5t-17.5 -53.5h-93q0 72 44 114.5t117 42.5q74 0 117.5 -42.5t43.5 -114.5z" />
    <glyph glyph-name="uni0203" unicode="&#x203;" horiz-adv-x="574" 
d="M357 319q0 43 -24.5 67t-64.5 24q-37 0 -65 -19t-41 -63l-117 36q17 66 74.5 106t154.5 40q66 0 115 -20.5t76.5 -61.5t27.5 -103v-203q0 -38 36 -38q17 0 32 5l-8 -85q-26 -13 -65 -13q-35 0 -63 12t-44 36.5t-16 61.5v4l24 4q-6 -38 -33 -64.5t-65.5 -40.5t-79.5 -14
q-51 0 -88 15.5t-57 45.5t-20 74q0 56 36 91.5t103 48.5l188 38l-1 -85l-120 -24q-34 -7 -51.5 -18.5t-17.5 -37.5q0 -25 18.5 -38t44.5 -13q21 0 41 5t36 16t25 30t9 46v135zM437 563h-93q0 32 -17 53.5t-51 21.5q-33 0 -50.5 -21.5t-17.5 -53.5h-93q0 72 44 114.5
t117 42.5q74 0 117.5 -42.5t43.5 -114.5z" />
    <glyph glyph-name="uni0204" unicode="&#x204;" horiz-adv-x="633" 
d="M86 0v660h495v-111h-357v-164h281v-106h-281v-168h371v-111h-509zM222 892l63 -162h-102l-88 162h127zM428 892l63 -162h-101l-88 162h126z" />
    <glyph glyph-name="uni0205" unicode="&#x205;" 
d="M304 -10q-79 0 -137.5 31t-90.5 89t-32 140t32 140t89.5 89t131.5 31q76 0 129 -30.5t81 -83t28 -119.5q0 -20 -1 -38t-3 -32h-399v95h339l-66 -24q0 63 -28.5 97t-80.5 34q-38 0 -65.5 -18t-41.5 -53.5t-14 -89.5q0 -53 15.5 -87.5t44 -51.5t68.5 -17q44 0 71 17t42 47
l109 -42q-16 -39 -48.5 -67t-77 -42.5t-95.5 -14.5zM253 572h-99l-96 170h123zM451 572h-98l-96 170h123z" />
    <glyph glyph-name="uni0206" unicode="&#x206;" horiz-adv-x="633" 
d="M86 0v660h495v-111h-357v-164h281v-106h-281v-168h371v-111h-509zM495 723h-93q0 32 -17 53.5t-51 21.5q-33 0 -50.5 -21.5t-17.5 -53.5h-93q0 72 44 114.5t117 42.5q74 0 117.5 -42.5t43.5 -114.5z" />
    <glyph glyph-name="uni0207" unicode="&#x207;" 
d="M304 -10q-79 0 -137.5 31t-90.5 89t-32 140t32 140t89.5 89t131.5 31q76 0 129 -30.5t81 -83t28 -119.5q0 -20 -1 -38t-3 -32h-399v95h339l-66 -24q0 63 -28.5 97t-80.5 34q-38 0 -65.5 -18t-41.5 -53.5t-14 -89.5q0 -53 15.5 -87.5t44 -51.5t68.5 -17q44 0 71 17t42 47
l109 -42q-16 -39 -48.5 -67t-77 -42.5t-95.5 -14.5zM454 563h-93q0 32 -17 53.5t-51 21.5q-33 0 -50.5 -21.5t-17.5 -53.5h-93q0 72 44 114.5t117 42.5q74 0 117.5 -42.5t43.5 -114.5z" />
    <glyph glyph-name="uni0208" unicode="&#x208;" horiz-adv-x="310" 
d="M224 660v-660h-138v660h138zM43 892l63 -162h-102l-88 162h127zM249 892l63 -162h-101l-88 162h126z" />
    <glyph glyph-name="uni0209" unicode="&#x209;" horiz-adv-x="282" 
d="M209 500v-500h-137v500h137zM101 572h-99l-96 170h123zM299 572h-98l-96 170h123z" />
    <glyph glyph-name="uni020A" unicode="&#x20a;" horiz-adv-x="310" 
d="M224 660v-660h-138v660h138zM316 723h-93q0 32 -17 53.5t-51 21.5q-33 0 -50.5 -21.5t-17.5 -53.5h-93q0 72 44 114.5t117 42.5q74 0 117.5 -42.5t43.5 -114.5z" />
    <glyph glyph-name="uni020B" unicode="&#x20b;" horiz-adv-x="282" 
d="M209 500v-500h-137v500h137zM302 563h-93q0 32 -17 53.5t-51 21.5q-33 0 -50.5 -21.5t-17.5 -53.5h-93q0 72 44 114.5t117 42.5q74 0 117.5 -42.5t43.5 -114.5z" />
    <glyph glyph-name="uni020C" unicode="&#x20c;" horiz-adv-x="741" 
d="M371 670q98 0 169 -41t109.5 -117t38.5 -182t-38.5 -182t-109.5 -117t-169 -41t-169.5 41t-110 117t-38.5 182t38.5 182t110 117t169.5 41zM371 557q-55 0 -94.5 -26t-60 -77t-20.5 -124t20.5 -124t60 -77t94.5 -26t94 26t59.5 77t20.5 124t-20.5 124t-59.5 77t-94 26z
M259 892l63 -162h-102l-88 162h127zM465 892l63 -162h-101l-88 162h126z" />
    <glyph glyph-name="uni020D" unicode="&#x20d;" horiz-adv-x="599" 
d="M300 510q76 0 133.5 -31t90 -89t32.5 -140q0 -81 -32.5 -139.5t-90 -89.5t-133.5 -31q-75 0 -133 31t-90.5 89.5t-32.5 139.5q0 82 32.5 140t90.5 89t133 31zM300 408q-38 0 -64.5 -17.5t-40.5 -52.5t-14 -88t14 -88t40.5 -52.5t64.5 -17.5q37 0 63.5 17.5t40.5 52.5
t14 88t-14 88t-40.5 52.5t-63.5 17.5zM260 572h-99l-96 170h123zM458 572h-98l-96 170h123z" />
    <glyph glyph-name="uni020E" unicode="&#x20e;" horiz-adv-x="741" 
d="M371 670q98 0 169 -41t109.5 -117t38.5 -182t-38.5 -182t-109.5 -117t-169 -41t-169.5 41t-110 117t-38.5 182t38.5 182t110 117t169.5 41zM371 557q-55 0 -94.5 -26t-60 -77t-20.5 -124t20.5 -124t60 -77t94.5 -26t94 26t59.5 77t20.5 124t-20.5 124t-59.5 77t-94 26z
M532 723h-93q0 32 -17 53.5t-51 21.5q-33 0 -50.5 -21.5t-17.5 -53.5h-93q0 72 44 114.5t117 42.5q74 0 117.5 -42.5t43.5 -114.5z" />
    <glyph glyph-name="uni020F" unicode="&#x20f;" horiz-adv-x="599" 
d="M300 510q76 0 133.5 -31t90 -89t32.5 -140q0 -81 -32.5 -139.5t-90 -89.5t-133.5 -31q-75 0 -133 31t-90.5 89.5t-32.5 139.5q0 82 32.5 140t90.5 89t133 31zM300 408q-38 0 -64.5 -17.5t-40.5 -52.5t-14 -88t14 -88t40.5 -52.5t64.5 -17.5q37 0 63.5 17.5t40.5 52.5
t14 88t-14 88t-40.5 52.5t-63.5 17.5zM461 563h-93q0 32 -17 53.5t-51 21.5q-33 0 -50.5 -21.5t-17.5 -53.5h-93q0 72 44 114.5t117 42.5q74 0 117.5 -42.5t43.5 -114.5z" />
    <glyph glyph-name="uni0210" unicode="&#x210;" horiz-adv-x="680" 
d="M377 660q112 0 176 -54t64 -145q0 -97 -64 -148.5t-175 -51.5l-14 -8h-142v-253h-136v660h291zM361 358q58 0 86.5 23.5t28.5 72.5t-28.5 72.5t-86.5 23.5h-139v-192h139zM442 329l214 -329h-155l-177 289zM215 892l63 -162h-102l-88 162h127zM421 892l63 -162h-101
l-88 162h126z" />
    <glyph glyph-name="uni0211" unicode="&#x211;" horiz-adv-x="422" 
d="M72 0v500h119l9 -98q20 52 58.5 80t96.5 28q17 0 31 -3t23 -8l-16 -115q-10 4 -24.5 6t-37.5 2q-30 0 -58 -14.5t-46 -44t-18 -74.5v-259h-137zM200 572h-99l-96 170h123zM398 572h-98l-96 170h123z" />
    <glyph glyph-name="uni0212" unicode="&#x212;" horiz-adv-x="680" 
d="M377 660q112 0 176 -54t64 -145q0 -97 -64 -148.5t-175 -51.5l-14 -8h-142v-253h-136v660h291zM361 358q58 0 86.5 23.5t28.5 72.5t-28.5 72.5t-86.5 23.5h-139v-192h139zM442 329l214 -329h-155l-177 289zM488 723h-93q0 32 -17 53.5t-51 21.5q-33 0 -50.5 -21.5
t-17.5 -53.5h-93q0 72 44 114.5t117 42.5q74 0 117.5 -42.5t43.5 -114.5z" />
    <glyph glyph-name="uni0213" unicode="&#x213;" horiz-adv-x="422" 
d="M72 0v500h119l9 -98q20 52 58.5 80t96.5 28q17 0 31 -3t23 -8l-16 -115q-10 4 -24.5 6t-37.5 2q-30 0 -58 -14.5t-46 -44t-18 -74.5v-259h-137zM401 563h-93q0 32 -17 53.5t-51 21.5q-33 0 -50.5 -21.5t-17.5 -53.5h-93q0 72 44 114.5t117 42.5q74 0 117.5 -42.5
t43.5 -114.5z" />
    <glyph glyph-name="uni0214" unicode="&#x214;" horiz-adv-x="710" 
d="M637 660v-400q0 -135 -72 -202.5t-210 -67.5t-210 67.5t-72 202.5v400h138v-394q0 -83 35.5 -123t108.5 -40t108 40t35 123v394h139zM243 877l63 -162h-102l-88 162h127zM449 877l63 -162h-101l-88 162h126z" />
    <glyph glyph-name="uni0215" unicode="&#x215;" horiz-adv-x="618" 
d="M246 -10q-50 0 -90 18t-63.5 57.5t-23.5 102.5v332h137v-299q0 -58 24 -80.5t69 -22.5q21 0 41 7.5t35.5 23.5t24.5 41.5t9 60.5v269h137v-500h-122l-5 87q-25 -50 -68.5 -73.5t-104.5 -23.5zM265 566h-99l-96 170h123zM463 566h-98l-96 170h123z" />
    <glyph glyph-name="uni0216" unicode="&#x216;" horiz-adv-x="710" 
d="M637 660v-400q0 -135 -72 -202.5t-210 -67.5t-210 67.5t-72 202.5v400h138v-394q0 -83 35.5 -123t108.5 -40t108 40t35 123v394h139zM516 708h-93q0 32 -17 53.5t-51 21.5q-33 0 -50.5 -21.5t-17.5 -53.5h-93q0 72 44 114.5t117 42.5q74 0 117.5 -42.5t43.5 -114.5z" />
    <glyph glyph-name="uni0217" unicode="&#x217;" horiz-adv-x="618" 
d="M246 -10q-50 0 -90 18t-63.5 57.5t-23.5 102.5v332h137v-299q0 -58 24 -80.5t69 -22.5q21 0 41 7.5t35.5 23.5t24.5 41.5t9 60.5v269h137v-500h-122l-5 87q-25 -50 -68.5 -73.5t-104.5 -23.5zM466 557h-93q0 32 -17 53.5t-51 21.5q-33 0 -50.5 -21.5t-17.5 -53.5h-93
q0 72 44 114.5t117 42.5q74 0 117.5 -42.5t43.5 -114.5z" />
    <glyph glyph-name="uni0218" unicode="&#x218;" horiz-adv-x="644" 
d="M327 670q90 0 158 -31t116 -92l-77 -89q-41 52 -89.5 76.5t-112.5 24.5q-42 0 -69.5 -11t-40 -29t-12.5 -40q0 -27 21 -45.5t72 -30.5l123 -28q98 -22 140.5 -65.5t42.5 -112.5q0 -65 -34 -111.5t-95 -71t-140 -24.5q-69 0 -126.5 16.5t-102.5 45.5t-75 67l78 93
q23 -32 57 -57t77.5 -39.5t91.5 -14.5q41 0 69.5 9.5t43 27t14.5 42.5q0 26 -17.5 44.5t-64.5 28.5l-134 30q-58 14 -99.5 36.5t-63 58t-21.5 84.5q0 59 32 106t92.5 74.5t145.5 27.5zM391 -66l-69 -173h-93l37 173h125z" />
    <glyph glyph-name="uni0219" unicode="&#x219;" horiz-adv-x="531" 
d="M272 -10q-76 0 -138.5 27t-101.5 76l79 80q24 -36 64 -59t95 -23q39 0 62.5 11.5t23.5 36.5q0 16 -11 27.5t-44 18.5l-88 18q-87 18 -123.5 54.5t-36.5 94.5q0 41 24.5 77t73.5 58.5t122 22.5q75 0 130.5 -23.5t87.5 -69.5l-82 -80q-22 35 -57.5 53.5t-74.5 18.5
q-28 0 -48 -6t-30 -16.5t-10 -26.5t14 -27.5t51 -19.5l102 -21q74 -15 106 -50.5t32 -85.5q0 -48 -25.5 -85.5t-75 -59t-121.5 -21.5zM338 -66l-69 -173h-93l37 173h125z" />
    <glyph glyph-name="uni021A" unicode="&#x21a;" horiz-adv-x="635" 
d="M608 660v-111h-221v-549h-138v549h-222v111h581zM389 -66l-69 -173h-93l37 173h125z" />
    <glyph glyph-name="uni021B" unicode="&#x21b;" horiz-adv-x="430" 
d="M249 653v-490q0 -36 18.5 -52.5t50.5 -16.5q26 0 44.5 7.5t33.5 20.5l22 -91q-24 -19 -60 -30t-76 -11q-50 0 -88.5 15t-60 48t-21.5 88v474zM409 500v-102h-389v102h389zM323 -66l-69 -173h-93l37 173h125z" />
    <glyph glyph-name="uni022A" unicode="&#x22a;" horiz-adv-x="741" 
d="M371 670q98 0 169 -41t109.5 -117t38.5 -182t-38.5 -182t-109.5 -117t-169 -41t-169.5 41t-110 117t-38.5 182t38.5 182t110 117t169.5 41zM371 557q-55 0 -94.5 -26t-60 -77t-20.5 -124t20.5 -124t60 -77t94.5 -26t94 26t59.5 77t20.5 124t-20.5 124t-59.5 77t-94 26z
M265 865q35 0 55.5 -18.5t20.5 -51.5q0 -32 -20.5 -51t-55.5 -19q-34 0 -54 19t-20 51q0 33 20 51.5t54 18.5zM475 865q36 0 56 -18.5t20 -51.5q0 -32 -20 -51t-56 -19q-34 0 -54 19t-20 51q0 33 20 51.5t54 18.5zM546 1012v-91h-350v91h350z" />
    <glyph glyph-name="uni022B" unicode="&#x22b;" horiz-adv-x="599" 
d="M300 510q76 0 133.5 -31t90 -89t32.5 -140q0 -81 -32.5 -139.5t-90 -89.5t-133.5 -31q-75 0 -133 31t-90.5 89.5t-32.5 139.5q0 82 32.5 140t90.5 89t133 31zM300 408q-38 0 -64.5 -17.5t-40.5 -52.5t-14 -88t14 -88t40.5 -52.5t64.5 -17.5q37 0 63.5 17.5t40.5 52.5
t14 88t-14 88t-40.5 52.5t-63.5 17.5zM194 705q35 0 55.5 -18.5t20.5 -51.5q0 -32 -20.5 -51t-55.5 -19q-34 0 -54 19t-20 51q0 33 20 51.5t54 18.5zM404 705q36 0 56 -18.5t20 -51.5q0 -32 -20 -51t-56 -19q-34 0 -54 19t-20 51q0 33 20 51.5t54 18.5zM475 852v-91h-350v91
h350z" />
    <glyph glyph-name="uni022C" unicode="&#x22c;" horiz-adv-x="741" 
d="M371 670q98 0 169 -41t109.5 -117t38.5 -182t-38.5 -182t-109.5 -117t-169 -41t-169.5 41t-110 117t-38.5 182t38.5 182t110 117t169.5 41zM371 557q-55 0 -94.5 -26t-60 -77t-20.5 -124t20.5 -124t60 -77t94.5 -26t94 26t59.5 77t20.5 124t-20.5 124t-59.5 77t-94 26z
M562 878q-2 -50 -17.5 -83.5t-41.5 -50t-60 -16.5q-28 0 -48 9.5t-34.5 21t-28 21t-28.5 9.5q-19 0 -28.5 -15.5t-13.5 -45.5h-84q4 75 36.5 112.5t87.5 37.5q27 0 46.5 -9.5t33.5 -21.5t26.5 -21t27.5 -9q20 0 29.5 15.5t12.5 45.5h84zM545 1033v-91h-350v91h350z" />
    <glyph glyph-name="uni022D" unicode="&#x22d;" horiz-adv-x="599" 
d="M300 510q76 0 133.5 -31t90 -89t32.5 -140q0 -81 -32.5 -139.5t-90 -89.5t-133.5 -31q-75 0 -133 31t-90.5 89.5t-32.5 139.5q0 82 32.5 140t90.5 89t133 31zM300 408q-38 0 -64.5 -17.5t-40.5 -52.5t-14 -88t14 -88t40.5 -52.5t64.5 -17.5q37 0 63.5 17.5t40.5 52.5
t14 88t-14 88t-40.5 52.5t-63.5 17.5zM491 718q-2 -50 -17.5 -83.5t-41.5 -50t-60 -16.5q-28 0 -48 9.5t-34.5 21t-28 21t-28.5 9.5q-19 0 -28.5 -15.5t-13.5 -45.5h-84q4 75 36.5 112.5t87.5 37.5q27 0 46.5 -9.5t33.5 -21.5t26.5 -21t27.5 -9q20 0 29.5 15.5t12.5 45.5h84
zM474 873v-91h-350v91h350z" />
    <glyph glyph-name="uni0230" unicode="&#x230;" horiz-adv-x="741" 
d="M371 670q98 0 169 -41t109.5 -117t38.5 -182t-38.5 -182t-109.5 -117t-169 -41t-169.5 41t-110 117t-38.5 182t38.5 182t110 117t169.5 41zM371 557q-55 0 -94.5 -26t-60 -77t-20.5 -124t20.5 -124t60 -77t94.5 -26t94 26t59.5 77t20.5 124t-20.5 124t-59.5 77t-94 26z
M371 880q39 0 60 -19.5t21 -53.5q0 -35 -21 -54t-60 -19q-38 0 -59 19t-21 54q0 34 21 53.5t59 19.5zM546 1025v-91h-350v91h350z" />
    <glyph glyph-name="uni0231" unicode="&#x231;" horiz-adv-x="599" 
d="M300 510q76 0 133.5 -31t90 -89t32.5 -140q0 -81 -32.5 -139.5t-90 -89.5t-133.5 -31q-75 0 -133 31t-90.5 89.5t-32.5 139.5q0 82 32.5 140t90.5 89t133 31zM300 408q-38 0 -64.5 -17.5t-40.5 -52.5t-14 -88t14 -88t40.5 -52.5t64.5 -17.5q37 0 63.5 17.5t40.5 52.5
t14 88t-14 88t-40.5 52.5t-63.5 17.5zM300 720q39 0 60 -19.5t21 -53.5q0 -35 -21 -54t-60 -19q-38 0 -59 19t-21 54q0 34 21 53.5t59 19.5zM475 865v-91h-350v91h350z" />
    <glyph glyph-name="uni0232" unicode="&#x232;" horiz-adv-x="626" 
d="M616 660l-234 -413v-247h-138v247l-234 413h147l106 -197l50 -104l51 104l106 197h146zM488 818v-91h-350v91h350z" />
    <glyph glyph-name="uni0233" unicode="&#x233;" horiz-adv-x="546" 
d="M542 500l-202 -531q-24 -68 -53.5 -108t-68 -58t-91.5 -18q-39 0 -71.5 9.5t-56.5 24.5l29 99q19 -15 40 -21.5t48 -6.5q28 0 48.5 12t34.5 48l17 43l-55 130l-153 377h152l95 -300l26 -100l31 106l91 294h139zM458 664v-91h-350v91h350z" />
    <glyph glyph-name="uni0237" unicode="&#x237;" horiz-adv-x="282" 
d="M209 500v-537q0 -65 -23.5 -104t-63.5 -56.5t-91 -17.5q-37 0 -67 8.5t-53 23.5l22 98q12 -10 30 -16.5t40 -6.5q31 0 50 18.5t19 65.5v524h137z" />
    <glyph glyph-name="uni0241" unicode="&#x241;" horiz-adv-x="587" 
d="M306 670q75 0 132.5 -27t90 -75.5t32.5 -113.5q0 -77 -27.5 -125t-73 -74.5t-101.5 -38.5v-216h-134v294q71 8 112 28t58 52.5t17 77.5q0 31 -15 54t-41 36t-60 13q-60 0 -97 -34t-45 -97l-130 50q13 57 47.5 101.5t92.5 69.5t142 25z" />
    <glyph glyph-name="uni0242" unicode="&#x242;" horiz-adv-x="529" 
d="M268 511q72 0 126.5 -21t86 -61.5t31.5 -99.5q0 -61 -26 -100.5t-68.5 -61.5t-94.5 -31v-136h-137v201q70 9 108.5 23t54.5 35t16 51q0 42 -26.5 64t-79.5 22q-52 0 -80.5 -29.5t-38.5 -77.5l-132 44q12 52 44 92t86 63t130 23z" />
    <glyph glyph-name="uni0259" unicode="&#x259;" 
d="M283 -10q-75 0 -128.5 30t-82 82.5t-28.5 120.5q0 14 1.5 28.5t3.5 28.5h397v-77h-337l68 42q-1 -9 -1.5 -16.5t-0.5 -14.5q0 -58 29.5 -90.5t79.5 -32.5q57 0 88 38.5t31 116.5q0 56 -13.5 92t-40 53t-67.5 17q-39 0 -67.5 -20t-42.5 -54l-115 39q17 42 49 73t77.5 47.5
t101.5 16.5q81 0 136.5 -31t84 -89t28.5 -140q0 -122 -65.5 -191t-185.5 -69z" />
    <glyph glyph-name="uni02B9" unicode="&#x2b9;" horiz-adv-x="600" 
d="M224 682l-80 -266h-99l52 266h127z" />
    <glyph glyph-name="uni02BA" unicode="&#x2ba;" horiz-adv-x="449" 
d="M417 682l-80 -266h-99l52 266h127zM224 682l-80 -266h-99l52 266h127z" />
    <glyph glyph-name="uni02BB" unicode="&#x2bb;" horiz-adv-x="600" 
d="M266 774l-38 -202h-123l71 202h90z" />
    <glyph glyph-name="uni02BC" unicode="&#x2bc;" horiz-adv-x="600" 
d="M143 694q32 0 53 -15.5t32 -41t11 -56.5q0 -41 -16.5 -79t-45.5 -68t-66 -47l-60 47q28 11 50.5 27t38.5 36t23 41l-5 3q-5 -3 -12 -5.5t-20 -2.5q-16 0 -32 8.5t-27 25t-11 41.5q0 27 12 46t32 29.5t43 10.5z" />
    <glyph glyph-name="uni02BE" unicode="&#x2be;" horiz-adv-x="343" 
d="M120 719q68 0 107 -37.5t39 -97.5t-39 -97t-107 -37h-36v71h38q30 0 47.5 17.5t17.5 45.5t-17.5 45.5t-47.5 17.5h-38v72h36z" />
    <glyph glyph-name="uni02BF" unicode="&#x2bf;" horiz-adv-x="343" 
d="M222 450q-66 0 -105.5 37t-39.5 97t39.5 97.5t105.5 37.5h37v-72h-39q-28 0 -46.5 -17.5t-18.5 -45.5t18.5 -45.5t46.5 -17.5h39v-71h-37z" />
    <glyph glyph-name="circumflex" unicode="&#x2c6;" horiz-adv-x="500" 
d="M430 565h-105l-75 98l-75 -98h-105l111 171h138z" />
    <glyph glyph-name="caron" unicode="&#x2c7;" horiz-adv-x="500" 
d="M429 742l-111 -170h-137l-111 170h105l75 -98l75 98h104z" />
    <glyph glyph-name="uni02C8" unicode="&#x2c8;" horiz-adv-x="232" 
d="M65 719h102v-264h-102v264z" />
    <glyph glyph-name="uni02C9" unicode="&#x2c9;" horiz-adv-x="500" 
d="M425 670v-91h-350v91h350z" />
    <glyph glyph-name="uni02CA" unicode="&#x2ca;" horiz-adv-x="600" 
d="M269 742h132l-100 -170h-101z" />
    <glyph glyph-name="uni02CB" unicode="&#x2cb;" horiz-adv-x="538" 
d="M301 742l70 -170h-102l-100 170h132z" />
    <glyph glyph-name="uni02CC" unicode="&#x2cc;" horiz-adv-x="232" 
d="M65 60h102v-264h-102v264z" />
    <glyph glyph-name="breve" unicode="&#x2d8;" horiz-adv-x="500" 
d="M411 720q0 -72 -43.5 -114.5t-117.5 -42.5q-73 0 -117 42.5t-44 114.5h93q0 -32 17.5 -53.5t50.5 -21.5q34 0 51 21.5t17 53.5h93z" />
    <glyph glyph-name="dotaccent" unicode="&#x2d9;" horiz-adv-x="500" 
d="M250 720q39 0 60 -19.5t21 -53.5q0 -35 -21 -54t-60 -19q-38 0 -59 19t-21 54q0 34 21 53.5t59 19.5z" />
    <glyph glyph-name="ring" unicode="&#x2da;" horiz-adv-x="500" 
d="M250 806q61 0 97.5 -33.5t36.5 -89.5t-36.5 -89.5t-97.5 -33.5q-60 0 -97.5 33.5t-37.5 89.5t37.5 89.5t97.5 33.5zM250 742q-26 0 -43 -16.5t-17 -42.5t17 -42t43 -16q27 0 43.5 16t16.5 42t-16.5 42.5t-43.5 16.5z" />
    <glyph glyph-name="ogonek" unicode="&#x2db;" horiz-adv-x="500" 
d="M271 -215q-61 0 -95 29.5t-34 78.5q0 58 39.5 91t113.5 51l58 -21q-46 -16 -71.5 -31.5t-35.5 -31.5t-10 -36q0 -23 15.5 -35.5t41.5 -12.5q13 0 26 2.5t23 7.5l16 -74q-17 -9 -39 -13.5t-48 -4.5z" />
    <glyph glyph-name="tilde" unicode="&#x2dc;" horiz-adv-x="500" 
d="M442 718q-2 -50 -17.5 -83.5t-41.5 -50t-60 -16.5q-28 0 -48 9.5t-34.5 21t-28 21t-28.5 9.5q-19 0 -28.5 -15.5t-13.5 -45.5h-84q4 75 36.5 112.5t87.5 37.5q27 0 46.5 -9.5t33.5 -21.5t26.5 -21t27.5 -9q20 0 29.5 15.5t12.5 45.5h84z" />
    <glyph glyph-name="hungarumlaut" unicode="&#x2dd;" horiz-adv-x="500" 
d="M252 572l72 170h123l-96 -170h-99zM53 572l72 170h123l-96 -170h-99z" />
    <glyph glyph-name="gravecomb" unicode="&#x300;" horiz-adv-x="0" 
d="M-12 742l70 -170h-102l-100 170h132z" />
    <glyph glyph-name="acutecomb" unicode="&#x301;" horiz-adv-x="0" 
d="M3 742h132l-100 -170h-101z" />
    <glyph glyph-name="uni0302" unicode="&#x302;" horiz-adv-x="0" 
d="M180 565h-105l-75 98l-75 -98h-105l111 171h138z" />
    <glyph glyph-name="tildecomb" unicode="&#x303;" horiz-adv-x="0" 
d="M191 718q-2 -50 -17.5 -83.5t-41.5 -50t-60 -16.5q-28 0 -48 9.5t-34.5 21t-28 21t-28.5 9.5q-19 0 -28.5 -15.5t-13.5 -45.5h-84q4 75 36.5 112.5t87.5 37.5q27 0 46.5 -9.5t33.5 -21.5t26.5 -21t27.5 -9q20 0 29.5 15.5t12.5 45.5h84z" />
    <glyph glyph-name="uni0304" unicode="&#x304;" horiz-adv-x="0" 
d="M175 670v-91h-350v91h350z" />
    <glyph glyph-name="uni0306" unicode="&#x306;" horiz-adv-x="0" 
d="M161 720q0 -72 -43.5 -114.5t-117.5 -42.5q-73 0 -117 42.5t-44 114.5h93q0 -32 17.5 -53.5t50.5 -21.5q34 0 51 21.5t17 53.5h93z" />
    <glyph glyph-name="uni0307" unicode="&#x307;" horiz-adv-x="0" 
d="M0 720q39 0 60 -19.5t21 -53.5q0 -35 -21 -54t-60 -19q-38 0 -59 19t-21 54q0 34 21 53.5t59 19.5z" />
    <glyph glyph-name="uni0308" unicode="&#x308;" horiz-adv-x="0" 
d="M-106 705q35 0 55.5 -18.5t20.5 -51.5q0 -32 -20.5 -51t-55.5 -19q-34 0 -54 19t-20 51q0 33 20 51.5t54 18.5zM104 705q36 0 56 -18.5t20 -51.5q0 -32 -20 -51t-56 -19q-34 0 -54 19t-20 51q0 33 20 51.5t54 18.5z" />
    <glyph glyph-name="hookabovecomb" unicode="&#x309;" horiz-adv-x="0" 
d="M279 546l-34 47q30 13 43 26.5t13 30.5q0 16 -9.5 26t-27.5 10q-14 0 -24 -7.5t-19 -23.5l-66 36q13 37 45 56.5t76 19.5q31 0 56.5 -12t40 -34.5t14.5 -52.5q0 -31 -14.5 -55t-39.5 -40.5t-54 -26.5z" />
    <glyph glyph-name="uni030A" unicode="&#x30a;" horiz-adv-x="0" 
d="M-2 806q61 0 97.5 -33.5t36.5 -89.5t-36.5 -89.5t-97.5 -33.5q-60 0 -97.5 33.5t-37.5 89.5t37.5 89.5t97.5 33.5zM-2 742q-26 0 -43 -16.5t-17 -42.5t17 -42t43 -16q27 0 43.5 16t16.5 42t-16.5 42.5t-43.5 16.5z" />
    <glyph glyph-name="uni030B" unicode="&#x30b;" horiz-adv-x="0" 
d="M34 572l72 170h123l-96 -170h-99zM-165 572l72 170h123l-96 -170h-99z" />
    <glyph glyph-name="uni030C" unicode="&#x30c;" horiz-adv-x="0" 
d="M177 742l-111 -170h-137l-111 170h105l75 -98l75 98h104z" />
    <glyph glyph-name="uni030F" unicode="&#x30f;" horiz-adv-x="0" 
d="M-40 572h-99l-96 170h123zM158 572h-98l-96 170h123z" />
    <glyph glyph-name="uni0311" unicode="&#x311;" horiz-adv-x="0" 
d="M161 563h-93q0 32 -17 53.5t-51 21.5q-33 0 -50.5 -21.5t-17.5 -53.5h-93q0 72 44 114.5t117 42.5q74 0 117.5 -42.5t43.5 -114.5z" />
    <glyph glyph-name="uni0312" unicode="&#x312;" horiz-adv-x="0" 
d="M374 774l-38 -202h-123l71 202h90z" />
    <glyph glyph-name="uni031B" unicode="&#x31b;" horiz-adv-x="0" 
d="M262 422v78q36 0 56 26t20 87h99q0 -98 -47 -144.5t-128 -46.5z" />
    <glyph glyph-name="dotbelowcomb" unicode="&#x323;" horiz-adv-x="0" 
d="M0 -220q-38 0 -59 19.5t-21 53.5q0 35 21 54t59 19q39 0 60 -19t21 -54q0 -34 -21 -53.5t-60 -19.5z" />
    <glyph glyph-name="uni0324" unicode="&#x324;" horiz-adv-x="0" 
d="M-106 -65q35 0 55.5 -18.5t20.5 -51.5q0 -32 -20.5 -51t-55.5 -19q-34 0 -54 19t-20 51q0 33 20 51.5t54 18.5zM104 -65q36 0 56 -18.5t20 -51.5q0 -32 -20 -51t-56 -19q-34 0 -54 19t-20 51q0 33 20 51.5t54 18.5z" />
    <glyph glyph-name="uni0326" unicode="&#x326;" horiz-adv-x="0" 
d="M68 -66l-69 -173h-93l37 173h125z" />
    <glyph glyph-name="uni0327" unicode="&#x327;" horiz-adv-x="0" 
d="M-69 8l41 26q72 -14 104.5 -46t32.5 -81q0 -54 -36.5 -88t-97.5 -34q-35 0 -58.5 8.5t-40.5 20.5l24 73q13 -8 27.5 -14t35.5 -6q26 0 43 16t17 46q0 24 -20.5 42t-71.5 37z" />
    <glyph glyph-name="uni0328" unicode="&#x328;" horiz-adv-x="0" 
d="M-82 -215q-61 0 -95 29.5t-34 78.5q0 58 39.5 91t113.5 51l58 -21q-46 -16 -71.5 -31.5t-35.5 -31.5t-10 -36q0 -23 15.5 -35.5t41.5 -12.5q13 0 26 2.5t23 7.5l16 -74q-17 -9 -39 -13.5t-48 -4.5z" />
    <glyph glyph-name="uni032E" unicode="&#x32e;" horiz-adv-x="0" 
d="M161 -63q0 -72 -43.5 -114.5t-117.5 -42.5q-73 0 -117 42.5t-44 114.5h93q0 -32 17.5 -53.5t50.5 -21.5q34 0 51 21.5t17 53.5h93z" />
    <glyph glyph-name="uni0331" unicode="&#x331;" horiz-adv-x="0" 
d="M175 -79v-91h-350v91h350z" />
    <glyph glyph-name="uni0335" unicode="&#x335;" horiz-adv-x="0" 
d="M221 372v-83h-443v83h443z" />
    <glyph glyph-name="uni0338" unicode="&#x338;" horiz-adv-x="0" 
d="M51 -27l435 553h67l-435 -553h-67z" />
    <glyph glyph-name="uni03A9" unicode="&#x3a9;" horiz-adv-x="760" 
d="M55 0v106h206l-18 -16q-87 32 -133.5 101t-46.5 168q0 93 38.5 163t109.5 109t169 39t169 -39t109.5 -109t38.5 -163q0 -99 -46 -168t-134 -101l-18 16h206v-106h-279v108q63 14 98 73.5t35 157.5q0 70 -21.5 119t-61 75t-96.5 26q-56 0 -96 -26t-61.5 -75t-21.5 -119
q0 -65 15.5 -113.5t45.5 -78t72 -39.5v-108h-279z" />
    <glyph glyph-name="uni03BC" unicode="&#x3bc;" horiz-adv-x="622" 
d="M72 -210v710h137v-296q0 -57 24 -81.5t69 -24.5q31 0 55.5 14t39.5 45t15 81v262h137v-500h-119l-6 87q-22 -48 -61.5 -72.5t-89.5 -24.5q-27 0 -50.5 8t-40.5 26l27 38v-272h-137z" />
    <glyph glyph-name="pi" unicode="&#x3c0;" horiz-adv-x="769" 
d="M153 0v401h-125v99h709v-99h-139v-232q0 -26 10.5 -42.5t33 -23.5t57.5 -5l-16 -100q-84 -4 -133 10t-69 47t-20 85v261h-171v-401h-137z" />
    <glyph glyph-name="uni1E08" unicode="&#x1e08;" horiz-adv-x="683" 
d="M651 182q-19 -64 -60 -107t-97 -64t-123 -21q-98 0 -169.5 41t-110 117t-38.5 182t38.5 182t110 117t167.5 41q68 0 123 -18.5t93.5 -57t56.5 -95.5l-125 -53q-17 60 -52 85.5t-90 25.5q-54 0 -94.5 -26t-62.5 -76.5t-22 -124.5q0 -73 20.5 -124t60.5 -77t98 -26
q54 0 93.5 29t55.5 88zM295 8l41 26q72 -14 104.5 -46t32.5 -81q0 -54 -36.5 -88t-97.5 -34q-35 0 -58.5 8.5t-40.5 20.5l24 73q13 -8 27.5 -14t35.5 -6q26 0 43 16t17 46q0 24 -20.5 42t-71.5 37zM368 892h126l-88 -162h-101z" />
    <glyph glyph-name="uni1E09" unicode="&#x1e09;" horiz-adv-x="564" 
d="M299 510q67 0 113.5 -19.5t75 -53t40.5 -74.5l-128 -46q-10 45 -34 68t-65 23q-38 0 -65 -17.5t-41 -53t-14 -88.5t14.5 -88t42 -52t64.5 -17q30 0 51 10.5t34.5 30.5t18.5 48l124 -40q-11 -45 -41 -79t-77 -53t-109 -19q-77 0 -136 31t-91 89t-32 140t32 140t90 89
t133 31zM230 8l41 26q72 -14 104.5 -46t32.5 -81q0 -54 -36.5 -88t-97.5 -34q-35 0 -58.5 8.5t-40.5 20.5l24 73q13 -8 27.5 -14t35.5 -6q26 0 43 16t17 46q0 24 -20.5 42t-71.5 37zM297 742h132l-100 -170h-101z" />
    <glyph glyph-name="uni1E0C" unicode="&#x1e0c;" horiz-adv-x="719" 
d="M341 660q155 0 240 -85.5t85 -244.5q0 -158 -85 -244t-240 -86h-255v660h255zM334 110q94 0 141.5 56.5t47.5 163.5t-47.5 163.5t-141.5 56.5h-110v-440h110zM340 -220q-38 0 -59 19.5t-21 53.5q0 35 21 54t59 19q39 0 60 -19t21 -54q0 -34 -21 -53.5t-60 -19.5z" />
    <glyph glyph-name="uni1E0D" unicode="&#x1e0d;" horiz-adv-x="627" 
d="M261 -10q-62 0 -110.5 31t-76 89t-27.5 139q0 83 29 141.5t78.5 89t111.5 30.5q66 0 109 -38t56 -98l-13 -16v361h137v-719h-123l-9 152l16 -8q-6 -47 -31 -81.5t-63 -53.5t-84 -19zM301 95q36 0 62 18.5t40.5 54.5t14.5 86q0 48 -14 81.5t-40 51.5t-61 18
q-56 0 -87.5 -39.5t-31.5 -115.5t31 -115.5t86 -39.5zM307 -220q-38 0 -59 19.5t-21 53.5q0 35 21 54t59 19q39 0 60 -19t21 -54q0 -34 -21 -53.5t-60 -19.5z" />
    <glyph glyph-name="uni1E0E" unicode="&#x1e0e;" horiz-adv-x="719" 
d="M341 660q155 0 240 -85.5t85 -244.5q0 -158 -85 -244t-240 -86h-255v660h255zM334 110q94 0 141.5 56.5t47.5 163.5t-47.5 163.5t-141.5 56.5h-110v-440h110zM515 -79v-91h-350v91h350z" />
    <glyph glyph-name="uni1E0F" unicode="&#x1e0f;" horiz-adv-x="627" 
d="M261 -10q-62 0 -110.5 31t-76 89t-27.5 139q0 83 29 141.5t78.5 89t111.5 30.5q66 0 109 -38t56 -98l-13 -16v361h137v-719h-123l-9 152l16 -8q-6 -47 -31 -81.5t-63 -53.5t-84 -19zM301 95q36 0 62 18.5t40.5 54.5t14.5 86q0 48 -14 81.5t-40 51.5t-61 18
q-56 0 -87.5 -39.5t-31.5 -115.5t31 -115.5t86 -39.5zM482 -79v-91h-350v91h350z" />
    <glyph glyph-name="uni1E14" unicode="&#x1e14;" horiz-adv-x="633" 
d="M86 0v660h495v-111h-357v-164h281v-106h-281v-168h371v-111h-509zM509 830v-91h-350v91h350zM332 1060l63 -162h-101l-88 162h126z" />
    <glyph glyph-name="uni1E15" unicode="&#x1e15;" 
d="M304 -10q-79 0 -137.5 31t-90.5 89t-32 140t32 140t89.5 89t131.5 31q76 0 129 -30.5t81 -83t28 -119.5q0 -20 -1 -38t-3 -32h-399v95h339l-66 -24q0 63 -28.5 97t-80.5 34q-38 0 -65.5 -18t-41.5 -53.5t-14 -89.5q0 -53 15.5 -87.5t44 -51.5t68.5 -17q44 0 71 17t42 47
l109 -42q-16 -39 -48.5 -67t-77 -42.5t-95.5 -14.5zM468 670v-91h-350v91h350zM291 900l63 -162h-101l-88 162h126z" />
    <glyph glyph-name="uni1E16" unicode="&#x1e16;" horiz-adv-x="633" 
d="M86 0v660h495v-111h-357v-164h281v-106h-281v-168h371v-111h-509zM509 830v-91h-350v91h350zM336 1060h126l-88 -162h-101z" />
    <glyph glyph-name="uni1E17" unicode="&#x1e17;" 
d="M304 -10q-79 0 -137.5 31t-90.5 89t-32 140t32 140t89.5 89t131.5 31q76 0 129 -30.5t81 -83t28 -119.5q0 -20 -1 -38t-3 -32h-399v95h339l-66 -24q0 63 -28.5 97t-80.5 34q-38 0 -65.5 -18t-41.5 -53.5t-14 -89.5q0 -53 15.5 -87.5t44 -51.5t68.5 -17q44 0 71 17t42 47
l109 -42q-16 -39 -48.5 -67t-77 -42.5t-95.5 -14.5zM468 670v-91h-350v91h350zM295 900h126l-88 -162h-101z" />
    <glyph glyph-name="uni1E1C" unicode="&#x1e1c;" horiz-adv-x="633" 
d="M86 0v660h495v-111h-357v-164h281v-106h-281v-168h371v-111h-509zM278 8l41 26q72 -14 104.5 -46t32.5 -81q0 -54 -36.5 -88t-97.5 -34q-35 0 -58.5 8.5t-40.5 20.5l24 73q13 -8 27.5 -14t35.5 -6q26 0 43 16t17 46q0 24 -20.5 42t-71.5 37zM495 880q0 -72 -43.5 -114.5
t-117.5 -42.5q-73 0 -117 42.5t-44 114.5h93q0 -32 17.5 -53.5t50.5 -21.5q34 0 51 21.5t17 53.5h93z" />
    <glyph glyph-name="uni1E1D" unicode="&#x1e1d;" 
d="M304 -10q-79 0 -137.5 31t-90.5 89t-32 140t32 140t89.5 89t131.5 31q76 0 129 -30.5t81 -83t28 -119.5q0 -20 -1 -38t-3 -32h-399v95h339l-66 -24q0 63 -28.5 97t-80.5 34q-38 0 -65.5 -18t-41.5 -53.5t-14 -89.5q0 -53 15.5 -87.5t44 -51.5t68.5 -17q44 0 71 17t42 47
l109 -42q-16 -39 -48.5 -67t-77 -42.5t-95.5 -14.5zM231 8l41 26q72 -14 104.5 -46t32.5 -81q0 -54 -36.5 -88t-97.5 -34q-35 0 -58.5 8.5t-40.5 20.5l24 73q13 -8 27.5 -14t35.5 -6q26 0 43 16t17 46q0 24 -20.5 42t-71.5 37zM454 720q0 -72 -43.5 -114.5t-117.5 -42.5
q-73 0 -117 42.5t-44 114.5h93q0 -32 17.5 -53.5t50.5 -21.5q34 0 51 21.5t17 53.5h93z" />
    <glyph glyph-name="uni1E20" unicode="&#x1e20;" horiz-adv-x="723" 
d="M357 -10q-91 0 -159.5 40t-106.5 116t-38 183q0 106 40 182.5t113 117.5t171 41q107 0 173 -39.5t105 -122.5l-128 -55q-16 53 -54.5 78.5t-94.5 25.5t-97 -26.5t-63 -77t-22 -123.5q0 -75 21 -126.5t62.5 -77t102.5 -25.5q33 0 61.5 8t49.5 24t33 41t12 58v15h-173v101
h292v-348h-97l-10 144l24 -17q-22 -66 -77.5 -101.5t-139.5 -35.5zM545 830v-91h-350v91h350z" />
    <glyph glyph-name="uni1E21" unicode="&#x1e21;" horiz-adv-x="549" 
d="M382 670v-91h-239v91h239zM533 619l16 -98q-4 0 -8.5 0.5t-9.5 0.5q-45 0 -68.5 -20.5t-23.5 -56.5l-56 23q0 40 16 74.5t47.5 55.5t75.5 21h5h6zM369 94q81 0 125 -35t44 -98q0 -57 -33 -96.5t-92.5 -59.5t-137.5 -20q-129 0 -188.5 36t-59.5 94q0 41 31.5 69t104.5 31
l-5 -16q-52 9 -79.5 34.5t-27.5 70.5q0 46 35.5 75.5t96.5 34.5l60 -28h-14q-43 -3 -60.5 -17.5t-17.5 -32.5q0 -21 16.5 -31.5t47.5 -10.5h154zM276 -121q52 0 85.5 9t50 23t16.5 31q0 19 -15 30.5t-54 11.5h-169q-24 0 -39.5 -12t-15.5 -33q0 -28 37.5 -44t103.5 -16z
M277 510q70 0 121.5 -20.5t79 -58.5t27.5 -91q0 -52 -27.5 -90t-79 -58.5t-121.5 -20.5q-111 0 -170 45.5t-59 123.5q0 53 28 91t79 58.5t122 20.5zM277 424q-40 0 -66 -22t-26 -61t26 -61.5t66 -22.5t65.5 22.5t25.5 61.5t-25.5 61t-65.5 22z" />
    <glyph glyph-name="uni1E24" unicode="&#x1e24;" horiz-adv-x="739" 
d="M653 660v-660h-138v660h138zM224 660v-660h-138v660h138zM587 389v-111h-432v111h432zM370 -220q-38 0 -59 19.5t-21 53.5q0 35 21 54t59 19q39 0 60 -19t21 -54q0 -34 -21 -53.5t-60 -19.5z" />
    <glyph glyph-name="uni1E25" unicode="&#x1e25;" horiz-adv-x="619" 
d="M72 0v719h137v-304q24 48 66 71.5t95 23.5q52 0 92.5 -20t64 -60.5t23.5 -101.5v-328h-137v288q0 65 -25 89.5t-64 24.5q-29 0 -55.5 -13.5t-43 -44t-16.5 -80.5v-264h-137zM327 -220q-38 0 -59 19.5t-21 53.5q0 35 21 54t59 19q39 0 60 -19t21 -54q0 -34 -21 -53.5
t-60 -19.5z" />
    <glyph glyph-name="uni1E2A" unicode="&#x1e2a;" horiz-adv-x="739" 
d="M653 660v-660h-138v660h138zM224 660v-660h-138v660h138zM587 389v-111h-432v111h432zM531 -63q0 -72 -43.5 -114.5t-117.5 -42.5q-73 0 -117 42.5t-44 114.5h93q0 -32 17.5 -53.5t50.5 -21.5q34 0 51 21.5t17 53.5h93z" />
    <glyph glyph-name="uni1E2B" unicode="&#x1e2b;" horiz-adv-x="619" 
d="M72 0v719h137v-304q24 48 66 71.5t95 23.5q52 0 92.5 -20t64 -60.5t23.5 -101.5v-328h-137v288q0 65 -25 89.5t-64 24.5q-29 0 -55.5 -13.5t-43 -44t-16.5 -80.5v-264h-137zM488 -63q0 -72 -43.5 -114.5t-117.5 -42.5q-73 0 -117 42.5t-44 114.5h93q0 -32 17.5 -53.5
t50.5 -21.5q34 0 51 21.5t17 53.5h93z" />
    <glyph glyph-name="uni1E2E" unicode="&#x1e2e;" horiz-adv-x="310" 
d="M224 660v-660h-138v660h138zM49 865q35 0 55.5 -18.5t20.5 -51.5q0 -32 -20.5 -51t-55.5 -19q-34 0 -54 19t-20 51q0 33 20 51.5t54 18.5zM259 865q36 0 56 -18.5t20 -51.5q0 -32 -20 -51t-56 -19q-34 0 -54 19t-20 51q0 33 20 51.5t54 18.5zM157 1074h126l-88 -162h-101
z" />
    <glyph glyph-name="uni1E2F" unicode="&#x1e2f;" horiz-adv-x="282" 
d="M209 500v-500h-137v500h137zM35 705q35 0 55.5 -18.5t20.5 -51.5q0 -32 -20.5 -51t-55.5 -19q-34 0 -54 19t-20 51q0 33 20 51.5t54 18.5zM245 705q36 0 56 -18.5t20 -51.5q0 -32 -20 -51t-56 -19q-34 0 -54 19t-20 51q0 33 20 51.5t54 18.5zM143 914h126l-88 -162h-101z
" />
    <glyph glyph-name="uni1E36" unicode="&#x1e36;" horiz-adv-x="601" 
d="M224 111h348v-111h-486v660h138v-549zM345 -220q-38 0 -59 19.5t-21 53.5q0 35 21 54t59 19q39 0 60 -19t21 -54q0 -34 -21 -53.5t-60 -19.5z" />
    <glyph glyph-name="uni1E37" unicode="&#x1e37;" horiz-adv-x="319" 
d="M207 719v-565q0 -35 12 -49t40 -14q17 0 28 2.5t28 7.5l-12 -90q-17 -10 -42.5 -15.5t-50.5 -5.5q-73 0 -106.5 35.5t-33.5 113.5v580h137zM196 -220q-38 0 -59 19.5t-21 53.5q0 35 21 54t59 19q39 0 60 -19t21 -54q0 -34 -21 -53.5t-60 -19.5z" />
    <glyph glyph-name="uni1E3A" unicode="&#x1e3a;" horiz-adv-x="601" 
d="M224 111h348v-111h-486v660h138v-549zM520 -79v-91h-350v91h350z" />
    <glyph glyph-name="uni1E3B" unicode="&#x1e3b;" horiz-adv-x="319" 
d="M326 -79v-91h-259v91h259zM207 719v-565q0 -35 12 -49t40 -14q17 0 28 2.5t28 7.5l-12 -90q-17 -10 -42.5 -15.5t-50.5 -5.5q-73 0 -106.5 35.5t-33.5 113.5v580h137z" />
    <glyph glyph-name="uni1E42" unicode="&#x1e42;" horiz-adv-x="890" 
d="M804 660v-660h-124v344l6 193h-2l-183 -537h-113l-182 537h-2l7 -193v-344h-125v660h200l119 -360l42 -149h2l43 148l118 361h194zM445 -220q-38 0 -59 19.5t-21 53.5q0 35 21 54t59 19q39 0 60 -19t21 -54q0 -34 -21 -53.5t-60 -19.5z" />
    <glyph glyph-name="uni1E43" unicode="&#x1e43;" horiz-adv-x="945" 
d="M72 0v500h123l5 -90q25 50 68.5 75t96.5 25q54 0 97.5 -25t65.5 -74q16 33 43 55t60 33t67 11q49 0 89.5 -20t64.5 -60t24 -102v-328h-137v301q0 55 -24 78t-62 23q-30 0 -55.5 -15t-40 -44.5t-14.5 -73.5v-269h-137v301q0 55 -24.5 78t-62.5 23q-26 0 -51.5 -14t-42 -44
t-16.5 -79v-265h-137zM474 -220q-38 0 -59 19.5t-21 53.5q0 35 21 54t59 19q39 0 60 -19t21 -54q0 -34 -21 -53.5t-60 -19.5z" />
    <glyph glyph-name="uni1E44" unicode="&#x1e44;" horiz-adv-x="739" 
d="M653 660v-660h-158l-231 388l-57 108h-1l4 -114v-382h-124v660h157l231 -387l57 -109h2l-4 114v382h124zM372 880q39 0 60 -19.5t21 -53.5q0 -35 -21 -54t-60 -19q-38 0 -59 19t-21 54q0 34 21 53.5t59 19.5z" />
    <glyph glyph-name="uni1E45" unicode="&#x1e45;" horiz-adv-x="619" 
d="M72 0v500h123l8 -150l-17 16q12 49 38 80.5t63.5 47.5t82.5 16q52 0 92.5 -20t64 -60.5t23.5 -101.5v-328h-137v289q0 64 -25 88.5t-65 24.5q-28 0 -54.5 -13.5t-43 -43.5t-16.5 -80v-265h-137zM315 720q39 0 60 -19.5t21 -53.5q0 -35 -21 -54t-60 -19q-38 0 -59 19
t-21 54q0 34 21 53.5t59 19.5z" />
    <glyph glyph-name="uni1E46" unicode="&#x1e46;" horiz-adv-x="739" 
d="M653 660v-660h-158l-231 388l-57 108h-1l4 -114v-382h-124v660h157l231 -387l57 -109h2l-4 114v382h124zM388 -220q-38 0 -59 19.5t-21 53.5q0 35 21 54t59 19q39 0 60 -19t21 -54q0 -34 -21 -53.5t-60 -19.5z" />
    <glyph glyph-name="uni1E47" unicode="&#x1e47;" horiz-adv-x="619" 
d="M72 0v500h123l8 -150l-17 16q12 49 38 80.5t63.5 47.5t82.5 16q52 0 92.5 -20t64 -60.5t23.5 -101.5v-328h-137v289q0 64 -25 88.5t-65 24.5q-28 0 -54.5 -13.5t-43 -43.5t-16.5 -80v-265h-137zM327 -220q-38 0 -59 19.5t-21 53.5q0 35 21 54t59 19q39 0 60 -19t21 -54
q0 -34 -21 -53.5t-60 -19.5z" />
    <glyph glyph-name="uni1E48" unicode="&#x1e48;" horiz-adv-x="739" 
d="M653 660v-660h-158l-231 388l-57 108h-1l4 -114v-382h-124v660h157l231 -387l57 -109h2l-4 114v382h124zM563 -79v-91h-350v91h350z" />
    <glyph glyph-name="uni1E49" unicode="&#x1e49;" horiz-adv-x="619" 
d="M72 0v500h123l8 -150l-17 16q12 49 38 80.5t63.5 47.5t82.5 16q52 0 92.5 -20t64 -60.5t23.5 -101.5v-328h-137v289q0 64 -25 88.5t-65 24.5q-28 0 -54.5 -13.5t-43 -43.5t-16.5 -80v-265h-137zM502 -79v-91h-350v91h350z" />
    <glyph glyph-name="uni1E4C" unicode="&#x1e4c;" horiz-adv-x="741" 
d="M371 670q98 0 169 -41t109.5 -117t38.5 -182t-38.5 -182t-109.5 -117t-169 -41t-169.5 41t-110 117t-38.5 182t38.5 182t110 117t169.5 41zM371 557q-55 0 -94.5 -26t-60 -77t-20.5 -124t20.5 -124t60 -77t94.5 -26t94 26t59.5 77t20.5 124t-20.5 124t-59.5 77t-94 26z
M562 878q-2 -50 -17.5 -83.5t-41.5 -50t-60 -16.5q-28 0 -48 9.5t-34.5 21t-28 21t-28.5 9.5q-19 0 -28.5 -15.5t-13.5 -45.5h-84q4 75 36.5 112.5t87.5 37.5q27 0 46.5 -9.5t33.5 -21.5t26.5 -21t27.5 -9q20 0 29.5 15.5t12.5 45.5h84zM372 1095h126l-88 -162h-101z" />
    <glyph glyph-name="uni1E4D" unicode="&#x1e4d;" horiz-adv-x="599" 
d="M300 510q76 0 133.5 -31t90 -89t32.5 -140q0 -81 -32.5 -139.5t-90 -89.5t-133.5 -31q-75 0 -133 31t-90.5 89.5t-32.5 139.5q0 82 32.5 140t90.5 89t133 31zM300 408q-38 0 -64.5 -17.5t-40.5 -52.5t-14 -88t14 -88t40.5 -52.5t64.5 -17.5q37 0 63.5 17.5t40.5 52.5
t14 88t-14 88t-40.5 52.5t-63.5 17.5zM491 718q-2 -50 -17.5 -83.5t-41.5 -50t-60 -16.5q-28 0 -48 9.5t-34.5 21t-28 21t-28.5 9.5q-19 0 -28.5 -15.5t-13.5 -45.5h-84q4 75 36.5 112.5t87.5 37.5q27 0 46.5 -9.5t33.5 -21.5t26.5 -21t27.5 -9q20 0 29.5 15.5t12.5 45.5h84
zM301 935h126l-88 -162h-101z" />
    <glyph glyph-name="uni1E4E" unicode="&#x1e4e;" horiz-adv-x="741" 
d="M371 670q98 0 169 -41t109.5 -117t38.5 -182t-38.5 -182t-109.5 -117t-169 -41t-169.5 41t-110 117t-38.5 182t38.5 182t110 117t169.5 41zM371 557q-55 0 -94.5 -26t-60 -77t-20.5 -124t20.5 -124t60 -77t94.5 -26t94 26t59.5 77t20.5 124t-20.5 124t-59.5 77t-94 26z
M562 878q-2 -50 -17.5 -83.5t-41.5 -50t-60 -16.5q-28 0 -48 9.5t-34.5 21t-28 21t-28.5 9.5q-19 0 -28.5 -15.5t-13.5 -45.5h-84q4 75 36.5 112.5t87.5 37.5q27 0 46.5 -9.5t33.5 -21.5t26.5 -21t27.5 -9q20 0 29.5 15.5t12.5 45.5h84zM264 1068q35 0 55.5 -18.5
t20.5 -51.5q0 -32 -20.5 -51t-55.5 -19q-34 0 -54 19t-20 51q0 33 20 51.5t54 18.5zM474 1068q36 0 56 -18.5t20 -51.5q0 -32 -20 -51t-56 -19q-34 0 -54 19t-20 51q0 33 20 51.5t54 18.5z" />
    <glyph glyph-name="uni1E4F" unicode="&#x1e4f;" horiz-adv-x="599" 
d="M300 510q76 0 133.5 -31t90 -89t32.5 -140q0 -81 -32.5 -139.5t-90 -89.5t-133.5 -31q-75 0 -133 31t-90.5 89.5t-32.5 139.5q0 82 32.5 140t90.5 89t133 31zM300 408q-38 0 -64.5 -17.5t-40.5 -52.5t-14 -88t14 -88t40.5 -52.5t64.5 -17.5q37 0 63.5 17.5t40.5 52.5
t14 88t-14 88t-40.5 52.5t-63.5 17.5zM491 718q-2 -50 -17.5 -83.5t-41.5 -50t-60 -16.5q-28 0 -48 9.5t-34.5 21t-28 21t-28.5 9.5q-19 0 -28.5 -15.5t-13.5 -45.5h-84q4 75 36.5 112.5t87.5 37.5q27 0 46.5 -9.5t33.5 -21.5t26.5 -21t27.5 -9q20 0 29.5 15.5t12.5 45.5h84
zM193 908q35 0 55.5 -18.5t20.5 -51.5q0 -32 -20.5 -51t-55.5 -19q-34 0 -54 19t-20 51q0 33 20 51.5t54 18.5zM403 908q36 0 56 -18.5t20 -51.5q0 -32 -20 -51t-56 -19q-34 0 -54 19t-20 51q0 33 20 51.5t54 18.5z" />
    <glyph glyph-name="uni1E50" unicode="&#x1e50;" horiz-adv-x="741" 
d="M371 670q98 0 169 -41t109.5 -117t38.5 -182t-38.5 -182t-109.5 -117t-169 -41t-169.5 41t-110 117t-38.5 182t38.5 182t110 117t169.5 41zM371 557q-55 0 -94.5 -26t-60 -77t-20.5 -124t20.5 -124t60 -77t94.5 -26t94 26t59.5 77t20.5 124t-20.5 124t-59.5 77t-94 26z
M546 830v-91h-350v91h350zM369 1060l63 -162h-101l-88 162h126z" />
    <glyph glyph-name="uni1E51" unicode="&#x1e51;" horiz-adv-x="599" 
d="M300 510q76 0 133.5 -31t90 -89t32.5 -140q0 -81 -32.5 -139.5t-90 -89.5t-133.5 -31q-75 0 -133 31t-90.5 89.5t-32.5 139.5q0 82 32.5 140t90.5 89t133 31zM300 408q-38 0 -64.5 -17.5t-40.5 -52.5t-14 -88t14 -88t40.5 -52.5t64.5 -17.5q37 0 63.5 17.5t40.5 52.5
t14 88t-14 88t-40.5 52.5t-63.5 17.5zM475 670v-91h-350v91h350zM298 900l63 -162h-101l-88 162h126z" />
    <glyph glyph-name="uni1E52" unicode="&#x1e52;" horiz-adv-x="741" 
d="M371 670q98 0 169 -41t109.5 -117t38.5 -182t-38.5 -182t-109.5 -117t-169 -41t-169.5 41t-110 117t-38.5 182t38.5 182t110 117t169.5 41zM371 557q-55 0 -94.5 -26t-60 -77t-20.5 -124t20.5 -124t60 -77t94.5 -26t94 26t59.5 77t20.5 124t-20.5 124t-59.5 77t-94 26z
M546 830v-91h-350v91h350zM373 1060h126l-88 -162h-101z" />
    <glyph glyph-name="uni1E53" unicode="&#x1e53;" horiz-adv-x="599" 
d="M300 510q76 0 133.5 -31t90 -89t32.5 -140q0 -81 -32.5 -139.5t-90 -89.5t-133.5 -31q-75 0 -133 31t-90.5 89.5t-32.5 139.5q0 82 32.5 140t90.5 89t133 31zM300 408q-38 0 -64.5 -17.5t-40.5 -52.5t-14 -88t14 -88t40.5 -52.5t64.5 -17.5q37 0 63.5 17.5t40.5 52.5
t14 88t-14 88t-40.5 52.5t-63.5 17.5zM475 670v-91h-350v91h350zM302 900h126l-88 -162h-101z" />
    <glyph glyph-name="uni1E5A" unicode="&#x1e5a;" horiz-adv-x="680" 
d="M377 660q112 0 176 -54t64 -145q0 -97 -64 -148.5t-175 -51.5l-14 -8h-142v-253h-136v660h291zM361 358q58 0 86.5 23.5t28.5 72.5t-28.5 72.5t-86.5 23.5h-139v-192h139zM442 329l214 -329h-155l-177 289zM364 -220q-38 0 -59 19.5t-21 53.5q0 35 21 54t59 19
q39 0 60 -19t21 -54q0 -34 -21 -53.5t-60 -19.5z" />
    <glyph glyph-name="uni1E5B" unicode="&#x1e5b;" horiz-adv-x="422" 
d="M72 0v500h119l9 -98q20 52 58.5 80t96.5 28q17 0 31 -3t23 -8l-16 -115q-10 4 -24.5 6t-37.5 2q-30 0 -58 -14.5t-46 -44t-18 -74.5v-259h-137zM141 -220q-38 0 -59 19.5t-21 53.5q0 35 21 54t59 19q39 0 60 -19t21 -54q0 -34 -21 -53.5t-60 -19.5z" />
    <glyph glyph-name="uni1E5E" unicode="&#x1e5e;" horiz-adv-x="680" 
d="M377 660q112 0 176 -54t64 -145q0 -97 -64 -148.5t-175 -51.5l-14 -8h-142v-253h-136v660h291zM361 358q58 0 86.5 23.5t28.5 72.5t-28.5 72.5t-86.5 23.5h-139v-192h139zM442 329l214 -329h-155l-177 289zM539 -79v-91h-350v91h350z" />
    <glyph glyph-name="uni1E5F" unicode="&#x1e5f;" horiz-adv-x="422" 
d="M271 -79v-91h-260v91h260zM72 0v500h119l9 -98q20 52 58.5 80t96.5 28q17 0 31 -3t23 -8l-16 -115q-10 4 -24.5 6t-37.5 2q-30 0 -58 -14.5t-46 -44t-18 -74.5v-259h-137z" />
    <glyph glyph-name="uni1E60" unicode="&#x1e60;" horiz-adv-x="644" 
d="M327 670q90 0 158 -31t116 -92l-77 -89q-41 52 -89.5 76.5t-112.5 24.5q-42 0 -69.5 -11t-40 -29t-12.5 -40q0 -27 21 -45.5t72 -30.5l123 -28q98 -22 140.5 -65.5t42.5 -112.5q0 -65 -34 -111.5t-95 -71t-140 -24.5q-69 0 -126.5 16.5t-102.5 45.5t-75 67l78 93
q23 -32 57 -57t77.5 -39.5t91.5 -14.5q41 0 69.5 9.5t43 27t14.5 42.5q0 26 -17.5 44.5t-64.5 28.5l-134 30q-58 14 -99.5 36.5t-63 58t-21.5 84.5q0 59 32 106t92.5 74.5t145.5 27.5zM328 880q39 0 60 -19.5t21 -53.5q0 -35 -21 -54t-60 -19q-38 0 -59 19t-21 54
q0 34 21 53.5t59 19.5z" />
    <glyph glyph-name="uni1E61" unicode="&#x1e61;" horiz-adv-x="531" 
d="M272 -10q-76 0 -138.5 27t-101.5 76l79 80q24 -36 64 -59t95 -23q39 0 62.5 11.5t23.5 36.5q0 16 -11 27.5t-44 18.5l-88 18q-87 18 -123.5 54.5t-36.5 94.5q0 41 24.5 77t73.5 58.5t122 22.5q75 0 130.5 -23.5t87.5 -69.5l-82 -80q-22 35 -57.5 53.5t-74.5 18.5
q-28 0 -48 -6t-30 -16.5t-10 -26.5t14 -27.5t51 -19.5l102 -21q74 -15 106 -50.5t32 -85.5q0 -48 -25.5 -85.5t-75 -59t-121.5 -21.5zM270 720q39 0 60 -19.5t21 -53.5q0 -35 -21 -54t-60 -19q-38 0 -59 19t-21 54q0 34 21 53.5t59 19.5z" />
    <glyph glyph-name="uni1E62" unicode="&#x1e62;" horiz-adv-x="644" 
d="M327 670q90 0 158 -31t116 -92l-77 -89q-41 52 -89.5 76.5t-112.5 24.5q-42 0 -69.5 -11t-40 -29t-12.5 -40q0 -27 21 -45.5t72 -30.5l123 -28q98 -22 140.5 -65.5t42.5 -112.5q0 -65 -34 -111.5t-95 -71t-140 -24.5q-69 0 -126.5 16.5t-102.5 45.5t-75 67l78 93
q23 -32 57 -57t77.5 -39.5t91.5 -14.5q41 0 69.5 9.5t43 27t14.5 42.5q0 26 -17.5 44.5t-64.5 28.5l-134 30q-58 14 -99.5 36.5t-63 58t-21.5 84.5q0 59 32 106t92.5 74.5t145.5 27.5zM323 -220q-38 0 -59 19.5t-21 53.5q0 35 21 54t59 19q39 0 60 -19t21 -54
q0 -34 -21 -53.5t-60 -19.5z" />
    <glyph glyph-name="uni1E63" unicode="&#x1e63;" horiz-adv-x="531" 
d="M272 -10q-76 0 -138.5 27t-101.5 76l79 80q24 -36 64 -59t95 -23q39 0 62.5 11.5t23.5 36.5q0 16 -11 27.5t-44 18.5l-88 18q-87 18 -123.5 54.5t-36.5 94.5q0 41 24.5 77t73.5 58.5t122 22.5q75 0 130.5 -23.5t87.5 -69.5l-82 -80q-22 35 -57.5 53.5t-74.5 18.5
q-28 0 -48 -6t-30 -16.5t-10 -26.5t14 -27.5t51 -19.5l102 -21q74 -15 106 -50.5t32 -85.5q0 -48 -25.5 -85.5t-75 -59t-121.5 -21.5zM270 -220q-38 0 -59 19.5t-21 53.5q0 35 21 54t59 19q39 0 60 -19t21 -54q0 -34 -21 -53.5t-60 -19.5z" />
    <glyph glyph-name="uni1E64" unicode="&#x1e64;" horiz-adv-x="644" 
d="M327 670q90 0 158 -31t116 -92l-77 -89q-41 52 -89.5 76.5t-112.5 24.5q-42 0 -69.5 -11t-40 -29t-12.5 -40q0 -27 21 -45.5t72 -30.5l123 -28q98 -22 140.5 -65.5t42.5 -112.5q0 -65 -34 -111.5t-95 -71t-140 -24.5q-69 0 -126.5 16.5t-102.5 45.5t-75 67l78 93
q23 -32 57 -57t77.5 -39.5t91.5 -14.5q41 0 69.5 9.5t43 27t14.5 42.5q0 26 -17.5 44.5t-64.5 28.5l-134 30q-58 14 -99.5 36.5t-63 58t-21.5 84.5q0 59 32 106t92.5 74.5t145.5 27.5zM330 892h126l-88 -162h-101zM328 1094q39 0 60 -19.5t21 -53.5q0 -35 -21 -54t-60 -19
q-38 0 -59 19t-21 54q0 34 21 53.5t59 19.5z" />
    <glyph glyph-name="uni1E65" unicode="&#x1e65;" horiz-adv-x="531" 
d="M272 -10q-76 0 -138.5 27t-101.5 76l79 80q24 -36 64 -59t95 -23q39 0 62.5 11.5t23.5 36.5q0 16 -11 27.5t-44 18.5l-88 18q-87 18 -123.5 54.5t-36.5 94.5q0 41 24.5 77t73.5 58.5t122 22.5q75 0 130.5 -23.5t87.5 -69.5l-82 -80q-22 35 -57.5 53.5t-74.5 18.5
q-28 0 -48 -6t-30 -16.5t-10 -26.5t14 -27.5t51 -19.5l102 -21q74 -15 106 -50.5t32 -85.5q0 -48 -25.5 -85.5t-75 -59t-121.5 -21.5zM273 742h132l-100 -170h-101zM270 938q39 0 60 -19.5t21 -53.5q0 -35 -21 -54t-60 -19q-38 0 -59 19t-21 54q0 34 21 53.5t59 19.5z" />
    <glyph glyph-name="uni1E66" unicode="&#x1e66;" horiz-adv-x="644" 
d="M327 670q90 0 158 -31t116 -92l-77 -89q-41 52 -89.5 76.5t-112.5 24.5q-42 0 -69.5 -11t-40 -29t-12.5 -40q0 -27 21 -45.5t72 -30.5l123 -28q98 -22 140.5 -65.5t42.5 -112.5q0 -65 -34 -111.5t-95 -71t-140 -24.5q-69 0 -126.5 16.5t-102.5 45.5t-75 67l78 93
q23 -32 57 -57t77.5 -39.5t91.5 -14.5q41 0 69.5 9.5t43 27t14.5 42.5q0 26 -17.5 44.5t-64.5 28.5l-134 30q-58 14 -99.5 36.5t-63 58t-21.5 84.5q0 59 32 106t92.5 74.5t145.5 27.5zM501 892l-104 -162h-138l-104 162h103l70 -97l70 97h103zM328 1087q39 0 60 -19.5
t21 -53.5q0 -35 -21 -54t-60 -19q-38 0 -59 19t-21 54q0 34 21 53.5t59 19.5z" />
    <glyph glyph-name="uni1E67" unicode="&#x1e67;" horiz-adv-x="531" 
d="M272 -10q-76 0 -138.5 27t-101.5 76l79 80q24 -36 64 -59t95 -23q39 0 62.5 11.5t23.5 36.5q0 16 -11 27.5t-44 18.5l-88 18q-87 18 -123.5 54.5t-36.5 94.5q0 41 24.5 77t73.5 58.5t122 22.5q75 0 130.5 -23.5t87.5 -69.5l-82 -80q-22 35 -57.5 53.5t-74.5 18.5
q-28 0 -48 -6t-30 -16.5t-10 -26.5t14 -27.5t51 -19.5l102 -21q74 -15 106 -50.5t32 -85.5q0 -48 -25.5 -85.5t-75 -59t-121.5 -21.5zM447 742l-111 -170h-137l-111 170h105l75 -98l75 98h104zM270 924q39 0 60 -19.5t21 -53.5q0 -35 -21 -54t-60 -19q-38 0 -59 19t-21 54
q0 34 21 53.5t59 19.5z" />
    <glyph glyph-name="uni1E68" unicode="&#x1e68;" horiz-adv-x="644" 
d="M327 670q90 0 158 -31t116 -92l-77 -89q-41 52 -89.5 76.5t-112.5 24.5q-42 0 -69.5 -11t-40 -29t-12.5 -40q0 -27 21 -45.5t72 -30.5l123 -28q98 -22 140.5 -65.5t42.5 -112.5q0 -65 -34 -111.5t-95 -71t-140 -24.5q-69 0 -126.5 16.5t-102.5 45.5t-75 67l78 93
q23 -32 57 -57t77.5 -39.5t91.5 -14.5q41 0 69.5 9.5t43 27t14.5 42.5q0 26 -17.5 44.5t-64.5 28.5l-134 30q-58 14 -99.5 36.5t-63 58t-21.5 84.5q0 59 32 106t92.5 74.5t145.5 27.5zM328 880q39 0 60 -19.5t21 -53.5q0 -35 -21 -54t-60 -19q-38 0 -59 19t-21 54
q0 34 21 53.5t59 19.5zM323 -220q-38 0 -59 19.5t-21 53.5q0 35 21 54t59 19q39 0 60 -19t21 -54q0 -34 -21 -53.5t-60 -19.5z" />
    <glyph glyph-name="uni1E69" unicode="&#x1e69;" horiz-adv-x="531" 
d="M272 -10q-76 0 -138.5 27t-101.5 76l79 80q24 -36 64 -59t95 -23q39 0 62.5 11.5t23.5 36.5q0 16 -11 27.5t-44 18.5l-88 18q-87 18 -123.5 54.5t-36.5 94.5q0 41 24.5 77t73.5 58.5t122 22.5q75 0 130.5 -23.5t87.5 -69.5l-82 -80q-22 35 -57.5 53.5t-74.5 18.5
q-28 0 -48 -6t-30 -16.5t-10 -26.5t14 -27.5t51 -19.5l102 -21q74 -15 106 -50.5t32 -85.5q0 -48 -25.5 -85.5t-75 -59t-121.5 -21.5zM270 720q39 0 60 -19.5t21 -53.5q0 -35 -21 -54t-60 -19q-38 0 -59 19t-21 54q0 34 21 53.5t59 19.5zM270 -220q-38 0 -59 19.5t-21 53.5
q0 35 21 54t59 19q39 0 60 -19t21 -54q0 -34 -21 -53.5t-60 -19.5z" />
    <glyph glyph-name="uni1E6C" unicode="&#x1e6c;" horiz-adv-x="635" 
d="M608 660v-111h-221v-549h-138v549h-222v111h581zM318 -220q-38 0 -59 19.5t-21 53.5q0 35 21 54t59 19q39 0 60 -19t21 -54q0 -34 -21 -53.5t-60 -19.5z" />
    <glyph glyph-name="uni1E6D" unicode="&#x1e6d;" horiz-adv-x="430" 
d="M249 653v-490q0 -36 18.5 -52.5t50.5 -16.5q26 0 44.5 7.5t33.5 20.5l22 -91q-24 -19 -60 -30t-76 -11q-50 0 -88.5 15t-60 48t-21.5 88v474zM409 500v-102h-389v102h389zM255 -220q-38 0 -59 19.5t-21 53.5q0 35 21 54t59 19q39 0 60 -19t21 -54q0 -34 -21 -53.5
t-60 -19.5z" />
    <glyph glyph-name="uni1E6E" unicode="&#x1e6e;" horiz-adv-x="635" 
d="M608 660v-111h-221v-549h-138v549h-222v111h581zM493 -79v-91h-350v91h350z" />
    <glyph glyph-name="uni1E6F" unicode="&#x1e6f;" horiz-adv-x="430" 
d="M249 653v-490q0 -36 18.5 -52.5t50.5 -16.5q26 0 44.5 7.5t33.5 20.5l22 -91q-24 -19 -60 -30t-76 -11q-50 0 -88.5 15t-60 48t-21.5 88v474zM409 500v-102h-389v102h389zM430 -79v-91h-350v91h350z" />
    <glyph glyph-name="uni1E78" unicode="&#x1e78;" horiz-adv-x="710" 
d="M637 660v-400q0 -135 -72 -202.5t-210 -67.5t-210 67.5t-72 202.5v400h138v-394q0 -83 35.5 -123t108.5 -40t108 40t35 123v394h139zM546 863q-2 -50 -17.5 -83.5t-41.5 -50t-60 -16.5q-28 0 -48 9.5t-34.5 21t-28 21t-28.5 9.5q-19 0 -28.5 -15.5t-13.5 -45.5h-84
q4 75 36.5 112.5t87.5 37.5q27 0 46.5 -9.5t33.5 -21.5t26.5 -21t27.5 -9q20 0 29.5 15.5t12.5 45.5h84zM356 1079h126l-88 -162h-101z" />
    <glyph glyph-name="uni1E79" unicode="&#x1e79;" horiz-adv-x="618" 
d="M246 -10q-50 0 -90 18t-63.5 57.5t-23.5 102.5v332h137v-299q0 -58 24 -80.5t69 -22.5q21 0 41 7.5t35.5 23.5t24.5 41.5t9 60.5v269h137v-500h-122l-5 87q-25 -50 -68.5 -73.5t-104.5 -23.5zM496 712q-2 -50 -17.5 -83.5t-41.5 -50t-60 -16.5q-28 0 -48 9.5t-34.5 21
t-28 21t-28.5 9.5q-19 0 -28.5 -15.5t-13.5 -45.5h-84q4 75 36.5 112.5t87.5 37.5q27 0 46.5 -9.5t33.5 -21.5t26.5 -21t27.5 -9q20 0 29.5 15.5t12.5 45.5h84zM307 929h126l-88 -162h-101z" />
    <glyph glyph-name="uni1E7A" unicode="&#x1e7a;" horiz-adv-x="710" 
d="M637 660v-400q0 -135 -72 -202.5t-210 -67.5t-210 67.5t-72 202.5v400h138v-394q0 -83 35.5 -123t108.5 -40t108 40t35 123v394h139zM530 815v-91h-350v91h350zM249 1017q35 0 55.5 -18.5t20.5 -51.5q0 -32 -20.5 -51t-55.5 -19q-34 0 -54 19t-20 51q0 33 20 51.5
t54 18.5zM459 1017q36 0 56 -18.5t20 -51.5q0 -32 -20 -51t-56 -19q-34 0 -54 19t-20 51q0 33 20 51.5t54 18.5z" />
    <glyph glyph-name="uni1E7B" unicode="&#x1e7b;" horiz-adv-x="618" 
d="M246 -10q-50 0 -90 18t-63.5 57.5t-23.5 102.5v332h137v-299q0 -58 24 -80.5t69 -22.5q21 0 41 7.5t35.5 23.5t24.5 41.5t9 60.5v269h137v-500h-122l-5 87q-25 -50 -68.5 -73.5t-104.5 -23.5zM480 664v-91h-350v91h350zM199 867q35 0 55.5 -18.5t20.5 -51.5
q0 -32 -20.5 -51t-55.5 -19q-34 0 -54 19t-20 51q0 33 20 51.5t54 18.5zM409 867q36 0 56 -18.5t20 -51.5q0 -32 -20 -51t-56 -19q-34 0 -54 19t-20 51q0 33 20 51.5t54 18.5z" />
    <glyph glyph-name="Wgrave" unicode="&#x1e80;" horiz-adv-x="984" 
d="M211 0l-192 660h147l130 -545l132 545h132l134 -545l129 545h141l-192 -660h-155l-92 360l-31 156h-2l-31 -156l-91 -360h-159zM490 892l63 -162h-101l-88 162h126z" />
    <glyph glyph-name="wgrave" unicode="&#x1e81;" horiz-adv-x="876" 
d="M717 500h146l-160 -500h-158l-109 340l-105 -340h-158l-160 500h146l100 -383l111 383h136l112 -383zM426 742l70 -170h-102l-100 170h132z" />
    <glyph glyph-name="Wacute" unicode="&#x1e82;" horiz-adv-x="984" 
d="M211 0l-192 660h147l130 -545l132 545h132l134 -545l129 545h141l-192 -660h-155l-92 360l-31 156h-2l-31 -156l-91 -360h-159zM494 892h126l-88 -162h-101z" />
    <glyph glyph-name="wacute" unicode="&#x1e83;" horiz-adv-x="876" 
d="M717 500h146l-160 -500h-158l-109 340l-105 -340h-158l-160 500h146l100 -383l111 383h136l112 -383zM441 742h132l-100 -170h-101z" />
    <glyph glyph-name="Wdieresis" unicode="&#x1e84;" horiz-adv-x="984" 
d="M211 0l-192 660h147l130 -545l132 545h132l134 -545l129 545h141l-192 -660h-155l-92 360l-31 156h-2l-31 -156l-91 -360h-159zM386 865q35 0 55.5 -18.5t20.5 -51.5q0 -32 -20.5 -51t-55.5 -19q-34 0 -54 19t-20 51q0 33 20 51.5t54 18.5zM596 865q36 0 56 -18.5
t20 -51.5q0 -32 -20 -51t-56 -19q-34 0 -54 19t-20 51q0 33 20 51.5t54 18.5z" />
    <glyph glyph-name="wdieresis" unicode="&#x1e85;" horiz-adv-x="876" 
d="M717 500h146l-160 -500h-158l-109 340l-105 -340h-158l-160 500h146l100 -383l111 383h136l112 -383zM332 705q35 0 55.5 -18.5t20.5 -51.5q0 -32 -20.5 -51t-55.5 -19q-34 0 -54 19t-20 51q0 33 20 51.5t54 18.5zM542 705q36 0 56 -18.5t20 -51.5q0 -32 -20 -51t-56 -19
q-34 0 -54 19t-20 51q0 33 20 51.5t54 18.5z" />
    <glyph glyph-name="uni1E8E" unicode="&#x1e8e;" horiz-adv-x="626" 
d="M616 660l-234 -413v-247h-138v247l-234 413h147l106 -197l50 -104l51 104l106 197h146zM313 868q39 0 60 -19.5t21 -53.5q0 -35 -21 -54t-60 -19q-38 0 -59 19t-21 54q0 34 21 53.5t59 19.5z" />
    <glyph glyph-name="uni1E8F" unicode="&#x1e8f;" horiz-adv-x="546" 
d="M542 500l-202 -531q-24 -68 -53.5 -108t-68 -58t-91.5 -18q-39 0 -71.5 9.5t-56.5 24.5l29 99q19 -15 40 -21.5t48 -6.5q28 0 48.5 12t34.5 48l17 43l-55 130l-153 377h152l95 -300l26 -100l31 106l91 294h139zM283 714q39 0 60 -19.5t21 -53.5q0 -35 -21 -54t-60 -19
q-38 0 -59 19t-21 54q0 34 21 53.5t59 19.5z" />
    <glyph glyph-name="uni1E92" unicode="&#x1e92;" horiz-adv-x="633" 
d="M156 62l-25 48h462v-110h-549v104l426 494l24 -48h-442v110h529v-104zM306 -220q-38 0 -59 19.5t-21 53.5q0 35 21 54t59 19q39 0 60 -19t21 -54q0 -34 -21 -53.5t-60 -19.5z" />
    <glyph glyph-name="uni1E93" unicode="&#x1e93;" horiz-adv-x="523" 
d="M43 0v88l222 256l57 57l-83 -2h-194v101h429v-88l-221 -255l-57 -58l91 2h195v-101h-439zM252 -220q-38 0 -59 19.5t-21 53.5q0 35 21 54t59 19q39 0 60 -19t21 -54q0 -34 -21 -53.5t-60 -19.5z" />
    <glyph glyph-name="uni1E97" unicode="&#x1e97;" horiz-adv-x="430" 
d="M249 653v-490q0 -36 18.5 -52.5t50.5 -16.5q26 0 44.5 7.5t33.5 20.5l22 -91q-24 -19 -60 -30t-76 -11q-50 0 -88.5 15t-60 48t-21.5 88v474zM409 500v-102h-389v102h389zM74 853q35 0 55.5 -18.5t20.5 -51.5q0 -32 -20.5 -51t-55.5 -19q-34 0 -54 19t-20 51
q0 33 20 51.5t54 18.5zM284 853q36 0 56 -18.5t20 -51.5q0 -32 -20 -51t-56 -19q-34 0 -54 19t-20 51q0 33 20 51.5t54 18.5z" />
    <glyph glyph-name="uni1E9E" unicode="&#x1e9e;" horiz-adv-x="693" 
d="M457 -5q-68 0 -111 15.5t-66 38.5l43 91q20 -19 47.5 -29.5t63.5 -10.5q33 0 56 12t34.5 33.5t11.5 48.5q0 43 -28.5 64.5t-75.5 21.5h-100v85l157 185h-142q-39 0 -69.5 -17t-47.5 -48t-17 -73v-412h-139v428q0 71 32 123t89 80.5t133 28.5h300v-109l-189 -215l16 28h33
q48 0 89 -19.5t66 -57.5t25 -96q0 -63 -27.5 -106.5t-75 -66.5t-108.5 -23z" />
    <glyph glyph-name="uni1EA0" unicode="&#x1ea0;" horiz-adv-x="671" 
d="M659 0h-143l-55 161h-253l-55 -161h-141l241 660h165zM239 263h191l-96 288zM335 -220q-38 0 -59 19.5t-21 53.5q0 35 21 54t59 19q39 0 60 -19t21 -54q0 -34 -21 -53.5t-60 -19.5z" />
    <glyph glyph-name="uni1EA1" unicode="&#x1ea1;" horiz-adv-x="574" 
d="M357 319q0 43 -24.5 67t-64.5 24q-37 0 -65 -19t-41 -63l-117 36q17 66 74.5 106t154.5 40q66 0 115 -20.5t76.5 -61.5t27.5 -103v-203q0 -38 36 -38q17 0 32 5l-8 -85q-26 -13 -65 -13q-35 0 -63 12t-44 36.5t-16 61.5v4l24 4q-6 -38 -33 -64.5t-65.5 -40.5t-79.5 -14
q-51 0 -88 15.5t-57 45.5t-20 74q0 56 36 91.5t103 48.5l188 38l-1 -85l-120 -24q-34 -7 -51.5 -18.5t-17.5 -37.5q0 -25 18.5 -38t44.5 -13q21 0 41 5t36 16t25 30t9 46v135zM279 -220q-38 0 -59 19.5t-21 53.5q0 35 21 54t59 19q39 0 60 -19t21 -54q0 -34 -21 -53.5
t-60 -19.5z" />
    <glyph glyph-name="uni1EA2" unicode="&#x1ea2;" horiz-adv-x="671" 
d="M659 0h-143l-55 161h-253l-55 -161h-141l241 660h165zM239 263h191l-96 288zM336 705l-33 44q27 13 39 26t12 30q0 15 -9 24.5t-26 9.5q-15 0 -24.5 -7t-17.5 -22l-66 36q13 35 44.5 54t75.5 19q30 0 55 -11.5t39.5 -33t14.5 -51.5q0 -31 -14.5 -54.5t-38 -39
t-51.5 -24.5z" />
    <glyph glyph-name="uni1EA3" unicode="&#x1ea3;" horiz-adv-x="574" 
d="M357 319q0 43 -24.5 67t-64.5 24q-37 0 -65 -19t-41 -63l-117 36q17 66 74.5 106t154.5 40q66 0 115 -20.5t76.5 -61.5t27.5 -103v-203q0 -38 36 -38q17 0 32 5l-8 -85q-26 -13 -65 -13q-35 0 -63 12t-44 36.5t-16 61.5v4l24 4q-6 -38 -33 -64.5t-65.5 -40.5t-79.5 -14
q-51 0 -88 15.5t-57 45.5t-20 74q0 56 36 91.5t103 48.5l188 38l-1 -85l-120 -24q-34 -7 -51.5 -18.5t-17.5 -37.5q0 -25 18.5 -38t44.5 -13q21 0 41 5t36 16t25 30t9 46v135zM270 546l-34 47q30 13 43 26.5t13 30.5q0 16 -9.5 26t-27.5 10q-14 0 -24 -7.5t-19 -23.5l-66 36
q13 37 45 56.5t76 19.5q31 0 56.5 -12t40 -34.5t14.5 -52.5q0 -31 -14.5 -55t-39.5 -40.5t-54 -26.5z" />
    <glyph glyph-name="uni1EA4" unicode="&#x1ea4;" horiz-adv-x="671" 
d="M507 725h-99l-73 96l-72 -96h-99l107 164h129zM531 979h113l-79 -145h-91zM659 0h-143l-55 161h-253l-55 -161h-141l241 660h165zM239 263h191l-96 288z" />
    <glyph glyph-name="uni1EA5" unicode="&#x1ea5;" horiz-adv-x="574" 
d="M448 565h-99l-73 96l-72 -96h-99l107 164h129zM472 819h113l-78 -145h-92zM356 319q0 43 -22.5 67t-64.5 24q-40 0 -68 -18.5t-39 -63.5l-114 36q15 66 73 106t155 40q67 0 115.5 -20.5t75 -60t26.5 -98.5v-209q0 -37 38 -37q16 0 30 4l-7 -84q-26 -13 -66 -13
q-36 0 -64 12t-44 36.5t-16 61.5v10l21 -2q-8 -38 -35 -65t-64 -41t-77 -14q-48 0 -85.5 15.5t-58.5 45.5t-21 74q0 55 36.5 91t103.5 49l188 38v-72l-120 -25q-39 -8 -57 -23.5t-18 -42.5q0 -25 19 -41t54 -16q21 0 40 6t34 18t23.5 29.5t8.5 41.5v141z" />
    <glyph glyph-name="uni1EA6" unicode="&#x1ea6;" horiz-adv-x="671" 
d="M507 725h-99l-73 96l-72 -96h-99l107 164h129zM527 979l57 -145h-91l-79 145h113zM659 0h-143l-55 161h-253l-55 -161h-141l241 660h165zM239 263h191l-96 288z" />
    <glyph glyph-name="uni1EA7" unicode="&#x1ea7;" horiz-adv-x="574" 
d="M448 565h-99l-73 96l-72 -96h-99l107 164h129zM468 819l57 -145h-91l-79 145h113zM356 319q0 43 -22.5 67t-64.5 24q-40 0 -68 -18.5t-39 -63.5l-114 36q15 66 73 106t155 40q67 0 115.5 -20.5t75 -60t26.5 -98.5v-209q0 -37 38 -37q16 0 30 4l-7 -84q-26 -13 -66 -13
q-36 0 -64 12t-44 36.5t-16 61.5v10l21 -2q-8 -38 -35 -65t-64 -41t-77 -14q-48 0 -85.5 15.5t-58.5 45.5t-21 74q0 55 36.5 91t103.5 49l188 38v-72l-120 -25q-39 -8 -57 -23.5t-18 -42.5q0 -25 19 -41t54 -16q21 0 40 6t34 18t23.5 29.5t8.5 41.5v141z" />
    <glyph glyph-name="uni1EA8" unicode="&#x1ea8;" horiz-adv-x="671" 
d="M507 725h-99l-73 96l-72 -96h-99l107 164h129zM507 816l-34 43q27 13 39.5 26t12.5 31q0 14 -9 23.5t-27 9.5q-14 0 -24 -7t-17 -21l-67 35q14 35 45 54.5t76 19.5q30 0 54.5 -12t39.5 -33.5t15 -51.5t-14.5 -53.5t-38.5 -39t-51 -24.5zM659 0h-143l-55 161h-253
l-55 -161h-141l241 660h165zM239 263h191l-96 288z" />
    <glyph glyph-name="uni1EA9" unicode="&#x1ea9;" horiz-adv-x="574" 
d="M448 565h-99l-73 96l-72 -96h-99l107 164h129zM448 656l-34 43q27 13 39.5 26t12.5 31q0 14 -9 23.5t-27 9.5q-14 0 -24 -7t-17 -21l-67 35q14 35 45 54.5t76 19.5q30 0 54.5 -12t39.5 -33.5t15 -51.5t-14.5 -53.5t-38.5 -39t-51 -24.5zM356 319q0 43 -22.5 67t-64.5 24
q-40 0 -68 -18.5t-39 -63.5l-114 36q15 66 73 106t155 40q67 0 115.5 -20.5t75 -60t26.5 -98.5v-209q0 -37 38 -37q16 0 30 4l-7 -84q-26 -13 -66 -13q-36 0 -64 12t-44 36.5t-16 61.5v10l21 -2q-8 -38 -35 -65t-64 -41t-77 -14q-48 0 -85.5 15.5t-58.5 45.5t-21 74
q0 55 36.5 91t103.5 49l188 38v-72l-120 -25q-39 -8 -57 -23.5t-18 -42.5q0 -25 19 -41t54 -16q21 0 40 6t34 18t23.5 29.5t8.5 41.5v141z" />
    <glyph glyph-name="uni1EAA" unicode="&#x1eaa;" horiz-adv-x="671" 
d="M507 725h-99l-73 96l-72 -96h-99l107 164h129zM515 1052q-3 -71 -34.5 -104.5t-77.5 -33.5q-27 0 -45.5 8.5t-32 19.5t-25.5 19.5t-27 8.5q-17 0 -26 -13.5t-13 -40.5h-79q4 71 35 104.5t82 33.5q25 0 43 -8.5t31.5 -19.5t24.5 -19.5t26 -8.5q17 0 26 13.5t13 40.5h79z
M659 0h-143l-55 161h-253l-55 -161h-141l241 660h165zM239 263h191l-96 288z" />
    <glyph glyph-name="uni1EAB" unicode="&#x1eab;" horiz-adv-x="574" 
d="M448 565h-99l-73 96l-72 -96h-99l107 164h129zM456 892q-3 -71 -34.5 -104.5t-77.5 -33.5q-27 0 -45.5 8.5t-32 19.5t-25.5 19.5t-27 8.5q-17 0 -26 -13.5t-13 -40.5h-79q4 71 35.5 104.5t81.5 33.5q26 0 43.5 -8.5t31 -19.5t24.5 -19.5t26 -8.5q17 0 26 13.5t13 40.5h79
zM356 319q0 43 -22.5 67t-64.5 24q-40 0 -68 -18.5t-39 -63.5l-114 36q15 66 73 106t155 40q67 0 115.5 -20.5t75 -60t26.5 -98.5v-209q0 -37 38 -37q16 0 30 4l-7 -84q-26 -13 -66 -13q-36 0 -64 12t-44 36.5t-16 61.5v10l21 -2q-8 -38 -35 -65t-64 -41t-77 -14
q-48 0 -85.5 15.5t-58.5 45.5t-21 74q0 55 36.5 91t103.5 49l188 38v-72l-120 -25q-39 -8 -57 -23.5t-18 -42.5q0 -25 19 -41t54 -16q21 0 40 6t34 18t23.5 29.5t8.5 41.5v141z" />
    <glyph glyph-name="uni1EAC" unicode="&#x1eac;" horiz-adv-x="671" 
d="M659 0h-143l-55 161h-253l-55 -161h-141l241 660h165zM239 263h191l-96 288zM335 -220q-38 0 -59 19.5t-21 53.5q0 35 21 54t59 19q39 0 60 -19t21 -54q0 -34 -21 -53.5t-60 -19.5zM508 730h-103l-70 98l-70 -98h-103l104 162h138z" />
    <glyph glyph-name="uni1EAD" unicode="&#x1ead;" horiz-adv-x="574" 
d="M357 319q0 43 -24.5 67t-64.5 24q-37 0 -65 -19t-41 -63l-117 36q17 66 74.5 106t154.5 40q66 0 115 -20.5t76.5 -61.5t27.5 -103v-203q0 -38 36 -38q17 0 32 5l-8 -85q-26 -13 -65 -13q-35 0 -63 12t-44 36.5t-16 61.5v4l24 4q-6 -38 -33 -64.5t-65.5 -40.5t-79.5 -14
q-51 0 -88 15.5t-57 45.5t-20 74q0 56 36 91.5t103 48.5l188 38l-1 -85l-120 -24q-34 -7 -51.5 -18.5t-17.5 -37.5q0 -25 18.5 -38t44.5 -13q21 0 41 5t36 16t25 30t9 46v135zM279 -220q-38 0 -59 19.5t-21 53.5q0 35 21 54t59 19q39 0 60 -19t21 -54q0 -34 -21 -53.5
t-60 -19.5zM456 565h-105l-75 98l-75 -98h-105l111 171h138z" />
    <glyph glyph-name="uni1EAE" unicode="&#x1eae;" horiz-adv-x="671" 
d="M490 874q0 -69 -42 -110t-113 -41q-70 0 -112 41t-42 110h88q0 -31 17 -52.5t49 -21.5q33 0 49.5 21.5t17.5 52.5h88zM273 894l52 138h118l-76 -138h-94zM659 0h-143l-55 161h-253l-55 -161h-141l241 660h165zM239 263h191l-96 288z" />
    <glyph glyph-name="uni1EAF" unicode="&#x1eaf;" horiz-adv-x="574" 
d="M431 714q0 -69 -42 -110t-113 -41q-70 0 -112 41t-42 110h88q0 -31 17 -52.5t49 -21.5q33 0 49.5 21.5t17.5 52.5h88zM214 734l52 138h118l-76 -138h-94zM356 319q0 43 -22.5 67t-64.5 24q-40 0 -68 -18.5t-39 -63.5l-114 36q15 66 73 106t155 40q67 0 115.5 -20.5
t75 -60t26.5 -98.5v-209q0 -37 38 -37q16 0 30 4l-7 -84q-26 -13 -66 -13q-36 0 -64 12t-44 36.5t-16 61.5v10l21 -2q-8 -38 -35 -65t-64 -41t-77 -14q-48 0 -85.5 15.5t-58.5 45.5t-21 74q0 55 36.5 91t103.5 49l188 38v-72l-120 -25q-39 -8 -57 -23.5t-18 -42.5
q0 -25 19 -41t54 -16q21 0 40 6t34 18t23.5 29.5t8.5 41.5v141z" />
    <glyph glyph-name="uni1EB0" unicode="&#x1eb0;" horiz-adv-x="671" 
d="M490 874q0 -69 -42 -110t-113 -41q-70 0 -112 41t-42 110h88q0 -31 17 -52.5t49 -21.5q33 0 49.5 21.5t17.5 52.5h88zM398 894h-94l-76 138h118zM659 0h-143l-55 161h-253l-55 -161h-141l241 660h165zM239 263h191l-96 288z" />
    <glyph glyph-name="uni1EB1" unicode="&#x1eb1;" horiz-adv-x="574" 
d="M431 714q0 -69 -42 -110t-113 -41q-70 0 -112 41t-42 110h88q0 -31 17 -52.5t49 -21.5q33 0 49.5 21.5t17.5 52.5h88zM339 734h-94l-76 138h118zM356 319q0 43 -22.5 67t-64.5 24q-40 0 -68 -18.5t-39 -63.5l-114 36q15 66 73 106t155 40q67 0 115.5 -20.5t75 -60
t26.5 -98.5v-209q0 -37 38 -37q16 0 30 4l-7 -84q-26 -13 -66 -13q-36 0 -64 12t-44 36.5t-16 61.5v10l21 -2q-8 -38 -35 -65t-64 -41t-77 -14q-48 0 -85.5 15.5t-58.5 45.5t-21 74q0 55 36.5 91t103.5 49l188 38v-72l-120 -25q-39 -8 -57 -23.5t-18 -42.5q0 -25 19 -41
t54 -16q21 0 40 6t34 18t23.5 29.5t8.5 41.5v141z" />
    <glyph glyph-name="uni1EB2" unicode="&#x1eb2;" horiz-adv-x="671" 
d="M490 874q0 -69 -42 -110t-113 -41q-70 0 -112 41t-42 110h88q0 -31 17 -52.5t49 -21.5q33 0 49.5 21.5t17.5 52.5h88zM336 878l-32 42q26 12 38 24.5t12 30.5q0 13 -8.5 22.5t-26.5 9.5q-14 0 -23.5 -6.5t-16.5 -21.5l-63 35q13 33 43 51.5t72 18.5q30 0 53.5 -11.5
t37.5 -32t14 -49.5t-14 -51.5t-36.5 -37.5t-49.5 -24zM659 0h-143l-55 161h-253l-55 -161h-141l241 660h165zM239 263h191l-96 288z" />
    <glyph glyph-name="uni1EB3" unicode="&#x1eb3;" horiz-adv-x="574" 
d="M431 714q0 -69 -42 -110t-113 -41q-70 0 -112 41t-42 110h88q0 -31 17 -52.5t49 -21.5q33 0 49.5 21.5t17.5 52.5h88zM277 718l-32 42q26 12 38 24.5t12 30.5q0 13 -8.5 22.5t-26.5 9.5q-14 0 -23.5 -6.5t-16.5 -21.5l-63 35q13 33 43 51.5t72 18.5q30 0 53.5 -11.5
t37.5 -32t14 -49.5t-14 -51.5t-36.5 -37.5t-49.5 -24zM356 319q0 43 -22.5 67t-64.5 24q-40 0 -68 -18.5t-39 -63.5l-114 36q15 66 73 106t155 40q67 0 115.5 -20.5t75 -60t26.5 -98.5v-209q0 -37 38 -37q16 0 30 4l-7 -84q-26 -13 -66 -13q-36 0 -64 12t-44 36.5t-16 61.5
v10l21 -2q-8 -38 -35 -65t-64 -41t-77 -14q-48 0 -85.5 15.5t-58.5 45.5t-21 74q0 55 36.5 91t103.5 49l188 38v-72l-120 -25q-39 -8 -57 -23.5t-18 -42.5q0 -25 19 -41t54 -16q21 0 40 6t34 18t23.5 29.5t8.5 41.5v141z" />
    <glyph glyph-name="uni1EB4" unicode="&#x1eb4;" horiz-adv-x="671" 
d="M490 874q0 -69 -42 -110t-112 -41t-112.5 41t-42.5 110h88q1 -31 18 -52.5t49 -21.5q33 0 49.5 21.5t17.5 52.5h87zM516 1042q-4 -71 -35 -104.5t-77 -33.5q-27 0 -45.5 8.5t-32 19.5t-26 19.5t-26.5 8.5q-17 0 -26 -13.5t-13 -40.5h-80q4 71 35.5 104.5t81.5 33.5
q26 0 44 -8.5t31 -19.5t24.5 -19.5t25.5 -8.5q17 0 26.5 13t13.5 41h79zM659 0h-143l-55 161h-253l-55 -161h-141l241 660h165zM239 263h191l-96 288z" />
    <glyph glyph-name="uni1EB5" unicode="&#x1eb5;" horiz-adv-x="574" 
d="M431 714q0 -69 -42 -110t-112 -41q-71 0 -113 41t-42 110h88q1 -31 17.5 -52.5t49.5 -21.5t49.5 21.5t16.5 52.5h88zM457 882q-4 -71 -35 -104.5t-78 -33.5q-27 0 -45.5 8.5t-32 19.5t-25.5 19.5t-26 8.5q-18 0 -27 -13.5t-13 -40.5h-79q4 71 35.5 104.5t81.5 33.5
q26 0 44 -8.5t31 -19.5t24.5 -19.5t25.5 -8.5q17 0 26 13t13 41h80zM356 319q0 43 -22.5 67t-64.5 24q-40 0 -68 -18.5t-39 -63.5l-114 36q15 66 73 106t155 40q67 0 115.5 -20.5t75 -60t26.5 -98.5v-209q0 -37 38 -37q16 0 30 4l-7 -84q-26 -13 -66 -13q-36 0 -64 12
t-44 36.5t-16 61.5v10l21 -2q-8 -38 -35 -65t-64 -41t-77 -14q-48 0 -85.5 15.5t-58.5 45.5t-21 74q0 55 36.5 91t103.5 49l188 38v-72l-120 -25q-39 -8 -57 -23.5t-18 -42.5q0 -25 19 -41t54 -16q21 0 40 6t34 18t23.5 29.5t8.5 41.5v141z" />
    <glyph glyph-name="uni1EB6" unicode="&#x1eb6;" horiz-adv-x="671" 
d="M659 0h-143l-55 161h-253l-55 -161h-141l241 660h165zM239 263h191l-96 288zM335 -220q-38 0 -59 19.5t-21 53.5q0 35 21 54t59 19q39 0 60 -19t21 -54q0 -34 -21 -53.5t-60 -19.5zM496 880q0 -72 -43.5 -114.5t-117.5 -42.5q-73 0 -117 42.5t-44 114.5h93
q0 -32 17.5 -53.5t50.5 -21.5q34 0 51 21.5t17 53.5h93z" />
    <glyph glyph-name="uni1EB7" unicode="&#x1eb7;" horiz-adv-x="574" 
d="M357 319q0 43 -24.5 67t-64.5 24q-37 0 -65 -19t-41 -63l-117 36q17 66 74.5 106t154.5 40q66 0 115 -20.5t76.5 -61.5t27.5 -103v-203q0 -38 36 -38q17 0 32 5l-8 -85q-26 -13 -65 -13q-35 0 -63 12t-44 36.5t-16 61.5v4l24 4q-6 -38 -33 -64.5t-65.5 -40.5t-79.5 -14
q-51 0 -88 15.5t-57 45.5t-20 74q0 56 36 91.5t103 48.5l188 38l-1 -85l-120 -24q-34 -7 -51.5 -18.5t-17.5 -37.5q0 -25 18.5 -38t44.5 -13q21 0 41 5t36 16t25 30t9 46v135zM279 -220q-38 0 -59 19.5t-21 53.5q0 35 21 54t59 19q39 0 60 -19t21 -54q0 -34 -21 -53.5
t-60 -19.5zM437 720q0 -72 -43.5 -114.5t-117.5 -42.5q-73 0 -117 42.5t-44 114.5h93q0 -32 17.5 -53.5t50.5 -21.5q34 0 51 21.5t17 53.5h93z" />
    <glyph glyph-name="uni1EB8" unicode="&#x1eb8;" horiz-adv-x="633" 
d="M86 0v660h495v-111h-357v-164h281v-106h-281v-168h371v-111h-509zM345 -220q-38 0 -59 19.5t-21 53.5q0 35 21 54t59 19q39 0 60 -19t21 -54q0 -34 -21 -53.5t-60 -19.5z" />
    <glyph glyph-name="uni1EB9" unicode="&#x1eb9;" 
d="M304 -10q-79 0 -137.5 31t-90.5 89t-32 140t32 140t89.5 89t131.5 31q76 0 129 -30.5t81 -83t28 -119.5q0 -20 -1 -38t-3 -32h-399v95h339l-66 -24q0 63 -28.5 97t-80.5 34q-38 0 -65.5 -18t-41.5 -53.5t-14 -89.5q0 -53 15.5 -87.5t44 -51.5t68.5 -17q44 0 71 17t42 47
l109 -42q-16 -39 -48.5 -67t-77 -42.5t-95.5 -14.5zM298 -220q-38 0 -59 19.5t-21 53.5q0 35 21 54t59 19q39 0 60 -19t21 -54q0 -34 -21 -53.5t-60 -19.5z" />
    <glyph glyph-name="uni1EBA" unicode="&#x1eba;" horiz-adv-x="633" 
d="M86 0v660h495v-111h-357v-164h281v-106h-281v-168h371v-111h-509zM335 705l-33 44q27 13 39 26t12 30q0 15 -9 24.5t-26 9.5q-15 0 -24.5 -7t-17.5 -22l-66 36q13 35 44.5 54t75.5 19q30 0 55 -11.5t39.5 -33t14.5 -51.5q0 -31 -14.5 -54.5t-38 -39t-51.5 -24.5z" />
    <glyph glyph-name="uni1EBB" unicode="&#x1ebb;" 
d="M304 -10q-79 0 -137.5 31t-90.5 89t-32 140t32 140t89.5 89t131.5 31q76 0 129 -30.5t81 -83t28 -119.5q0 -20 -1 -38t-3 -32h-399v95h339l-66 -24q0 63 -28.5 97t-80.5 34q-38 0 -65.5 -18t-41.5 -53.5t-14 -89.5q0 -53 15.5 -87.5t44 -51.5t68.5 -17q44 0 71 17t42 47
l109 -42q-16 -39 -48.5 -67t-77 -42.5t-95.5 -14.5zM287 546l-34 47q30 13 43 26.5t13 30.5q0 16 -9.5 26t-27.5 10q-14 0 -24 -7.5t-19 -23.5l-66 36q13 37 45 56.5t76 19.5q31 0 56.5 -12t40 -34.5t14.5 -52.5q0 -31 -14.5 -55t-39.5 -40.5t-54 -26.5z" />
    <glyph glyph-name="uni1EBC" unicode="&#x1ebc;" horiz-adv-x="633" 
d="M86 0v660h495v-111h-357v-164h281v-106h-281v-168h371v-111h-509zM525 878q-2 -50 -17.5 -83.5t-41.5 -50t-60 -16.5q-28 0 -48 9.5t-34.5 21t-28 21t-28.5 9.5q-19 0 -28.5 -15.5t-13.5 -45.5h-84q4 75 36.5 112.5t87.5 37.5q27 0 46.5 -9.5t33.5 -21.5t26.5 -21
t27.5 -9q20 0 29.5 15.5t12.5 45.5h84z" />
    <glyph glyph-name="uni1EBD" unicode="&#x1ebd;" 
d="M304 -10q-79 0 -137.5 31t-90.5 89t-32 140t32 140t89.5 89t131.5 31q76 0 129 -30.5t81 -83t28 -119.5q0 -20 -1 -38t-3 -32h-399v95h339l-66 -24q0 63 -28.5 97t-80.5 34q-38 0 -65.5 -18t-41.5 -53.5t-14 -89.5q0 -53 15.5 -87.5t44 -51.5t68.5 -17q44 0 71 17t42 47
l109 -42q-16 -39 -48.5 -67t-77 -42.5t-95.5 -14.5zM484 718q-2 -50 -17.5 -83.5t-41.5 -50t-60 -16.5q-28 0 -48 9.5t-34.5 21t-28 21t-28.5 9.5q-19 0 -28.5 -15.5t-13.5 -45.5h-84q4 75 36.5 112.5t87.5 37.5q27 0 46.5 -9.5t33.5 -21.5t26.5 -21t27.5 -9q20 0 29.5 15.5
t12.5 45.5h84z" />
    <glyph glyph-name="uni1EBE" unicode="&#x1ebe;" horiz-adv-x="633" 
d="M505 725h-98l-73 96l-73 -96h-99l108 164h128zM529 979h114l-79 -145h-92zM86 0v660h495v-111h-357v-164h281v-106h-281v-168h371v-111h-509z" />
    <glyph glyph-name="uni1EBF" unicode="&#x1ebf;" 
d="M488 819h114l-79 -145h-92zM464 565h-98l-73 96l-73 -96h-99l108 164h128zM304 -10q-79 0 -137.5 31t-90.5 89t-32 140t32 140t89.5 89t131.5 31q76 0 129 -30t81 -83t28 -120q0 -17 -1 -32t-3 -26h-399v76h339l-67 -21q0 65 -28 100t-80 35q-38 0 -65 -18t-41.5 -53.5
t-14.5 -89.5q0 -52 15.5 -87.5t44 -52t68.5 -16.5q44 0 71 17t42 47l109 -42q-15 -39 -48 -67t-77.5 -42.5t-95.5 -14.5z" />
    <glyph glyph-name="uni1EC0" unicode="&#x1ec0;" horiz-adv-x="633" 
d="M505 725h-98l-73 96l-73 -96h-99l108 164h128zM526 979l57 -145h-92l-79 145h114zM86 0v660h495v-111h-357v-164h281v-106h-281v-168h371v-111h-509z" />
    <glyph glyph-name="uni1EC1" unicode="&#x1ec1;" 
d="M485 819l57 -145h-92l-79 145h114zM464 565h-98l-73 96l-73 -96h-99l108 164h128zM304 -10q-79 0 -137.5 31t-90.5 89t-32 140t32 140t89.5 89t131.5 31q76 0 129 -30t81 -83t28 -120q0 -17 -1 -32t-3 -26h-399v76h339l-67 -21q0 65 -28 100t-80 35q-38 0 -65 -18
t-41.5 -53.5t-14.5 -89.5q0 -52 15.5 -87.5t44 -52t68.5 -16.5q44 0 71 17t42 47l109 -42q-15 -39 -48 -67t-77.5 -42.5t-95.5 -14.5z" />
    <glyph glyph-name="uni1EC2" unicode="&#x1ec2;" horiz-adv-x="633" 
d="M505 725h-98l-73 96l-73 -96h-99l108 164h128zM505 816l-33 43q27 13 39 26t12 31q0 14 -9 23.5t-26 9.5q-15 0 -24.5 -7t-17.5 -21l-66 35q13 35 44.5 54.5t75.5 19.5q30 0 55 -12t39.5 -33.5t14.5 -51.5t-14 -53.5t-38 -39t-52 -24.5zM86 0v660h495v-111h-357v-164h281
v-106h-281v-168h371v-111h-509z" />
    <glyph glyph-name="uni1EC3" unicode="&#x1ec3;" 
d="M464 656l-33 43q27 13 39 26t12 31q0 14 -9 23.5t-26 9.5q-15 0 -24.5 -7t-17.5 -21l-66 35q13 35 44.5 54.5t75.5 19.5q30 0 55 -12t39.5 -33.5t14.5 -51.5t-14.5 -53.5t-38 -39t-51.5 -24.5zM464 565h-98l-73 96l-73 -96h-99l108 164h128zM304 -10q-79 0 -137.5 31
t-90.5 89t-32 140t32 140t89.5 89t131.5 31q76 0 129 -30t81 -83t28 -120q0 -17 -1 -32t-3 -26h-399v76h339l-67 -21q0 65 -28 100t-80 35q-38 0 -65 -18t-41.5 -53.5t-14.5 -89.5q0 -52 15.5 -87.5t44 -52t68.5 -16.5q44 0 71 17t42 47l109 -42q-15 -39 -48 -67
t-77.5 -42.5t-95.5 -14.5z" />
    <glyph glyph-name="uni1EC4" unicode="&#x1ec4;" horiz-adv-x="633" 
d="M505 725h-98l-73 96l-73 -96h-99l108 164h128zM514 1052q-4 -71 -35 -104.5t-77 -33.5q-27 0 -45.5 8.5t-32 19.5t-26 19.5t-26.5 8.5q-17 0 -26 -13.5t-13 -40.5h-80q4 71 35.5 104.5t81.5 33.5q26 0 44 -8.5t31 -19.5t24.5 -19.5t25.5 -8.5q17 0 26.5 13.5t13.5 40.5
h79zM86 0v660h495v-111h-357v-164h281v-106h-281v-168h371v-111h-509z" />
    <glyph glyph-name="uni1EC5" unicode="&#x1ec5;" 
d="M464 565h-98l-73 96l-73 -96h-99l108 164h128zM473 892q-4 -71 -35 -104.5t-77 -33.5q-27 0 -45.5 8.5t-32 19.5t-26 19.5t-26.5 8.5q-17 0 -26 -13.5t-13 -40.5h-80q4 71 35.5 104.5t81.5 33.5q26 0 44 -8.5t31 -19.5t24.5 -19.5t25.5 -8.5q17 0 26.5 13.5t13.5 40.5h79
zM304 -10q-79 0 -137.5 31t-90.5 89t-32 140t32 140t89.5 89t131.5 31q76 0 129 -30t81 -83t28 -120q0 -17 -1 -32t-3 -26h-399v76h339l-67 -21q0 65 -28 100t-80 35q-38 0 -65 -18t-41.5 -53.5t-14.5 -89.5q0 -52 15.5 -87.5t44 -52t68.5 -16.5q44 0 71 17t42 47l109 -42
q-15 -39 -48 -67t-77.5 -42.5t-95.5 -14.5z" />
    <glyph glyph-name="uni1EC6" unicode="&#x1ec6;" horiz-adv-x="633" 
d="M86 0v660h495v-111h-357v-164h281v-106h-281v-168h371v-111h-509zM345 -220q-38 0 -59 19.5t-21 53.5q0 35 21 54t59 19q39 0 60 -19t21 -54q0 -34 -21 -53.5t-60 -19.5zM507 730h-103l-70 98l-70 -98h-103l104 162h138z" />
    <glyph glyph-name="uni1EC7" unicode="&#x1ec7;" 
d="M304 -10q-79 0 -137.5 31t-90.5 89t-32 140t32 140t89.5 89t131.5 31q76 0 129 -30.5t81 -83t28 -119.5q0 -20 -1 -38t-3 -32h-399v95h339l-66 -24q0 63 -28.5 97t-80.5 34q-38 0 -65.5 -18t-41.5 -53.5t-14 -89.5q0 -53 15.5 -87.5t44 -51.5t68.5 -17q44 0 71 17t42 47
l109 -42q-16 -39 -48.5 -67t-77 -42.5t-95.5 -14.5zM298 -220q-38 0 -59 19.5t-21 53.5q0 35 21 54t59 19q39 0 60 -19t21 -54q0 -34 -21 -53.5t-60 -19.5zM473 565h-105l-75 98l-75 -98h-105l111 171h138z" />
    <glyph glyph-name="uni1EC8" unicode="&#x1ec8;" horiz-adv-x="310" 
d="M224 660v-660h-138v660h138zM156 705l-33 44q27 13 39 26t12 30q0 15 -9 24.5t-26 9.5q-15 0 -24.5 -7t-17.5 -22l-66 36q13 35 44.5 54t75.5 19q30 0 55 -11.5t39.5 -33t14.5 -51.5q0 -31 -14.5 -54.5t-38 -39t-51.5 -24.5z" />
    <glyph glyph-name="uni1EC9" unicode="&#x1ec9;" horiz-adv-x="282" 
d="M209 500v-500h-137v500h137zM135 546l-34 47q30 13 43 26.5t13 30.5q0 16 -9.5 26t-27.5 10q-14 0 -24 -7.5t-19 -23.5l-66 36q13 37 45 56.5t76 19.5q31 0 56.5 -12t40 -34.5t14.5 -52.5q0 -31 -14.5 -55t-39.5 -40.5t-54 -26.5z" />
    <glyph glyph-name="uni1ECA" unicode="&#x1eca;" horiz-adv-x="310" 
d="M224 660v-660h-138v660h138zM155 -220q-38 0 -59 19.5t-21 53.5q0 35 21 54t59 19q39 0 60 -19t21 -54q0 -34 -21 -53.5t-60 -19.5z" />
    <glyph glyph-name="uni1ECB" unicode="&#x1ecb;" horiz-adv-x="282" 
d="M141 572q-43 0 -64 18.5t-21 54.5q0 37 21 55.5t64 18.5t64 -18.5t21 -55.5q0 -36 -21 -54.5t-64 -18.5zM209 500v-500h-137v500h137zM141 -220q-38 0 -59 19.5t-21 53.5q0 35 21 54t59 19q39 0 60 -19t21 -54q0 -34 -21 -53.5t-60 -19.5z" />
    <glyph glyph-name="uni1ECC" unicode="&#x1ecc;" horiz-adv-x="741" 
d="M371 670q98 0 169 -41t109.5 -117t38.5 -182t-38.5 -182t-109.5 -117t-169 -41t-169.5 41t-110 117t-38.5 182t38.5 182t110 117t169.5 41zM371 557q-55 0 -94.5 -26t-60 -77t-20.5 -124t20.5 -124t60 -77t94.5 -26t94 26t59.5 77t20.5 124t-20.5 124t-59.5 77t-94 26z
M371 -220q-38 0 -59 19.5t-21 53.5q0 35 21 54t59 19q39 0 60 -19t21 -54q0 -34 -21 -53.5t-60 -19.5z" />
    <glyph glyph-name="uni1ECD" unicode="&#x1ecd;" horiz-adv-x="599" 
d="M300 510q76 0 133.5 -31t90 -89t32.5 -140q0 -81 -32.5 -139.5t-90 -89.5t-133.5 -31q-75 0 -133 31t-90.5 89.5t-32.5 139.5q0 82 32.5 140t90.5 89t133 31zM300 408q-38 0 -64.5 -17.5t-40.5 -52.5t-14 -88t14 -88t40.5 -52.5t64.5 -17.5q37 0 63.5 17.5t40.5 52.5
t14 88t-14 88t-40.5 52.5t-63.5 17.5zM300 -220q-38 0 -59 19.5t-21 53.5q0 35 21 54t59 19q39 0 60 -19t21 -54q0 -34 -21 -53.5t-60 -19.5z" />
    <glyph glyph-name="uni1ECE" unicode="&#x1ece;" horiz-adv-x="741" 
d="M371 670q98 0 169 -41t109.5 -117t38.5 -182t-38.5 -182t-109.5 -117t-169 -41t-169.5 41t-110 117t-38.5 182t38.5 182t110 117t169.5 41zM371 557q-55 0 -94.5 -26t-60 -77t-20.5 -124t20.5 -124t60 -77t94.5 -26t94 26t59.5 77t20.5 124t-20.5 124t-59.5 77t-94 26z
M371 705l-33 44q27 13 39 26t12 30q0 15 -9 24.5t-26 9.5q-15 0 -24.5 -7t-17.5 -22l-66 36q13 35 44.5 54t75.5 19q30 0 55 -11.5t39.5 -33t14.5 -51.5q0 -31 -14.5 -54.5t-38 -39t-51.5 -24.5z" />
    <glyph glyph-name="uni1ECF" unicode="&#x1ecf;" horiz-adv-x="599" 
d="M300 510q76 0 133.5 -31t90 -89t32.5 -140q0 -81 -32.5 -139.5t-90 -89.5t-133.5 -31q-75 0 -133 31t-90.5 89.5t-32.5 139.5q0 82 32.5 140t90.5 89t133 31zM300 408q-38 0 -64.5 -17.5t-40.5 -52.5t-14 -88t14 -88t40.5 -52.5t64.5 -17.5q37 0 63.5 17.5t40.5 52.5
t14 88t-14 88t-40.5 52.5t-63.5 17.5zM293 546l-34 47q30 13 43 26.5t13 30.5q0 16 -9.5 26t-27.5 10q-14 0 -24 -7.5t-19 -23.5l-66 36q13 37 45 56.5t76 19.5q31 0 56.5 -12t40 -34.5t14.5 -52.5q0 -31 -14.5 -55t-39.5 -40.5t-54 -26.5z" />
    <glyph glyph-name="uni1ED0" unicode="&#x1ed0;" horiz-adv-x="741" 
d="M542 725h-99l-72 96l-73 -96h-99l107 164h129zM566 979h114l-79 -145h-92zM371 670q98 0 169 -41t109.5 -117t38.5 -182t-38.5 -182t-109.5 -117t-169 -41t-169.5 41t-110 117t-38.5 182t38.5 182t110 117t169.5 41zM371 557q-55 0 -94.5 -26t-60 -77t-20.5 -124
t20.5 -124t60 -77t94.5 -26t94 26t59.5 77t20.5 124t-20.5 124t-59.5 77t-94 26z" />
    <glyph glyph-name="uni1ED1" unicode="&#x1ed1;" horiz-adv-x="599" 
d="M495 819h114l-79 -145h-92zM471 565h-99l-72 96l-73 -96h-99l107 164h129zM300 510q76 0 133.5 -31t90 -89t32.5 -140q0 -81 -32.5 -139.5t-90 -89.5t-133.5 -31q-75 0 -133 31t-90.5 89.5t-32.5 139.5q0 82 32.5 140t90.5 89t133 31zM300 408q-38 0 -64.5 -17.5
t-40.5 -52.5t-14 -88t14 -88t40.5 -52.5t64.5 -17.5q37 0 63.5 17.5t40.5 52.5t14 88t-14 88t-40.5 52.5t-63.5 17.5z" />
    <glyph glyph-name="uni1ED2" unicode="&#x1ed2;" horiz-adv-x="741" 
d="M542 725h-99l-72 96l-73 -96h-99l107 164h129zM563 979l57 -145h-92l-79 145h114zM371 670q98 0 169 -41t109.5 -117t38.5 -182t-38.5 -182t-109.5 -117t-169 -41t-169.5 41t-110 117t-38.5 182t38.5 182t110 117t169.5 41zM371 557q-55 0 -94.5 -26t-60 -77t-20.5 -124
t20.5 -124t60 -77t94.5 -26t94 26t59.5 77t20.5 124t-20.5 124t-59.5 77t-94 26z" />
    <glyph glyph-name="uni1ED3" unicode="&#x1ed3;" horiz-adv-x="599" 
d="M492 819l57 -145h-92l-79 145h114zM471 565h-99l-72 96l-73 -96h-99l107 164h129zM300 510q76 0 133.5 -31t90 -89t32.5 -140q0 -81 -32.5 -139.5t-90 -89.5t-133.5 -31q-75 0 -133 31t-90.5 89.5t-32.5 139.5q0 82 32.5 140t90.5 89t133 31zM300 408q-38 0 -64.5 -17.5
t-40.5 -52.5t-14 -88t14 -88t40.5 -52.5t64.5 -17.5q37 0 63.5 17.5t40.5 52.5t14 88t-14 88t-40.5 52.5t-63.5 17.5z" />
    <glyph glyph-name="uni1ED4" unicode="&#x1ed4;" horiz-adv-x="741" 
d="M542 725h-99l-72 96l-73 -96h-99l107 164h129zM542 816l-34 43q28 13 40 26t12 31q0 14 -9 23.5t-27 9.5q-14 0 -24 -7t-17 -21l-66 35q13 35 44.5 54.5t75.5 19.5q30 0 54.5 -12t39.5 -33.5t15 -51.5t-14.5 -53.5t-38 -39t-51.5 -24.5zM371 670q98 0 169 -41t109.5 -117
t38.5 -182t-38.5 -182t-109.5 -117t-169 -41t-169.5 41t-110 117t-38.5 182t38.5 182t110 117t169.5 41zM371 557q-55 0 -94.5 -26t-60 -77t-20.5 -124t20.5 -124t60 -77t94.5 -26t94 26t59.5 77t20.5 124t-20.5 124t-59.5 77t-94 26z" />
    <glyph glyph-name="uni1ED5" unicode="&#x1ed5;" horiz-adv-x="599" 
d="M471 656l-34 43q28 13 40 26t12 31q0 14 -9 23.5t-27 9.5q-14 0 -23.5 -7t-17.5 -21l-66 35q13 35 44.5 54.5t75.5 19.5q30 0 54.5 -12t39.5 -33.5t15 -51.5t-14.5 -53.5t-38 -39t-51.5 -24.5zM471 565h-99l-72 96l-73 -96h-99l107 164h129zM300 510q76 0 133.5 -31
t90 -89t32.5 -140q0 -81 -32.5 -139.5t-90 -89.5t-133.5 -31q-75 0 -133 31t-90.5 89.5t-32.5 139.5q0 82 32.5 140t90.5 89t133 31zM300 408q-38 0 -64.5 -17.5t-40.5 -52.5t-14 -88t14 -88t40.5 -52.5t64.5 -17.5q37 0 63.5 17.5t40.5 52.5t14 88t-14 88t-40.5 52.5
t-63.5 17.5z" />
    <glyph glyph-name="uni1ED6" unicode="&#x1ed6;" horiz-adv-x="741" 
d="M542 725h-99l-72 96l-73 -96h-99l107 164h129zM551 1052q-4 -71 -35.5 -104.5t-77.5 -33.5q-27 0 -45.5 8.5t-32 19.5t-25.5 19.5t-26 8.5q-18 0 -27 -13.5t-13 -40.5h-79q4 71 35.5 104.5t81.5 33.5q26 0 44 -8.5t31 -19.5t24.5 -19.5t25.5 -8.5q17 0 26 13.5t13 40.5
h80zM371 670q98 0 169 -41t109.5 -117t38.5 -182t-38.5 -182t-109.5 -117t-169 -41t-169.5 41t-110 117t-38.5 182t38.5 182t110 117t169.5 41zM371 557q-55 0 -94.5 -26t-60 -77t-20.5 -124t20.5 -124t60 -77t94.5 -26t94 26t59.5 77t20.5 124t-20.5 124t-59.5 77t-94 26z
" />
    <glyph glyph-name="uni1ED7" unicode="&#x1ed7;" horiz-adv-x="599" 
d="M471 565h-99l-72 96l-73 -96h-99l107 164h129zM480 892q-4 -71 -35 -104.5t-78 -33.5q-27 0 -45.5 8.5t-32 19.5t-25.5 19.5t-26 8.5q-18 0 -27 -13.5t-13 -40.5h-79q4 71 35.5 104.5t81.5 33.5q26 0 44 -8.5t31 -19.5t24.5 -19.5t25.5 -8.5q17 0 26 13.5t13 40.5h80z
M300 510q76 0 133.5 -31t90 -89t32.5 -140q0 -81 -32.5 -139.5t-90 -89.5t-133.5 -31q-75 0 -133 31t-90.5 89.5t-32.5 139.5q0 82 32.5 140t90.5 89t133 31zM300 408q-38 0 -64.5 -17.5t-40.5 -52.5t-14 -88t14 -88t40.5 -52.5t64.5 -17.5q37 0 63.5 17.5t40.5 52.5t14 88
t-14 88t-40.5 52.5t-63.5 17.5z" />
    <glyph glyph-name="uni1ED8" unicode="&#x1ed8;" horiz-adv-x="741" 
d="M371 670q98 0 169 -41t109.5 -117t38.5 -182t-38.5 -182t-109.5 -117t-169 -41t-169.5 41t-110 117t-38.5 182t38.5 182t110 117t169.5 41zM371 557q-55 0 -94.5 -26t-60 -77t-20.5 -124t20.5 -124t60 -77t94.5 -26t94 26t59.5 77t20.5 124t-20.5 124t-59.5 77t-94 26z
M371 -220q-38 0 -59 19.5t-21 53.5q0 35 21 54t59 19q39 0 60 -19t21 -54q0 -34 -21 -53.5t-60 -19.5zM544 730h-103l-70 98l-70 -98h-103l104 162h138z" />
    <glyph glyph-name="uni1ED9" unicode="&#x1ed9;" horiz-adv-x="599" 
d="M300 510q76 0 133.5 -31t90 -89t32.5 -140q0 -81 -32.5 -139.5t-90 -89.5t-133.5 -31q-75 0 -133 31t-90.5 89.5t-32.5 139.5q0 82 32.5 140t90.5 89t133 31zM300 408q-38 0 -64.5 -17.5t-40.5 -52.5t-14 -88t14 -88t40.5 -52.5t64.5 -17.5q37 0 63.5 17.5t40.5 52.5
t14 88t-14 88t-40.5 52.5t-63.5 17.5zM300 -220q-38 0 -59 19.5t-21 53.5q0 35 21 54t59 19q39 0 60 -19t21 -54q0 -34 -21 -53.5t-60 -19.5zM480 565h-105l-75 98l-75 -98h-105l111 171h138z" />
    <glyph glyph-name="uni1EDA" unicode="&#x1eda;" horiz-adv-x="741" 
d="M666 766q0 -90 -50 -140t-148 -50l-13 84q61 0 84.5 26.5t23.5 79.5h103zM371 670q98 0 169 -41t109.5 -117t38.5 -182t-38.5 -182t-109.5 -117t-169 -41t-169.5 41t-110 117t-38.5 182t38.5 182t110 117t169.5 41zM371 557q-55 0 -94.5 -26t-60 -77t-20.5 -124
t20.5 -124t60 -77t94.5 -26t94 26t59.5 77t20.5 124t-20.5 124t-59.5 77t-94 26zM373 892h126l-88 -162h-101z" />
    <glyph glyph-name="uni1EDB" unicode="&#x1edb;" horiz-adv-x="599" 
d="M300 510q76 0 133.5 -31t90 -89t32.5 -140q0 -81 -32.5 -139.5t-90 -89.5t-133.5 -31q-75 0 -133 31t-90.5 89.5t-32.5 139.5q0 82 32.5 140t90.5 89t133 31zM300 408q-38 0 -64.5 -17.5t-40.5 -52.5t-14 -88t14 -88t40.5 -52.5t64.5 -17.5q37 0 63.5 17.5t40.5 52.5
t14 88t-14 88t-40.5 52.5t-63.5 17.5zM379 422v78q36 0 56 26t20 87h99q0 -98 -47 -144.5t-128 -46.5zM303 742h132l-100 -170h-101z" />
    <glyph glyph-name="uni1EDC" unicode="&#x1edc;" horiz-adv-x="741" 
d="M666 766q0 -90 -50 -140t-148 -50l-13 84q61 0 84.5 26.5t23.5 79.5h103zM371 670q98 0 169 -41t109.5 -117t38.5 -182t-38.5 -182t-109.5 -117t-169 -41t-169.5 41t-110 117t-38.5 182t38.5 182t110 117t169.5 41zM371 557q-55 0 -94.5 -26t-60 -77t-20.5 -124
t20.5 -124t60 -77t94.5 -26t94 26t59.5 77t20.5 124t-20.5 124t-59.5 77t-94 26zM369 892l63 -162h-101l-88 162h126z" />
    <glyph glyph-name="uni1EDD" unicode="&#x1edd;" horiz-adv-x="599" 
d="M300 510q76 0 133.5 -31t90 -89t32.5 -140q0 -81 -32.5 -139.5t-90 -89.5t-133.5 -31q-75 0 -133 31t-90.5 89.5t-32.5 139.5q0 82 32.5 140t90.5 89t133 31zM300 408q-38 0 -64.5 -17.5t-40.5 -52.5t-14 -88t14 -88t40.5 -52.5t64.5 -17.5q37 0 63.5 17.5t40.5 52.5
t14 88t-14 88t-40.5 52.5t-63.5 17.5zM379 422v78q36 0 56 26t20 87h99q0 -98 -47 -144.5t-128 -46.5zM288 742l70 -170h-102l-100 170h132z" />
    <glyph glyph-name="uni1EDE" unicode="&#x1ede;" horiz-adv-x="741" 
d="M666 766q0 -90 -50 -140t-148 -50l-13 84q61 0 84.5 26.5t23.5 79.5h103zM371 670q98 0 169 -41t109.5 -117t38.5 -182t-38.5 -182t-109.5 -117t-169 -41t-169.5 41t-110 117t-38.5 182t38.5 182t110 117t169.5 41zM371 557q-55 0 -94.5 -26t-60 -77t-20.5 -124
t20.5 -124t60 -77t94.5 -26t94 26t59.5 77t20.5 124t-20.5 124t-59.5 77t-94 26zM371 705l-33 44q27 13 39 26t12 30q0 15 -9 24.5t-26 9.5q-15 0 -24.5 -7t-17.5 -22l-66 36q13 35 44.5 54t75.5 19q30 0 55 -11.5t39.5 -33t14.5 -51.5q0 -31 -14.5 -54.5t-38 -39
t-51.5 -24.5z" />
    <glyph glyph-name="uni1EDF" unicode="&#x1edf;" horiz-adv-x="599" 
d="M300 510q76 0 133.5 -31t90 -89t32.5 -140q0 -81 -32.5 -139.5t-90 -89.5t-133.5 -31q-75 0 -133 31t-90.5 89.5t-32.5 139.5q0 82 32.5 140t90.5 89t133 31zM300 408q-38 0 -64.5 -17.5t-40.5 -52.5t-14 -88t14 -88t40.5 -52.5t64.5 -17.5q37 0 63.5 17.5t40.5 52.5
t14 88t-14 88t-40.5 52.5t-63.5 17.5zM379 422v78q36 0 56 26t20 87h99q0 -98 -47 -144.5t-128 -46.5zM293 546l-34 47q30 13 43 26.5t13 30.5q0 16 -9.5 26t-27.5 10q-14 0 -24 -7.5t-19 -23.5l-66 36q13 37 45 56.5t76 19.5q31 0 56.5 -12t40 -34.5t14.5 -52.5
q0 -31 -14.5 -55t-39.5 -40.5t-54 -26.5z" />
    <glyph glyph-name="uni1EE0" unicode="&#x1ee0;" horiz-adv-x="741" 
d="M666 766q0 -90 -50 -140t-148 -50l-13 84q61 0 84.5 26.5t23.5 79.5h103zM371 670q98 0 169 -41t109.5 -117t38.5 -182t-38.5 -182t-109.5 -117t-169 -41t-169.5 41t-110 117t-38.5 182t38.5 182t110 117t169.5 41zM371 557q-55 0 -94.5 -26t-60 -77t-20.5 -124
t20.5 -124t60 -77t94.5 -26t94 26t59.5 77t20.5 124t-20.5 124t-59.5 77t-94 26zM546 878q-2 -50 -17.5 -83.5t-41.5 -50t-60 -16.5q-28 0 -48 9.5t-34.5 21t-28 21t-28.5 9.5q-19 0 -28.5 -15.5t-13.5 -45.5h-84q4 75 36.5 112.5t87.5 37.5q27 0 46.5 -9.5t33.5 -21.5
t26.5 -21t27.5 -9q20 0 29.5 15.5t12.5 45.5h84z" />
    <glyph glyph-name="uni1EE1" unicode="&#x1ee1;" horiz-adv-x="599" 
d="M300 510q76 0 133.5 -31t90 -89t32.5 -140q0 -81 -32.5 -139.5t-90 -89.5t-133.5 -31q-75 0 -133 31t-90.5 89.5t-32.5 139.5q0 82 32.5 140t90.5 89t133 31zM300 408q-38 0 -64.5 -17.5t-40.5 -52.5t-14 -88t14 -88t40.5 -52.5t64.5 -17.5q37 0 63.5 17.5t40.5 52.5
t14 88t-14 88t-40.5 52.5t-63.5 17.5zM379 422v78q36 0 56 26t20 87h99q0 -98 -47 -144.5t-128 -46.5zM460 718q-2 -50 -17.5 -83.5t-41.5 -50t-60 -16.5q-28 0 -48 9.5t-34.5 21t-28 21t-28.5 9.5q-19 0 -28.5 -15.5t-13.5 -45.5h-84q4 75 36.5 112.5t87.5 37.5
q27 0 46.5 -9.5t33.5 -21.5t26.5 -21t27.5 -9q20 0 29.5 15.5t12.5 45.5h84z" />
    </font>
</defs>
</svg>
