<?xml version="1.0" standalone="no"?>
<!DOCTYPE svg PUBLIC "-//W3C//DTD SVG 1.1//EN" "http://www.w3.org/Graphics/SVG/1.1/DTD/svg11.dtd" >
<svg xmlns="http://www.w3.org/2000/svg" xmlns:xlink="http://www.w3.org/1999/xlink" version="1.1">
<metadata>
Created by FontForge 20201107 at Wed Aug 11 21:25:12 2021
 By 
Copyright 2019 The Work Sans Project Authors (https://github.com/weiweihuanghuang/Work-Sans)
</metadata>
<defs>
<font id="WorkSans-Light" horiz-adv-x="604" >
  <font-face 
    font-family="Work Sans Light"
    font-weight="300"
    font-stretch="normal"
    units-per-em="1000"
    panose-1="0 0 0 0 0 0 0 0 0 0"
    ascent="800"
    descent="-200"
    x-height="500"
    cap-height="660"
    bbox="-188 -333 1240 1077"
    underline-thickness="50"
    underline-position="-125"
    unicode-range="U+000D-FB02"
  />
<missing-glyph horiz-adv-x="500" 
d="M130 80h240v500h-240v-500zM50 0v660h400v-660h-400z" />
    <glyph glyph-name="fi" unicode="fi" horiz-adv-x="587" 
d="M272 735q28 0 48.5 -7t32.5 -20l-14 -40q-13 12 -28 17t-35 5q-49 0 -76 -28t-27 -83v-79v-18v-482h-50v584q0 34 9.5 62t28.5 47.5t47 30.5t64 11zM349 500v-43h-326v43h326zM473 597q-19 0 -30.5 11.5t-11.5 30.5t11.5 30.5t30.5 11.5t30.5 -11.5t11.5 -30.5
t-11.5 -30.5t-30.5 -11.5zM498 500v-500h-50v500h50z" />
    <glyph glyph-name="fl" unicode="fl" horiz-adv-x="632" 
d="M272 735q28 0 48.5 -7t32.5 -20l-14 -40q-13 12 -28 17t-35 5q-49 0 -76 -28t-27 -83v-79v-18v-482h-50v584q0 34 9.5 62t28.5 47.5t47 30.5t64 11zM349 500v-43h-326v43h326zM494 730v-612q0 -46 16 -65t50 -19q21 0 33.5 3t29.5 10l-7 -44q-13 -6 -29.5 -9.5
t-36.5 -3.5q-53 0 -79.5 30.5t-26.5 95.5v614h50z" />
    <glyph glyph-name="f_f" unicode="ff" horiz-adv-x="704" 
d="M272 735q28 0 48.5 -7t32.5 -20l-14 -40q-13 12 -28 17t-35 5q-49 0 -76 -28t-27 -83v-79v-18v-482h-50v584q0 34 9.5 62t28.5 47.5t47 30.5t64 11zM349 500v-43h-326v43h326zM617 735q28 0 48.5 -7t32.5 -20l-14 -40q-13 12 -28 17t-35 5q-49 0 -76 -28t-27 -83v-79v-18
v-482h-50v584q0 34 9.5 62t28.5 47.5t47 30.5t64 11zM694 500v-43h-326v43h326z" />
    <glyph glyph-name="f_f_i" unicode="ffi" horiz-adv-x="932" 
d="M272 735q28 0 48.5 -7t32.5 -20l-14 -40q-13 12 -28 17t-35 5q-49 0 -76 -28t-27 -83v-79v-18v-482h-50v584q0 34 9.5 62t28.5 47.5t47 30.5t64 11zM349 500v-43h-326v43h326zM617 735q28 0 48.5 -7t32.5 -20l-14 -40q-13 12 -28 17t-35 5q-49 0 -76 -28t-27 -83v-79v-18
v-482h-50v584q0 34 9.5 62t28.5 47.5t47 30.5t64 11zM694 500v-43h-326v43h326zM818 597q-19 0 -30.5 11.5t-11.5 30.5t11.5 30.5t30.5 11.5t30.5 -11.5t11.5 -30.5t-11.5 -30.5t-30.5 -11.5zM843 500v-500h-50v500h50z" />
    <glyph glyph-name="f_f_l" unicode="ffl" horiz-adv-x="977" 
d="M272 735q28 0 48.5 -7t32.5 -20l-14 -40q-13 12 -28 17t-35 5q-49 0 -76 -28t-27 -83v-79v-18v-482h-50v584q0 34 9.5 62t28.5 47.5t47 30.5t64 11zM349 500v-43h-326v43h326zM617 735q28 0 48.5 -7t32.5 -20l-14 -40q-13 12 -28 17t-35 5q-49 0 -76 -28t-27 -83v-79v-18
v-482h-50v584q0 34 9.5 62t28.5 47.5t47 30.5t64 11zM694 500v-43h-326v43h326zM839 730v-612q0 -46 16 -65t50 -19q21 0 33.5 3t29.5 10l-7 -44q-13 -6 -29.5 -9.5t-36.5 -3.5q-53 0 -79.5 30.5t-26.5 95.5v614h50z" />
    <glyph glyph-name=".notdef" horiz-adv-x="500" 
d="M130 80h240v500h-240v-500zM50 0v660h400v-660h-400z" />
    <glyph glyph-name=".null" horiz-adv-x="0" 
 />
    <glyph glyph-name="nonmarkingreturn" horiz-adv-x="333" 
 />
    <glyph glyph-name="NULL" horiz-adv-x="0" 
 />
    <glyph glyph-name="NULL" horiz-adv-x="0" 
 />
    <glyph glyph-name="CR" unicode="&#xd;" horiz-adv-x="313" 
 />
    <glyph glyph-name="space" unicode=" " horiz-adv-x="313" 
 />
    <glyph glyph-name="exclam" unicode="!" horiz-adv-x="230" 
d="M141 660v-320l-6 -150h-40l-6 150v320h52zM115 82q20 0 32.5 -12.5t12.5 -32.5t-12.5 -32.5t-32.5 -12.5t-32.5 12.5t-12.5 32.5t12.5 32.5t32.5 12.5z" />
    <glyph glyph-name="quotedbl" unicode="&#x22;" horiz-adv-x="327" 
d="M262 685l-14 -205h-40v205h54zM129 685l-14 -205h-40v205h54z" />
    <glyph glyph-name="numbersign" unicode="#" horiz-adv-x="636" 
d="M503 660l-105 -660h-44l105 660h44zM568 237v-39h-537v39h537zM279 660l-105 -660h-44l105 660h44zM605 467v-39h-537v39h537z" />
    <glyph glyph-name="dollar" unicode="$" horiz-adv-x="602" 
d="M310 1q-65 0 -117.5 18.5t-89.5 53.5t-55 83l43 33q14 -46 45 -77.5t76.5 -48.5t100.5 -17q82 0 132 33.5t50 96.5q0 41 -28 69.5t-96 42.5l-133 29q-59 13 -95.5 35.5t-53 54.5t-16.5 72q0 49 28 90t79 66.5t123 25.5q83 0 142.5 -35t91.5 -108l-40 -31
q-28 68 -78.5 98.5t-121.5 30.5q-55 0 -94 -17.5t-59 -47.5t-20 -67q0 -30 12 -53t40.5 -39.5t77.5 -27.5l127 -28q89 -19 127 -57.5t38 -98.5q0 -54 -30 -94t-83 -62.5t-123 -22.5zM285 -100v860h43v-860h-43z" />
    <glyph glyph-name="percent" unicode="%" horiz-adv-x="809" 
d="M163 0l433 660h49l-433 -660h-49zM189 665q49 0 82 -23.5t50 -63t17 -88.5t-17 -88.5t-50 -62.5t-82 -23q-48 0 -81.5 23t-50.5 62.5t-17 88.5t16.5 88.5t50.5 63t82 23.5zM189 625q-35 0 -58 -17.5t-34.5 -48t-11.5 -69.5t11.5 -69.5t34.5 -47.5t58 -17q36 0 59 17
t34 47.5t11 69.5t-11.5 69.5t-34 48t-58.5 17.5zM620 344q49 0 82 -23t50 -62.5t17 -89.5q0 -49 -17 -88.5t-50 -62.5t-82 -23q-48 0 -82 23t-51 62.5t-17 88.5q0 50 17 89.5t51 62.5t82 23zM620 304q-35 0 -58.5 -17.5t-35 -48t-11.5 -69.5q0 -38 11.5 -68.5t35 -48
t58.5 -17.5q36 0 58.5 17.5t34 48t11.5 68.5q0 39 -11.5 69.5t-34 48t-58.5 17.5z" />
    <glyph glyph-name="ampersand" unicode="&#x26;" horiz-adv-x="599" 
d="M247 -10q-60 0 -105 20.5t-70 57.5t-25 86q0 36 10.5 65t32 54.5t54 48.5t76.5 45l25 12q42 24 72 45.5t47 48t17 64.5q0 41 -26.5 64.5t-71.5 23.5q-49 0 -76 -27.5t-27 -69.5q0 -21 5.5 -39.5t22.5 -45t50 -70t88 -114.5q58 -73 96.5 -119t65 -70t49 -33t48.5 -9
l-12 -38q-28 0 -53 9.5t-55 35t-71 73.5t-101 123q-53 67 -87.5 112t-55 76t-29 56t-8.5 53q0 38 17.5 70t51.5 51t84 19q42 0 73 -15t48.5 -43.5t17.5 -67.5q0 -42 -16.5 -75t-50.5 -61t-89 -59l-21 -8q-51 -27 -85.5 -52.5t-51.5 -55.5t-17 -73q0 -39 21 -67.5t56 -44
t79 -15.5q60 0 103 23t75 63l7 8q31 45 46 105t12 129l44 -3q2 -67 -14.5 -134.5t-55.5 -119.5l-9 -13q-35 -45 -87.5 -72t-123.5 -27z" />
    <glyph glyph-name="quotesingle" unicode="'" horiz-adv-x="194" 
d="M129 685l-14 -205h-40v205h54z" />
    <glyph glyph-name="parenleft" unicode="(" horiz-adv-x="305" 
d="M257 746l28 -29q-64 -56 -103 -122t-56.5 -143.5t-17.5 -168.5t17.5 -168.5t56.5 -143.5t103 -122l-28 -29q-101 86 -150.5 201t-49.5 262t49.5 262t150.5 201z" />
    <glyph glyph-name="parenright" unicode=")" horiz-adv-x="305" 
d="M48 -180l-28 29q63 56 102 122t57 143.5t18 168.5t-18 168.5t-57 143.5t-102 122l28 29q100 -86 149.5 -201t49.5 -262t-49.5 -262t-149.5 -201z" />
    <glyph glyph-name="asterisk" unicode="*" horiz-adv-x="543" 
d="M282 511l65 -75l74 -104l-33 -24l-76 102l-51 86l10 7zM261 511l10 -8l11 -7l-51 -86l-76 -102l-33 24l74 104zM62 593l121 -38l93 -39l-5 -13l-4 -11l-97 22l-120 40zM293 730v-127l-9 -100h-13h-12l-9 100v127h43zM481 593l12 -39l-120 -40l-97 -22l-5 11l-4 13l92 39z
" />
    <glyph glyph-name="plus" unicode="+" 
d="M326 555v-482h-47v482h47zM540 339v-46h-476v46h476z" />
    <glyph glyph-name="comma" unicode="," horiz-adv-x="220" 
d="M111 82q17 0 29.5 -9.5t19 -25.5t6.5 -38q0 -26 -9 -52t-28 -48t-49 -37l-28 25q25 9 42.5 26.5t27 38t8.5 39.5l-3 1q-3 -5 -8 -7.5t-15 -2.5q-9 0 -18 5.5t-15 15t-6 23.5q0 13 6.5 23.5t16.5 16.5t23 6z" />
    <glyph glyph-name="hyphen" unicode="-" horiz-adv-x="466" 
d="M387 291v-51h-307v51h307z" />
    <glyph glyph-name="period" unicode="." horiz-adv-x="220" 
d="M110 82q20 0 32.5 -12.5t12.5 -32.5t-12.5 -32.5t-32.5 -12.5t-32.5 12.5t-12.5 32.5t12.5 32.5t32.5 12.5z" />
    <glyph glyph-name="slash" unicode="/" horiz-adv-x="396" 
d="M364 730l-285 -800h-48l285 800h48z" />
    <glyph glyph-name="zero" unicode="0" horiz-adv-x="607" 
d="M304 -10q-113 0 -177 87.5t-64 252.5t64 252.5t177 87.5t176.5 -87.5t63.5 -252.5t-63.5 -252.5t-176.5 -87.5zM304 35q61 0 103 33.5t64 99.5t22 162t-22 162t-64 99.5t-103 33.5t-103.5 -33.5t-64.5 -99.5t-22 -162q0 -95 22 -161.5t64.5 -100t103.5 -33.5z" />
    <glyph glyph-name="one" unicode="1" horiz-adv-x="355" 
d="M208 0v523q0 17 0.5 34.5t0.5 35.5q-32 -40 -78 -68.5t-95 -41.5l-13 45q22 6 49 18.5t54.5 30.5t50.5 39t36 44h45v-660h-50z" />
    <glyph glyph-name="two" unicode="2" horiz-adv-x="560" 
d="M65 0v41q94 74 163 132t115 107.5t68 95t22 93.5q0 71 -43.5 113t-118.5 42q-78 0 -124.5 -49t-52.5 -131l-44 25q6 61 34 106t75.5 70t112.5 25q49 0 88.5 -14t67 -40.5t42.5 -63.5t15 -83q0 -67 -37.5 -130.5t-114.5 -133.5t-195 -159v-1q8 0 20.5 0.5t25 0.5h20.5h302
v-46h-441z" />
    <glyph glyph-name="three" unicode="3" horiz-adv-x="550" 
d="M277 -10q-88 0 -152 41.5t-84 112.5l49 26q10 -41 34.5 -71t63 -46.5t93.5 -16.5q50 0 86.5 18t57 51t20.5 78q0 43 -18 71t-51.5 42t-80.5 14q-16 0 -29.5 -0.5t-24.5 -2.5v50q10 -1 21.5 -1h21.5q73 0 109 35t36 101q0 63 -39 97.5t-108 34.5q-67 0 -109.5 -31
t-60.5 -84l-47 23q15 42 46 73t75 48.5t97 17.5q64 0 108 -22.5t67 -61.5t23 -90q0 -33 -9.5 -61t-26 -49.5t-39.5 -34.5t-51 -18v-1q33 -2 59 -14t44.5 -32t28.5 -47t10 -58q0 -57 -28 -100t-77.5 -67.5t-114.5 -24.5z" />
    <glyph glyph-name="four" unicode="4" horiz-adv-x="582" 
d="M369 0v188h-328v38v0v0l314 434h64v-429h127v-43h-127v-188h-50zM95 231h274v302q0 20 0.5 42t1.5 43h-2q-11 -21 -26.5 -44.5t-28.5 -42.5l-219 -300v0v0z" />
    <glyph glyph-name="five" unicode="5" horiz-adv-x="560" 
d="M281 -10q-86 0 -143.5 38t-80.5 117l48 24q15 -64 59 -98.5t118 -34.5q52 0 89.5 20.5t59 58t21.5 86.5q0 52 -20 88.5t-56.5 56.5t-86.5 20q-43 0 -75 -9.5t-55.5 -26t-39.5 -38.5l-43 7l35 361h365v-46h-323l-26 -256l-2 -13h1q24 28 65 47.5t105 19.5q63 0 109 -26
t72.5 -73t26.5 -110q0 -48 -16.5 -87.5t-46 -67.5t-70 -43t-90.5 -15z" />
    <glyph glyph-name="six" unicode="6" horiz-adv-x="578" 
d="M316 670q51 0 88 -15t63 -44t42 -71l-47 -22q-14 47 -50 76.5t-99 29.5q-53 0 -91.5 -25t-63.5 -68t-36.5 -98.5t-11.5 -116.5q0 -15 1 -32t3 -35h3q7 54 36.5 88.5t71 52t85.5 17.5q66 0 113.5 -25.5t73.5 -72.5t26 -111q0 -63 -27 -110t-75.5 -72.5t-115.5 -25.5
q-79 0 -133.5 41.5t-81.5 117.5t-27 181q0 112 33 187.5t90.5 114t129.5 38.5zM306 360q-50 0 -87.5 -22.5t-58 -59t-20.5 -80.5t21 -80.5t58 -58.5t85 -22q78 0 122.5 44t44.5 119q0 48 -20 84t-56.5 56t-88.5 20z" />
    <glyph glyph-name="seven" unicode="7" horiz-adv-x="530" 
d="M32 660h475v-46q-82 -87 -136 -183t-82 -202.5t-33 -228.5h-52q5 119 34.5 229t86.5 211t141 188l7 -14h-441v46z" />
    <glyph glyph-name="eight" unicode="8" horiz-adv-x="591" 
d="M295 669q62 0 108 -20.5t71.5 -58t25.5 -88.5q0 -57 -31 -97t-86 -57v-1q67 -17 106.5 -62.5t39.5 -110.5q0 -55 -29.5 -96.5t-81.5 -64.5t-123 -23q-69 0 -121.5 23t-82 64.5t-29.5 96.5q0 65 40 110.5t106 62.5v1q-54 17 -85.5 56.5t-31.5 97.5q0 51 25.5 88.5t71.5 58
t107 20.5zM295 623q-69 0 -110.5 -33.5t-41.5 -92.5q0 -58 42 -92.5t110 -34.5q70 0 111.5 34.5t41.5 92.5q0 59 -41 92.5t-112 33.5zM295 36q55 0 96 18t63.5 49.5t22.5 74.5q0 44 -22.5 76.5t-63.5 50.5t-96 18q-54 0 -95 -18t-63.5 -50.5t-22.5 -76.5q0 -43 22.5 -74.5
t63.5 -49.5t95 -18z" />
    <glyph glyph-name="nine" unicode="9" horiz-adv-x="593" 
d="M285 670q81 0 135.5 -42t82 -118t27.5 -180q0 -112 -29.5 -187.5t-84 -114t-130.5 -38.5q-82 0 -140 38.5t-80 106.5l49 25q15 -54 57.5 -89t114.5 -35q57 0 95.5 24.5t60.5 67t32 99t10 119.5q0 18 -2 35.5t-4 33.5h-3q-6 -56 -36.5 -92t-73 -53t-86.5 -17
q-65 0 -113.5 25t-75.5 71t-27 108q0 66 26.5 113t76.5 73.5t118 26.5zM286 623q-80 0 -125 -45t-45 -122q0 -71 46 -113.5t122 -42.5q50 0 88 22t59.5 59t21.5 83t-22 81.5t-59.5 56.5t-85.5 21z" />
    <glyph glyph-name="colon" unicode=":" horiz-adv-x="247" 
d="M124 505q20 0 32.5 -12.5t12.5 -32.5t-12.5 -32.5t-32.5 -12.5t-32.5 12.5t-12.5 32.5t12.5 32.5t32.5 12.5zM124 82q20 0 32.5 -12.5t12.5 -32.5t-12.5 -32.5t-32.5 -12.5t-32.5 12.5t-12.5 32.5t12.5 32.5t32.5 12.5z" />
    <glyph glyph-name="semicolon" unicode=";" horiz-adv-x="247" 
d="M123 82q17 0 29.5 -9.5t19 -25.5t6.5 -38q0 -26 -9 -52t-28 -48t-49 -37l-28 25q25 9 42.5 26.5t27 38t8.5 39.5l-3 1q-3 -5 -8 -7.5t-15 -2.5q-9 0 -18 5.5t-15 15t-6 23.5q0 13 6.5 23.5t16.5 16.5t23 6zM124 505q20 0 32.5 -12.5t12.5 -32.5t-12.5 -32.5t-32.5 -12.5
t-32.5 12.5t-12.5 32.5t12.5 32.5t32.5 12.5z" />
    <glyph glyph-name="less" unicode="&#x3c;" 
d="M540 42l-460 228v59l460 228v-52l-419 -204l419 -206v-53z" />
    <glyph glyph-name="equal" unicode="=" 
d="M529 432v-46h-454v46h454zM529 230v-46h-454v46h454z" />
    <glyph glyph-name="greater" unicode="&#x3e;" 
d="M64 557l460 -228v-59l-460 -228v52l419 204l-419 206v53z" />
    <glyph glyph-name="question" unicode="?" horiz-adv-x="510" 
d="M256 670q63 0 109.5 -22.5t72.5 -63t26 -93.5q0 -57 -23 -95.5t-66 -61t-104 -35.5v-118h-51v145q74 17 115.5 37t59 49t17.5 72q0 42 -18.5 73.5t-54 49t-87.5 17.5q-76 0 -120 -39.5t-53 -108.5l-44 24q10 52 38.5 90.5t74.5 59t108 20.5zM245 82q20 0 32 -12.5
t12 -32.5t-12 -32.5t-32 -12.5t-32.5 12.5t-12.5 32.5t12.5 32.5t32.5 12.5z" />
    <glyph glyph-name="at" unicode="@" horiz-adv-x="930" 
d="M479 -184q-93 0 -169.5 28.5t-131 82t-83.5 128.5t-29 168q0 101 32.5 180.5t91 136t135.5 86t166 29.5q95 0 166.5 -31t119.5 -84.5t72.5 -121.5t24.5 -142q0 -60 -15 -111.5t-41.5 -89t-61 -58t-72.5 -20.5q-51 0 -74.5 30.5t-18.5 74.5q-23 -43 -66 -70t-97 -27
t-93.5 26t-61 71t-21.5 102q0 56 17 104t47 84.5t71 56.5t90 20q45 0 79 -17.5t54.5 -50.5t24.5 -78l32 137h45l-77 -329q-2 -10 -3.5 -19.5t-1.5 -18.5q0 -35 19 -47.5t40 -12.5q39 0 72 30t53.5 85t20.5 127q0 69 -22.5 130.5t-66 109.5t-107 75t-146.5 27
q-81 0 -150.5 -26.5t-122 -77t-82 -124t-29.5 -166.5q0 -86 27 -154t76.5 -116t117.5 -73.5t149 -25.5q78 0 135.5 22t94.5 53l23 -32q-28 -23 -65 -41t-83.5 -29t-104.5 -11zM438 44q51 0 91 30t62.5 82t22.5 118q0 52 -17.5 86.5t-48 51.5t-69.5 17q-38 0 -71 -17t-58 -47
t-39 -70.5t-14 -89.5q0 -50 18 -86t50 -55.5t73 -19.5z" />
    <glyph glyph-name="A" unicode="A" horiz-adv-x="625" 
d="M606 0h-53l-83 207h-315l-83 -207h-53l264 660h59zM173 253h279l-140 358z" />
    <glyph glyph-name="B" unicode="B" horiz-adv-x="632" 
d="M104 0v660h233q109 0 162 -45.5t53 -129.5q0 -57 -31 -97.5t-90 -52.5v-1q64 -10 101.5 -52.5t37.5 -103.5q0 -84 -60 -131t-173 -47h-233zM154 46h193q85 0 127.5 34t42.5 98q0 65 -42.5 98.5t-127.5 33.5h-193v-264zM154 356h184q161 0 161 129t-161 129h-184v-258z
" />
    <glyph glyph-name="C" unicode="C" horiz-adv-x="669" 
d="M626 167q-19 -55 -56.5 -95t-90 -61t-117.5 -21q-90 0 -157.5 41.5t-105 117.5t-37.5 181t37 181t104.5 117.5t157.5 41.5q67 0 117.5 -18.5t85.5 -55t53 -89.5l-49 -23q-23 69 -73 104.5t-131 35.5q-74 0 -130.5 -35.5t-87.5 -101t-31 -157.5q0 -91 30.5 -157
t86.5 -101.5t130 -35.5q80 0 136 38.5t78 111.5z" />
    <glyph glyph-name="D" unicode="D" horiz-adv-x="703" 
d="M312 660q158 0 243.5 -83.5t85.5 -241.5q0 -163 -85.5 -249t-243.5 -86h-208v660h208zM316 46q132 0 202.5 75t70.5 214q0 134 -70.5 206.5t-202.5 72.5h-162v-568h162z" />
    <glyph glyph-name="E" unicode="E" horiz-adv-x="612" 
d="M104 0v660h451v-46h-401v-255h317v-47h-317v-266h417v-46h-467z" />
    <glyph glyph-name="F" unicode="F" horiz-adv-x="584" 
d="M554 614h-400v-255h317v-47h-317v-312h-50v660h450v-46z" />
    <glyph glyph-name="G" unicode="G" horiz-adv-x="702" 
d="M365 -10q-93 0 -161 41.5t-105 117.5t-37 181t38.5 181t107 117.5t158.5 41.5q101 0 163.5 -40t94.5 -122l-46 -24q-23 69 -76 104.5t-136 35.5q-74 0 -131 -35.5t-88.5 -101.5t-31.5 -157t29.5 -157t86 -101.5t136.5 -35.5q55 0 95.5 17.5t67 46t39.5 65t13 74.5v37
h-224v47h271v-323h-41l-2 143l9 -2q-24 -70 -82.5 -110.5t-147.5 -40.5z" />
    <glyph glyph-name="H" unicode="H" horiz-adv-x="716" 
d="M612 660v-660h-50v660h50zM154 660v-660h-50v660h50zM586 359v-47h-456v47h456z" />
    <glyph glyph-name="I" unicode="I" horiz-adv-x="258" 
d="M154 660v-660h-50v660h50z" />
    <glyph glyph-name="J" unicode="J" horiz-adv-x="534" 
d="M437 660v-442q0 -106 -54.5 -167t-155.5 -61q-70 0 -115.5 27.5t-64 76.5t-7.5 116l47 11q-12 -91 22.5 -138t116.5 -47q87 0 124 51t37 142v431h50z" />
    <glyph glyph-name="K" unicode="K" horiz-adv-x="610" 
d="M582 660l-276 -283l-8 -8l-170 -173v68l388 396h66zM154 660v-660h-50v660h50zM310 410l279 -410h-61l-258 380z" />
    <glyph glyph-name="L" unicode="L" horiz-adv-x="572" 
d="M154 46h396v-46h-446v660h50v-614z" />
    <glyph glyph-name="M" unicode="M" horiz-adv-x="822" 
d="M718 660v-660h-48v492l6 120h-1l-241 -612h-46l-241 612h-1l6 -120v-492h-48v660h75l199 -500l33 -101h1l32 100l199 501h75z" />
    <glyph glyph-name="N" unicode="N" horiz-adv-x="715" 
d="M611 660v-660h-62l-350 518l-49 85h-1l3 -80v-523h-48v660h63l349 -517l50 -86v0l-2 80v523h47z" />
    <glyph glyph-name="O" unicode="O" horiz-adv-x="732" 
d="M366 670q94 0 162 -41.5t105 -117.5t37 -181t-37 -181t-105 -117.5t-162 -41.5q-93 0 -161.5 41.5t-105.5 117.5t-37 181t37 181t105.5 117.5t161.5 41.5zM366 624q-77 0 -133.5 -35.5t-87 -101.5t-30.5 -157t30.5 -157t87 -101.5t133.5 -35.5q78 0 134 35.5t87 101.5
t31 157t-31 157t-87 101.5t-134 35.5z" />
    <glyph glyph-name="P" unicode="P" horiz-adv-x="587" 
d="M323 660q69 0 119 -23.5t77.5 -66.5t27.5 -103q0 -61 -27.5 -104t-77.5 -66.5t-119 -23.5h-169v-273h-50v660h219zM317 320q87 0 132 38.5t45 108.5t-45 108.5t-132 38.5h-163v-294h163z" />
    <glyph glyph-name="Q" unicode="Q" horiz-adv-x="732" 
d="M535 -195q-51 0 -94 21t-69.5 65.5t-26.5 114.5q0 6 0.5 12t0.5 12l45 -1q-1 -6 -1 -11v-10q0 -56 19.5 -90t53 -48.5t73.5 -14.5q33 0 62.5 9t48.5 28l18 -46q-22 -20 -57.5 -30.5t-72.5 -10.5zM366 670q94 0 162 -41.5t105 -117.5t37 -181t-37 -181t-105 -117.5
t-162 -41.5q-93 0 -161.5 41.5t-105.5 117.5t-37 181t37 181t105.5 117.5t161.5 41.5zM366 624q-77 0 -133.5 -35.5t-87 -101.5t-30.5 -157t30.5 -157t87 -101.5t133.5 -35.5q78 0 134 35.5t87 101.5t31 157t-31 157t-87 101.5t-134 35.5z" />
    <glyph glyph-name="R" unicode="R" horiz-adv-x="640" 
d="M349 660q99 0 157.5 -50t58.5 -137t-59 -135.5t-158 -48.5l-5 -3h-189v-286h-50v660h245zM348 333q80 0 122.5 36t42.5 104t-42.5 104.5t-122.5 36.5h-194v-281h194zM387 324l213 -324h-59l-196 296z" />
    <glyph glyph-name="S" unicode="S" horiz-adv-x="619" 
d="M308 670q91 0 153.5 -36t95.5 -110l-42 -32q-29 70 -81.5 101t-129.5 31q-59 0 -100 -18.5t-62 -49t-21 -68.5q0 -45 29.5 -75.5t110.5 -48.5l129 -28q97 -21 136.5 -60t39.5 -102q0 -54 -31.5 -96t-86.5 -65t-129 -23q-71 0 -126.5 19.5t-93.5 55t-56 85.5l44 34
q14 -47 46.5 -80.5t80.5 -50.5t107 -17q56 0 100 15.5t68.5 45.5t24.5 74q0 42 -29.5 71t-104.5 44l-136 30q-63 14 -102 37t-56.5 55.5t-17.5 73.5q0 51 29 93.5t83 68.5t128 26z" />
    <glyph glyph-name="T" unicode="T" horiz-adv-x="576" 
d="M554 660v-46h-241v-614h-50v614h-241v46h532z" />
    <glyph glyph-name="U" unicode="U" horiz-adv-x="687" 
d="M598 660v-419q0 -123 -66.5 -187t-187.5 -64t-188 64t-67 187v419h50v-409q0 -106 52.5 -160.5t152.5 -54.5t152 54.5t52 160.5v409h50z" />
    <glyph glyph-name="V" unicode="V" horiz-adv-x="614" 
d="M591 660l-254 -660h-59l-255 660h54l195 -511l35 -102l35 102l196 511h53z" />
    <glyph glyph-name="W" unicode="W" horiz-adv-x="937" 
d="M236 0l-206 660h52l186 -614l172 614h58l173 -615l186 615h50l-206 -660h-62l-133 463l-37 143h-1l-37 -143l-133 -463h-62z" />
    <glyph glyph-name="X" unicode="X" horiz-adv-x="566" 
d="M541 0h-58l-201 297l-204 -297h-59l236 339l-216 321h60l187 -279l190 279h57l-220 -320z" />
    <glyph glyph-name="Y" unicode="Y" horiz-adv-x="544" 
d="M531 660l-234 -403v-257h-50v257l-234 403h59l129 -226l71 -125l71 125l129 226h59z" />
    <glyph glyph-name="Z" unicode="Z" horiz-adv-x="593" 
d="M88 28l-9 18h474v-46h-510v44l449 588l9 -18h-449v46h485v-44z" />
    <glyph glyph-name="bracketleft" unicode="[" horiz-adv-x="311" 
d="M288 686h-159v-810h159v-44h-206v898h206v-44z" />
    <glyph glyph-name="backslash" unicode="\" horiz-adv-x="396" 
d="M32 730h48l284 -800h-47z" />
    <glyph glyph-name="bracketright" unicode="]" horiz-adv-x="311" 
d="M23 -124h159v810h-159v44h206v-898h-206v44z" />
    <glyph glyph-name="asciicircum" unicode="^" horiz-adv-x="547" 
d="M32 355l217 375h49l218 -375h-52l-190 331l-190 -331h-52z" />
    <glyph glyph-name="underscore" unicode="_" horiz-adv-x="520" 
d="M520 -97v-46h-520v46h520z" />
    <glyph glyph-name="grave" unicode="`" horiz-adv-x="523" 
d="M249 741l80 -158h-41l-93 158h54z" />
    <glyph glyph-name="a" unicode="a" horiz-adv-x="543" 
d="M395 329q0 65 -35 101t-100 36q-57 0 -98 -24.5t-61 -81.5l-41 26q22 59 73.5 91.5t127.5 32.5q55 0 96.5 -19.5t64.5 -57.5t23 -95v-250q0 -53 48 -53q21 0 36 7l-3 -40q-17 -9 -44 -9q-23 0 -43 9t-32.5 30t-12.5 57v27l14 1q-9 -43 -39.5 -71.5t-70.5 -42t-80 -13.5
q-47 0 -84 15t-58 43.5t-21 70.5q0 56 37.5 90.5t105.5 47.5l207 41v-42l-182 -36q-59 -12 -88 -35t-29 -62q0 -42 31 -65.5t88 -23.5q29 0 59 8t55.5 25.5t40.5 44t15 64.5v153z" />
    <glyph glyph-name="b" unicode="b" horiz-adv-x="607" 
d="M324 -10q-46 0 -85.5 17t-67 49t-40.5 75l7 8l-4 -139h-45v730h50v-364l-6 9q20 62 71.5 98.5t119.5 36.5q66 0 117 -31t81 -89t30 -140q0 -81 -30 -139.5t-81.5 -89.5t-116.5 -31zM318 34q85 0 134.5 58t49.5 158t-49 158t-134 58q-52 0 -93 -26.5t-64 -75.5t-23 -115
q0 -65 23 -114t63.5 -75t92.5 -26z" />
    <glyph glyph-name="c" unicode="c" horiz-adv-x="543" 
d="M291 510q51 0 91 -16t68 -46t43 -73l-47 -22q-16 54 -55.5 83.5t-100.5 29.5q-55 0 -97 -25.5t-65 -74t-23 -116.5q0 -67 23 -116t64 -74.5t97 -25.5q42 0 76.5 14t57 41t29.5 64l46 -16q-13 -46 -42.5 -79t-71.5 -50.5t-94 -17.5q-68 0 -121.5 31t-83.5 89.5t-30 139.5
t30.5 139.5t84 89.5t121.5 31z" />
    <glyph glyph-name="d" unicode="d" horiz-adv-x="607" 
d="M284 -10q-65 0 -117 31t-81.5 89.5t-29.5 139.5q0 83 31 141t84 88.5t118 30.5q69 0 118.5 -37t66.5 -102l-6 -5v364h50v-730h-45l-3 139l6 2q-9 -48 -36.5 -82t-68 -51.5t-87.5 -17.5zM290 34q53 0 93 26.5t62.5 76.5t22.5 117q0 66 -22.5 113.5t-62 73t-91.5 25.5
q-86 0 -136 -58t-50 -158t49.5 -158t134.5 -58z" />
    <glyph glyph-name="e" unicode="e" horiz-adv-x="557" 
d="M293 -10q-69 0 -123 31t-84.5 89.5t-30.5 139.5t30.5 139.5t83 89.5t118.5 31q68 0 116 -30t74 -83.5t26 -123.5q0 -9 -0.5 -17.5t-1.5 -15.5h-415v45h393l-25 -7q-1 86 -45.5 137t-122.5 51q-54 0 -95 -25.5t-64 -74t-23 -116.5q0 -67 23.5 -116t66 -74.5t98.5 -25.5
q58 0 99.5 25t64.5 69l40 -23q-18 -36 -48 -61.5t-69 -39.5t-86 -14z" />
    <glyph glyph-name="f" unicode="f" horiz-adv-x="359" 
d="M272 735q28 0 48.5 -7t32.5 -20l-14 -40q-13 12 -28 17t-35 5q-49 0 -76 -28t-27 -83v-79v-18v-482h-50v584q0 34 9.5 62t28.5 47.5t47 30.5t64 11zM349 500v-43h-326v43h326z" />
    <glyph glyph-name="g" unicode="g" horiz-adv-x="515" 
d="M503 592l12 -44h-2h-3q-49 0 -75.5 -25.5t-26.5 -71.5l-32 16q0 38 16 66t44 43.5t63 15.5h2.5h1.5zM345 51q74 0 116 -31t42 -83q0 -46 -30.5 -80t-83.5 -53t-121 -19q-113 0 -173 38.5t-60 96.5q0 42 30.5 73t89.5 37l-4 -9q-32 9 -56.5 30t-24.5 60q0 42 31.5 68.5
t83.5 30.5l53 -18h-21q-46 -3 -73.5 -22.5t-27.5 -50.5q0 -34 26.5 -51t67.5 -17h135zM268 -173q59 0 101 14t64.5 37.5t22.5 52.5q0 35 -30.5 56t-92.5 21h-142q-47 0 -78 -22t-31 -59q0 -45 49.5 -72.5t136.5 -27.5zM261 510q59 0 104.5 -20.5t70.5 -57t25 -85.5
q0 -48 -25 -85.5t-70.5 -58t-104.5 -20.5q-95 0 -148.5 45.5t-53.5 118.5q0 49 25.5 85.5t71 57t105.5 20.5zM261 469q-66 0 -108 -33.5t-42 -88.5t42 -89t108 -34t107.5 34t41.5 89t-41.5 88.5t-107.5 33.5z" />
    <glyph glyph-name="h" unicode="h" horiz-adv-x="598" 
d="M89 0v730h50v-332q22 53 71 82.5t113 29.5q56 0 99 -20.5t67.5 -62t24.5 -102.5v-325h-50v309q0 81 -40.5 119.5t-105.5 38.5q-47 0 -87.5 -22t-66 -63t-25.5 -100v-282h-50z" />
    <glyph glyph-name="i" unicode="i" horiz-adv-x="229" 
d="M114 597q-19 0 -30.5 11.5t-11.5 30.5t11.5 30.5t30.5 11.5t30.5 -11.5t11.5 -30.5t-11.5 -30.5t-30.5 -11.5zM139 500v-500h-50v500h50z" />
    <glyph glyph-name="j" unicode="j" horiz-adv-x="229" 
d="M114 597q-19 0 -30.5 11.5t-11.5 30.5t11.5 30.5t30.5 11.5t30.5 -11.5t11.5 -30.5t-11.5 -30.5t-30.5 -11.5zM139 500v-557q0 -55 -20.5 -90t-53 -51.5t-68.5 -16.5q-27 0 -49.5 8t-37.5 20l12 47q13 -12 32.5 -19.5t41.5 -7.5q42 0 67.5 28.5t25.5 85.5v553h50z" />
    <glyph glyph-name="k" unicode="k" horiz-adv-x="527" 
d="M501 500l-220 -212l-12 -12l-155 -150v64l322 310h65zM139 730v-730h-50v730h50zM284 314l225 -314h-61l-205 285z" />
    <glyph glyph-name="l" unicode="l" horiz-adv-x="274" 
d="M135 730v-612q0 -46 16 -65t50 -19q21 0 33.5 3t29.5 10l-7 -44q-13 -6 -29.5 -9.5t-36.5 -3.5q-53 0 -79.5 30.5t-26.5 95.5v614h50z" />
    <glyph glyph-name="m" unicode="m" horiz-adv-x="960" 
d="M89 0v500h45l3 -104q22 54 71.5 84t110.5 30q65 0 112.5 -31t65.5 -91q13 38 42 65.5t68 42.5t81 15q52 0 94.5 -20.5t68 -62t25.5 -103.5v-324h-50v319q0 74 -39.5 110.5t-104.5 36.5q-47 0 -87 -22.5t-63.5 -63t-23.5 -93.5v-288h-50v319q0 74 -40 110.5t-104 36.5
q-45 0 -85 -22t-65 -63t-25 -98v-283h-50z" />
    <glyph glyph-name="n" unicode="n" horiz-adv-x="598" 
d="M89 0v500h45l4 -125l-8 7q14 41 42 70t67 43.5t84 14.5q56 0 99 -21t67.5 -62t24.5 -103v-324h-50v308q0 82 -40.5 120t-105.5 38q-47 0 -87.5 -21.5t-66 -62.5t-25.5 -100v-282h-50z" />
    <glyph glyph-name="o" unicode="o" horiz-adv-x="585" 
d="M293 510q70 0 123.5 -31t84 -89.5t30.5 -139.5t-30.5 -139.5t-84 -89.5t-123.5 -31t-123.5 31t-84 89.5t-30.5 139.5t30.5 139.5t84 89.5t123.5 31zM293 467q-57 0 -99 -26t-65.5 -74.5t-23.5 -116.5q0 -67 23.5 -116t65.5 -75t99 -26t99 26t65.5 75t23.5 116
q0 68 -23.5 116.5t-65.5 74.5t-99 26z" />
    <glyph glyph-name="p" unicode="p" horiz-adv-x="607" 
d="M89 -210v710h45l4 -139l-7 8q13 43 40.5 75t67.5 49t87 17q64 0 115 -31t81 -89t30 -140q0 -81 -30 -139.5t-81.5 -89.5t-116.5 -31q-69 0 -120 36.5t-71 98.5l6 9v-344h-50zM318 34q85 0 134.5 58t49.5 158t-49 158t-133 58q-53 0 -93.5 -26.5t-64 -75t-23.5 -114.5
q0 -65 23 -114t63.5 -75.5t92.5 -26.5z" />
    <glyph glyph-name="q" unicode="q" horiz-adv-x="607" 
d="M468 -210v356l8 -6q-9 -48 -37 -81.5t-68 -51t-87 -17.5q-65 0 -117 31t-81.5 89.5t-29.5 139.5q0 83 31 141t84 88.5t118 30.5q46 0 85 -17.5t66 -50t37 -78.5l-7 -1l3 137h45v-710h-50zM290 34q53 0 92.5 26.5t62.5 75.5t23 116t-22.5 115t-62.5 73.5t-92 25.5
q-85 0 -135 -58t-50 -158t49.5 -158t134.5 -58z" />
    <glyph glyph-name="r" unicode="r" horiz-adv-x="378" 
d="M89 0v500h42l6 -104q19 52 61 83t101 31q20 0 36 -4t27 -13l-12 -44q-11 7 -24 11t-39 4q-38 0 -72 -23.5t-55 -65t-21 -95.5v-280h-50z" />
    <glyph glyph-name="s" unicode="s" horiz-adv-x="505" 
d="M258 -10q-76 0 -134.5 31t-82.5 89l43 29q18 -50 64.5 -77.5t113.5 -27.5q66 0 103.5 26t37.5 69q0 29 -18.5 50.5t-69.5 32.5l-117 25q-71 15 -102 48.5t-31 81.5q0 40 24 72t66.5 51.5t99.5 19.5q75 0 124 -29.5t69 -88.5l-42 -27q-15 53 -55.5 77t-95.5 24
q-42 0 -73.5 -12.5t-49 -34t-17.5 -49.5q0 -29 20 -52.5t71 -34.5l120 -26q71 -15 99 -45.5t28 -75.5q0 -44 -24 -77.5t-68 -51t-103 -17.5z" />
    <glyph glyph-name="t" unicode="t" horiz-adv-x="377" 
d="M172 639v-507q0 -47 22.5 -71.5t65.5 -24.5q28 0 49.5 9.5t38.5 27.5l19 -41q-19 -19 -48 -30.5t-65 -11.5q-39 0 -69 14.5t-46.5 44.5t-16.5 76v500zM359 500v-43h-337v43h337z" />
    <glyph glyph-name="u" unicode="u" horiz-adv-x="592" 
d="M265 -10q-52 0 -93 19t-64.5 59.5t-23.5 101.5v330h50v-318q0 -78 37.5 -113t105.5 -35q40 0 72.5 14t55.5 39t35.5 57.5t12.5 68.5v287h50v-500h-45l-2 103q-22 -53 -72 -83t-119 -30z" />
    <glyph glyph-name="v" unicode="v" horiz-adv-x="502" 
d="M432 500h53l-209 -500h-50l-209 500h56l179 -448z" />
    <glyph glyph-name="w" unicode="w" horiz-adv-x="809" 
d="M726 500h55l-170 -500h-50l-158 435l-155 -435h-50l-170 500h55l141 -440l155 440h51l156 -440z" />
    <glyph glyph-name="x" unicode="x" horiz-adv-x="504" 
d="M98 500l167 -217l5 -6l212 -277h-63l-179 233l-7 8l-199 259h64zM467 500l-194 -255l-6 -4l-183 -241h-60l214 277l4 2l165 221h60z" />
    <glyph glyph-name="y" unicode="y" horiz-adv-x="500" 
d="M483 500l-242 -592q-18 -46 -39 -73t-47 -38.5t-60 -11.5q-30 0 -54.5 9t-41.5 25l16 43q15 -18 36 -25.5t43 -7.5q32 0 57 18.5t47 72.5l33 80l-53 124l-158 376h57l153 -379l25 -67l27 72l147 374h54z" />
    <glyph glyph-name="z" unicode="z" horiz-adv-x="505" 
d="M49 0v39l294 361l52 58l-79 -1h-270v43h405v-39l-285 -352l-60 -67l90 1h267v-43h-414z" />
    <glyph glyph-name="braceleft" unicode="{" horiz-adv-x="308" 
d="M274 -180q-49 0 -80.5 14t-46.5 40.5t-15 63.5v224q0 51 -28 75t-85 24v44q57 0 85 24.5t28 74.5v223q0 38 15 64.5t46.5 40.5t80.5 14v-41q-49 0 -72 -19t-23 -55v-231q0 -46 -25 -76t-72 -41q47 -11 72 -41t25 -76v-231q0 -36 23 -55t72 -19v-41z" />
    <glyph glyph-name="bar" unicode="|" horiz-adv-x="207" 
d="M126 730v-898h-44v898h44z" />
    <glyph glyph-name="braceright" unicode="}" horiz-adv-x="308" 
d="M34 746q49 0 80.5 -14t46.5 -40.5t15 -64.5v-223q0 -51 28 -75.5t85 -24.5v-43q-57 0 -85 -24.5t-28 -74.5v-224q0 -37 -15 -63.5t-46.5 -40.5t-80.5 -14v41q48 0 71.5 19t23.5 55v230q0 47 25.5 76.5t71.5 40.5q-46 12 -71.5 41.5t-25.5 76.5v231q0 36 -23.5 55
t-71.5 19v41z" />
    <glyph glyph-name="asciitilde" unicode="~" horiz-adv-x="511" 
d="M468 389q-6 -61 -34.5 -92t-78.5 -31q-34 0 -59 11t-45.5 26t-41.5 26t-48 11q-30 0 -47 -20t-23 -57h-48q6 61 34.5 92t79.5 31q33 0 58 -11t46 -26t42 -26t48 -11q30 0 46.5 20t23.5 57h47z" />
    <glyph glyph-name="uni00A0" unicode="&#xa0;" horiz-adv-x="313" 
 />
    <glyph glyph-name="exclamdown" unicode="&#xa1;" horiz-adv-x="222" 
d="M85 -160v320l6 150h40l6 -150v-320h-52zM111 418q-20 0 -32.5 12.5t-12.5 32.5t12.5 32.5t32.5 12.5t32.5 -12.5t12.5 -32.5t-12.5 -32.5t-32.5 -12.5z" />
    <glyph glyph-name="cent" unicode="&#xa2;" horiz-adv-x="553" 
d="M297 -10q-71 0 -124 31t-82.5 89.5t-29.5 139.5t30 139.5t83 89.5t125 31q51 0 90.5 -16t67.5 -46t43 -73l-47 -22q-16 56 -56 86t-99 30q-86 0 -137.5 -58t-51.5 -161q0 -69 23 -118t65 -75t99 -26q42 0 75.5 14.5t56.5 42t32 65.5l45 -15q-13 -46 -42 -79t-71.5 -51
t-94.5 -18zM270 -100v700h42v-700h-42z" />
    <glyph glyph-name="sterling" unicode="&#xa3;" horiz-adv-x="598" 
d="M87 290v41h371v-41h-371zM145 -7q-48 0 -75 21.5t-27 54.5q0 23 13 41t37 28.5t58 10.5q40 0 68.5 -11.5t51.5 -28.5t45.5 -35t49 -29.5t62.5 -11.5q45 0 68 26t24 79h41q0 -49 -16 -81t-44.5 -48t-67.5 -16t-69.5 11.5t-56.5 29t-50 35.5t-50 30t-59 12q-27 0 -43 -11
t-16 -31q0 -19 16.5 -30t44.5 -11q42 0 65 17.5t32 46.5t9 62q0 40 -14 77t-43 87q-20 35 -32.5 61.5t-17.5 51t-5 50.5q0 58 26 100.5t71.5 65.5t103.5 23q76 0 123.5 -39t62.5 -112l-43 -23q-11 60 -47 94.5t-97 34.5q-71 0 -112.5 -38t-41.5 -106q0 -23 4.5 -43.5
t14.5 -43.5t28 -58q29 -52 44 -95.5t15 -82.5q0 -32 -8 -61.5t-26.5 -53t-47 -37t-69.5 -13.5z" />
    <glyph glyph-name="currency" unicode="&#xa4;" horiz-adv-x="635" 
d="M318 528q57 0 101 -25t68.5 -69t24.5 -103t-24.5 -103.5t-68.5 -70t-101 -25.5q-58 0 -101.5 25.5t-68.5 70t-25 103.5t25 103t68.5 69t101.5 25zM318 483q-64 0 -104.5 -42t-40.5 -110q0 -70 40.5 -112t104.5 -42t104 42t40 112q0 68 -40 110t-104 42zM99 581l113 -113
l-33 -31l-113 111zM179 224l32 -32l-112 -114l-33 32zM455 223l114 -113l-32 -32l-114 112zM537 581l32 -33l-112 -113l-32 33z" />
    <glyph glyph-name="yen" unicode="&#xa5;" horiz-adv-x="596" 
d="M275 0v119h-198v36h198v91h-198v38h145l41 -2l-224 378h58l168 -299l32 -64h2l32 64l168 299h58l-224 -378l41 2h146v-38h-200v-91h200v-36h-200v-119h-45z" />
    <glyph glyph-name="brokenbar" unicode="&#xa6;" horiz-adv-x="207" 
d="M126 730v-364h-44v364h44zM126 196v-364h-44v364h44z" />
    <glyph glyph-name="section" unicode="&#xa7;" horiz-adv-x="569" 
d="M383 138l-29 21q38 3 68.5 15t49 33.5t18.5 51.5q0 38 -25 61t-92 36l-121 24q-57 11 -91 29.5t-49 46t-15 63.5q0 43 24 77t68.5 54t105.5 20q69 0 119 -23t76 -69l-39 -30q-21 42 -61.5 60.5t-95.5 18.5q-71 0 -110 -29.5t-39 -74.5q0 -27 10 -46t35.5 -32t69.5 -22
l119 -22q59 -10 93.5 -28t50 -43.5t15.5 -60.5q0 -34 -18.5 -62t-53 -46t-83.5 -23zM278 -110q-77 0 -128 25.5t-74 68.5l39 31q18 -40 59.5 -61.5t106.5 -21.5q73 0 112.5 30t39.5 78q0 38 -25 60.5t-79 32.5l-128 25q-59 12 -94.5 30t-51.5 44t-16 63q0 34 19 60t51 42.5
t73 21.5l22 -18q-31 -6 -57.5 -18t-43 -32t-16.5 -49q0 -37 28 -61.5t100 -39.5l123 -23q74 -14 108 -47.5t34 -87.5q0 -42 -23.5 -77t-68.5 -55.5t-110 -20.5z" />
    <glyph glyph-name="dieresis" unicode="&#xa8;" horiz-adv-x="523" 
d="M167 671q18 0 29 -11t11 -30q0 -18 -11 -29t-29 -11t-29.5 11t-11.5 29q0 19 11.5 30t29.5 11zM356 671q19 0 30 -11t11 -30q0 -18 -11 -29t-30 -11q-18 0 -29 11t-11 29q0 19 11 30t29 11z" />
    <glyph glyph-name="copyright" unicode="&#xa9;" horiz-adv-x="803" 
d="M402 -10q-101 0 -177 45t-118.5 122t-42.5 173q0 97 42.5 173.5t118.5 121.5t177 45t176.5 -45t118 -121.5t42.5 -173.5q0 -96 -42.5 -173t-118 -122t-176.5 -45zM402 31q87 0 152.5 39.5t102.5 107.5t37 152q0 85 -37 152.5t-102.5 107t-153.5 39.5q-86 0 -152 -39.5
t-103 -107t-37 -152.5q0 -84 37 -152t103 -107.5t153 -39.5zM411 143q-85 0 -133.5 49.5t-48.5 135.5t48.5 135.5t133.5 49.5q58 0 96.5 -25.5t56.5 -71.5l-38 -19q-13 39 -42 58.5t-74 19.5q-64 0 -101 -39t-37 -108t37 -108t101 -39q46 0 78 22t44 62l36 -15
q-16 -49 -57 -78t-100 -29z" />
    <glyph glyph-name="ordfeminine" unicode="&#xaa;" horiz-adv-x="379" 
d="M145 327q-49 0 -78 23.5t-29 62.5t25 61.5t83 32.5l124 22v-30l-109 -21q-44 -8 -61.5 -22.5t-17.5 -40.5q0 -24 18.5 -38.5t49.5 -14.5q24 0 50.5 8.5t44.5 29.5t18 57v93q0 37 -22 58.5t-61 21.5q-38 0 -65.5 -16t-42.5 -52l-32 18q13 38 48.5 61.5t89.5 23.5
q60 0 94.5 -28.5t34.5 -84.5v-156q0 -20 8.5 -28.5t23.5 -8.5q16 0 24 5l-3 -30q-6 -3 -14 -5t-18 -2q-25 0 -42.5 15t-17.5 50v22l9 -3q-9 -27 -29.5 -46t-47 -28.5t-55.5 -9.5zM38 211v35h309v-35h-309z" />
    <glyph glyph-name="guillemotleft" unicode="&#xab;" horiz-adv-x="440" 
d="M239 461l-136 -196l136 -196h-56l-134 196l134 196h56zM388 461l-136 -196l136 -196h-56l-134 196l134 196h56z" />
    <glyph glyph-name="logicalnot" unicode="&#xac;" 
d="M537 318v-166h-50v166h50zM537 339v-46h-470v46h470z" />
    <glyph glyph-name="uni00AD" unicode="&#xad;" horiz-adv-x="466" 
d="M387 291v-51h-307v51h307z" />
    <glyph glyph-name="registered" unicode="&#xae;" horiz-adv-x="803" 
d="M402 -10q-101 0 -177 45t-118.5 122t-42.5 173q0 97 42.5 173.5t118.5 121.5t177 45t176.5 -44.5t118 -121.5t42.5 -174q0 -96 -42.5 -173t-118 -122t-176.5 -45zM514 143l-106 161l36 15l118 -176h-48zM402 31q87 0 153 39.5t102.5 107.5t36.5 152q0 85 -37 152.5
t-102.5 107t-152.5 39.5t-153 -39.5t-103 -107t-37 -152.5q0 -84 37 -152t103 -107.5t153 -39.5zM272 143v370h153q41 0 70 -13t44.5 -37t15.5 -60q0 -52 -34.5 -81t-95.5 -29h-110v-150h-43zM315 326h110q43 0 65.5 19.5t22.5 57.5q0 39 -22.5 57.5t-65.5 18.5h-110v-153z
" />
    <glyph glyph-name="macron" unicode="&#xaf;" horiz-adv-x="523" 
d="M417 642v-42h-310v42h310z" />
    <glyph glyph-name="degree" unicode="&#xb0;" horiz-adv-x="418" 
d="M209 368q-45 0 -79.5 19.5t-54 53.5t-19.5 78t19.5 78.5t54 53.5t79.5 19q46 0 80 -19t53.5 -53.5t19.5 -78.5t-19.5 -78t-53.5 -53.5t-80 -19.5zM209 409q49 0 78.5 31t29.5 79t-29.5 79t-78.5 31q-48 0 -78.5 -31t-30.5 -79t30.5 -79t78.5 -31z" />
    <glyph glyph-name="plusminus" unicode="&#xb1;" 
d="M326 632v-500h-47v500h47zM537 406v-47h-470v47h470zM537 46v-46h-470v46h470z" />
    <glyph glyph-name="uni00B2" unicode="&#xb2;" horiz-adv-x="358" 
d="M43 333v33q26 20 51.5 40t50.5 41q40 32 66.5 59t39.5 52t13 52q0 39 -23.5 63.5t-67.5 24.5t-70 -27.5t-29 -74.5l-40 13q4 57 41.5 91.5t99.5 34.5q44 0 74 -16.5t46 -44t16 -62.5q0 -31 -17 -62t-47 -61.5t-71 -60.5q-18 -15 -36.5 -29.5t-38.5 -29.5v-1q8 1 23 1.5
t24 0.5h175v-37h-280z" />
    <glyph glyph-name="uni00B3" unicode="&#xb3;" horiz-adv-x="345" 
d="M167 735q61 0 94.5 -30t33.5 -77q0 -27 -10.5 -47t-28 -32t-38.5 -16v-1q23 -1 42.5 -13t31.5 -32t12 -48q0 -34 -18 -59t-49 -39t-71 -14q-57 0 -92.5 24t-49.5 70l42 19q7 -36 31.5 -56t68.5 -20q41 0 66.5 21t25.5 59q0 39 -26 55.5t-70 16.5h-8t-10 -1v34
q6 -1 9.5 -1h7.5q39 0 63 19t24 56q0 35 -21.5 55t-60.5 20q-36 0 -59 -17.5t-30 -48.5l-41 15q12 43 47.5 65.5t83.5 22.5z" />
    <glyph glyph-name="acute" unicode="&#xb4;" horiz-adv-x="600" 
d="M313 741h55l-94 -158h-41z" />
    <glyph glyph-name="uni00B5" unicode="&#xb5;" horiz-adv-x="598" 
d="M89 -210v710h50v-318q0 -74 39 -111t104 -37q50 0 89.5 22t63 63.5t23.5 99.5v281h50v-500h-42l-3 105q-22 -52 -71 -83.5t-113 -31.5q-46 0 -83 19t-57 57v0v-276h-50z" />
    <glyph glyph-name="paragraph" unicode="&#xb6;" horiz-adv-x="591" 
d="M280 -100v321q-73 0 -128 27.5t-85.5 77t-30.5 114.5q0 66 31.5 115.5t88.5 77t133 27.5h216v-760h-45v718h-134v-718h-46zM280 263v355q-61 0 -105 -22t-67.5 -62t-23.5 -94t23.5 -94t67.5 -61.5t105 -21.5z" />
    <glyph glyph-name="periodcentered" unicode="&#xb7;" horiz-adv-x="210" 
d="M105 402q20 0 32.5 -12.5t12.5 -32.5t-12.5 -32.5t-32.5 -12.5t-32.5 12.5t-12.5 32.5t12.5 32.5t32.5 12.5z" />
    <glyph glyph-name="cedilla" unicode="&#xb8;" horiz-adv-x="547" 
d="M240 4l32 13q56 -22 78.5 -52.5t22.5 -70.5q0 -44 -29.5 -73.5t-75.5 -29.5q-31 0 -54 9t-41 26l14 37q17 -15 35 -23.5t41 -8.5q30 0 49 19t19 53q0 29 -19.5 51.5t-71.5 49.5z" />
    <glyph glyph-name="uni00B9" unicode="&#xb9;" horiz-adv-x="229" 
d="M130 730h39v-397h-45v279q0 15 0.5 33t1.5 35q-20 -23 -50 -40t-61 -26v38q18 5 41 17t43.5 28t30.5 33z" />
    <glyph glyph-name="ordmasculine" unicode="&#xba;" horiz-adv-x="362" 
d="M181 327q-71 0 -110 43t-39 126q0 84 39 126.5t110 42.5t110 -42.5t39 -126.5q0 -83 -39 -126t-110 -43zM42 211v35h278v-35h-278zM181 363q53 0 78.5 33.5t25.5 99.5t-25.5 100t-78.5 34t-78.5 -34t-25.5 -100t25.5 -99.5t78.5 -33.5z" />
    <glyph glyph-name="guillemotright" unicode="&#xbb;" horiz-adv-x="440" 
d="M200 69l136 196l-136 196h56l135 -196l-135 -196h-56zM51 69l136 196l-136 196h56l135 -196l-135 -196h-56z" />
    <glyph glyph-name="onequarter" unicode="&#xbc;" horiz-adv-x="735" 
d="M130 665h39v-397h-45v279q0 15 0.5 33t1.5 35q-20 -23 -50 -40t-61 -26v38q18 5 41 17t43.5 28t30.5 33zM81 0l471 660h51l-471 -660h-51zM711 138v-33h-76v-109h-39v109h-198v26l186 262h51v-255h76zM442 138h154v157q0 15 0.5 30t1.5 30h-2q-7 -11 -15.5 -25t-16.5 -25
z" />
    <glyph glyph-name="onehalf" unicode="&#xbd;" horiz-adv-x="813" 
d="M130 665h39v-397h-45v279q0 15 0.5 33t1.5 35q-20 -23 -50 -40t-61 -26v38q18 5 41 17t43.5 28t30.5 33zM81 0l471 660h51l-471 -660h-51zM498 -4v33q26 20 51.5 40t50.5 41q40 32 66.5 59t39.5 52t13 52q0 39 -23.5 63.5t-67.5 24.5t-70 -27.5t-29 -74.5l-40 13
q4 57 41.5 91.5t99.5 34.5q44 0 74 -16.5t46 -44t16 -62.5q0 -31 -17 -62t-47 -61.5t-71 -60.5q-18 -15 -36.5 -29.5t-38.5 -29.5v-1q8 1 23 1.5t24 0.5h175v-37h-280z" />
    <glyph glyph-name="threequarters" unicode="&#xbe;" horiz-adv-x="851" 
d="M167 670q61 0 94.5 -30t33.5 -77q0 -27 -10.5 -47t-28 -32t-38.5 -16v-1q23 -1 42.5 -13t31.5 -32t12 -48q0 -34 -18 -59t-49 -39t-71 -14q-57 0 -92.5 24t-49.5 70l42 19q7 -36 31.5 -56t68.5 -20q41 0 66.5 21t25.5 59q0 39 -26 55.5t-70 16.5h-8t-10 -1v34
q6 -1 9.5 -1h7.5q39 0 63 19t24 56q0 35 -21.5 55t-60.5 20q-36 0 -59 -17.5t-30 -48.5l-41 15q12 43 47.5 65.5t83.5 22.5zM197 0l471 660h51l-471 -660h-51zM828 138v-33h-76v-109h-39v109h-198v26l186 262h51v-255h76zM559 138h154v157q0 15 0.5 30t1.5 30h-2
q-7 -11 -15.5 -25t-16.5 -25z" />
    <glyph glyph-name="questiondown" unicode="&#xbf;" horiz-adv-x="505" 
d="M251 -172q-62 0 -109 22t-73 62.5t-26 94.5q0 57 23.5 95t66.5 61.5t103 35.5v118h52v-145q-74 -17 -116 -37t-59.5 -48.5t-17.5 -73.5q0 -41 18.5 -72.5t54.5 -49t87 -17.5q76 0 120.5 39.5t52.5 108.5l44 -25q-9 -52 -38 -90t-74.5 -58.5t-108.5 -20.5zM263 416
q-21 0 -33 12t-12 32q0 21 12 33t33 12q20 0 32 -12t12 -33q0 -20 -12 -32t-32 -12z" />
    <glyph glyph-name="Agrave" unicode="&#xc0;" horiz-adv-x="625" 
d="M606 0h-53l-83 207h-315l-83 -207h-53l264 660h59zM173 253h279l-140 358zM266 897l70 -154h-41l-82 154h53z" />
    <glyph glyph-name="Aacute" unicode="&#xc1;" horiz-adv-x="625" 
d="M606 0h-53l-83 207h-315l-83 -207h-53l264 660h59zM173 253h279l-140 358zM358 897h53l-83 -154h-41z" />
    <glyph glyph-name="Acircumflex" unicode="&#xc2;" horiz-adv-x="625" 
d="M606 0h-53l-83 207h-315l-83 -207h-53l264 660h59zM173 253h279l-140 358zM451 743h-48l-90 117l-90 -117h-48l110 151h56z" />
    <glyph glyph-name="Atilde" unicode="&#xc3;" horiz-adv-x="625" 
d="M606 0h-53l-83 207h-315l-83 -207h-53l264 660h59zM173 253h279l-140 358zM483 861q-4 -36 -16.5 -61t-32.5 -37t-49 -12q-27 0 -46 10.5t-34 23.5t-29.5 23.5t-32.5 10.5q-26 0 -39.5 -18.5t-20.5 -50.5h-40q6 55 31.5 82.5t69.5 27.5q25 0 44 -10.5t34 -23.5
t29.5 -23.5t32.5 -10.5q27 0 40 18t19 51h40z" />
    <glyph glyph-name="Adieresis" unicode="&#xc4;" horiz-adv-x="625" 
d="M606 0h-53l-83 207h-315l-83 -207h-53l264 660h59zM173 253h279l-140 358zM218 831q18 0 29 -11t11 -30q0 -18 -11 -29t-29 -11t-29.5 11t-11.5 29q0 19 11.5 30t29.5 11zM407 831q19 0 30 -11t11 -30q0 -18 -11 -29t-30 -11q-18 0 -29 11t-11 29q0 19 11 30t29 11z" />
    <glyph glyph-name="Aring" unicode="&#xc5;" horiz-adv-x="625" 
d="M606 0h-53l-83 207h-315l-83 -207h-53l264 660h59zM173 253h279l-140 358zM310 828q47 0 76 -28t29 -72t-29 -72.5t-76 -28.5q-46 0 -75.5 28.5t-29.5 72.5t29.5 72t75.5 28zM310 795q-29 0 -48.5 -19t-19.5 -48t19.5 -48.5t48.5 -19.5q30 0 49.5 19.5t19.5 48.5
t-19.5 48t-49.5 19z" />
    <glyph glyph-name="AE" unicode="&#xc6;" horiz-adv-x="922" 
d="M495 46h385v-46h-435v232h-249l-140 -232h-57l402 660h464v-46h-370v-256h288v-46h-288v-266zM223 279h222v335h-19z" />
    <glyph glyph-name="Ccedilla" unicode="&#xc7;" horiz-adv-x="669" 
d="M626 167q-19 -55 -56.5 -95t-90 -61t-117.5 -21q-90 0 -157.5 41.5t-105 117.5t-37.5 181t37 181t104.5 117.5t157.5 41.5q67 0 117.5 -18.5t85.5 -55t53 -89.5l-49 -23q-23 69 -73 104.5t-131 35.5q-74 0 -130.5 -35.5t-87.5 -101t-31 -157.5q0 -91 30.5 -157
t86.5 -101.5t130 -35.5q80 0 136 38.5t78 111.5zM310 4l32 13q56 -22 78.5 -52.5t22.5 -70.5q0 -44 -29.5 -73.5t-75.5 -29.5q-31 0 -54 9t-41 26l14 37q17 -15 35 -23.5t41 -8.5q30 0 49 19t19 53q0 29 -19.5 51.5t-71.5 49.5z" />
    <glyph glyph-name="Egrave" unicode="&#xc8;" horiz-adv-x="612" 
d="M104 0v660h451v-46h-401v-255h317v-47h-317v-266h417v-46h-467zM286 897l70 -154h-41l-82 154h53z" />
    <glyph glyph-name="Eacute" unicode="&#xc9;" horiz-adv-x="612" 
d="M104 0v660h451v-46h-401v-255h317v-47h-317v-266h417v-46h-467zM374 897h53l-83 -154h-41z" />
    <glyph glyph-name="Ecircumflex" unicode="&#xca;" horiz-adv-x="612" 
d="M104 0v660h451v-46h-401v-255h317v-47h-317v-266h417v-46h-467zM468 743h-48l-90 117l-90 -117h-48l110 151h56z" />
    <glyph glyph-name="Edieresis" unicode="&#xcb;" horiz-adv-x="612" 
d="M104 0v660h451v-46h-401v-255h317v-47h-317v-266h417v-46h-467zM235 831q18 0 29 -11t11 -30q0 -18 -11 -29t-29 -11t-29.5 11t-11.5 29q0 19 11.5 30t29.5 11zM424 831q19 0 30 -11t11 -30q0 -18 -11 -29t-30 -11q-18 0 -29 11t-11 29q0 19 11 30t29 11z" />
    <glyph glyph-name="Igrave" unicode="&#xcc;" horiz-adv-x="258" 
d="M154 660v-660h-50v660h50zM79 897l70 -154h-41l-82 154h53z" />
    <glyph glyph-name="Iacute" unicode="&#xcd;" horiz-adv-x="258" 
d="M154 660v-660h-50v660h50zM179 897h53l-83 -154h-41z" />
    <glyph glyph-name="Icircumflex" unicode="&#xce;" horiz-adv-x="258" 
d="M154 660v-660h-50v660h50zM267 743h-48l-90 117l-90 -117h-48l110 151h56z" />
    <glyph glyph-name="Idieresis" unicode="&#xcf;" horiz-adv-x="258" 
d="M55 831q19 0 30 -11t11 -30q0 -18 -11 -29t-30 -11q-18 0 -29 11t-11 29q0 19 11.5 30t28.5 11zM202 831q19 0 30 -11t11 -30q0 -18 -11 -29t-30 -11q-18 0 -29 11t-11 29q0 19 11 30t29 11zM154 660v-660h-50v660h50z" />
    <glyph glyph-name="Eth" unicode="&#xd0;" horiz-adv-x="715" 
d="M16 311v46h352v-46h-352zM324 660q158 0 243.5 -83.5t85.5 -241.5q0 -163 -85.5 -249t-243.5 -86h-208v660h208zM329 46q131 0 201.5 75t70.5 214q0 134 -70.5 206.5t-201.5 72.5h-163v-568h163z" />
    <glyph glyph-name="Ntilde" unicode="&#xd1;" horiz-adv-x="715" 
d="M611 660v-660h-62l-350 518l-49 85h-1l3 -80v-523h-48v660h63l349 -517l50 -86v0l-2 80v523h47zM533 861q-4 -36 -16.5 -61t-32.5 -37t-49 -12q-27 0 -46 10.5t-34 23.5t-29.5 23.5t-32.5 10.5q-26 0 -39.5 -18.5t-20.5 -50.5h-40q6 55 31.5 82.5t69.5 27.5
q25 0 44 -10.5t34 -23.5t29.5 -23.5t32.5 -10.5q27 0 40 18t19 51h40z" />
    <glyph glyph-name="Ograve" unicode="&#xd2;" horiz-adv-x="732" 
d="M366 670q94 0 162 -41.5t105 -117.5t37 -181t-37 -181t-105 -117.5t-162 -41.5q-93 0 -161.5 41.5t-105.5 117.5t-37 181t37 181t105.5 117.5t161.5 41.5zM366 624q-77 0 -133.5 -35.5t-87 -101.5t-30.5 -157t30.5 -157t87 -101.5t133.5 -35.5q78 0 134 35.5t87 101.5
t31 157t-31 157t-87 101.5t-134 35.5zM317 897l70 -154h-41l-82 154h53z" />
    <glyph glyph-name="Oacute" unicode="&#xd3;" horiz-adv-x="732" 
d="M366 670q94 0 162 -41.5t105 -117.5t37 -181t-37 -181t-105 -117.5t-162 -41.5q-93 0 -161.5 41.5t-105.5 117.5t-37 181t37 181t105.5 117.5t161.5 41.5zM366 624q-77 0 -133.5 -35.5t-87 -101.5t-30.5 -157t30.5 -157t87 -101.5t133.5 -35.5q78 0 134 35.5t87 101.5
t31 157t-31 157t-87 101.5t-134 35.5zM411 897h53l-83 -154h-41z" />
    <glyph glyph-name="Ocircumflex" unicode="&#xd4;" horiz-adv-x="732" 
d="M366 670q94 0 162 -41.5t105 -117.5t37 -181t-37 -181t-105 -117.5t-162 -41.5q-93 0 -161.5 41.5t-105.5 117.5t-37 181t37 181t105.5 117.5t161.5 41.5zM366 624q-77 0 -133.5 -35.5t-87 -101.5t-30.5 -157t30.5 -157t87 -101.5t133.5 -35.5q78 0 134 35.5t87 101.5
t31 157t-31 157t-87 101.5t-134 35.5zM504 743h-48l-90 117l-90 -117h-48l110 151h56z" />
    <glyph glyph-name="Otilde" unicode="&#xd5;" horiz-adv-x="732" 
d="M366 670q94 0 162 -41.5t105 -117.5t37 -181t-37 -181t-105 -117.5t-162 -41.5q-93 0 -161.5 41.5t-105.5 117.5t-37 181t37 181t105.5 117.5t161.5 41.5zM366 624q-77 0 -133.5 -35.5t-87 -101.5t-30.5 -157t30.5 -157t87 -101.5t133.5 -35.5q78 0 134 35.5t87 101.5
t31 157t-31 157t-87 101.5t-134 35.5zM536 861q-4 -36 -16.5 -61t-32.5 -37t-49 -12q-27 0 -46 10.5t-34 23.5t-29.5 23.5t-32.5 10.5q-26 0 -39.5 -18.5t-20.5 -50.5h-40q6 55 31.5 82.5t69.5 27.5q25 0 44 -10.5t34 -23.5t29.5 -23.5t32.5 -10.5q27 0 40 18t19 51h40z" />
    <glyph glyph-name="Odieresis" unicode="&#xd6;" horiz-adv-x="732" 
d="M366 670q94 0 162 -41.5t105 -117.5t37 -181t-37 -181t-105 -117.5t-162 -41.5q-93 0 -161.5 41.5t-105.5 117.5t-37 181t37 181t105.5 117.5t161.5 41.5zM366 624q-77 0 -133.5 -35.5t-87 -101.5t-30.5 -157t30.5 -157t87 -101.5t133.5 -35.5q78 0 134 35.5t87 101.5
t31 157t-31 157t-87 101.5t-134 35.5zM271 831q18 0 29 -11t11 -30q0 -18 -11 -29t-29 -11t-29.5 11t-11.5 29q0 19 11.5 30t29.5 11zM460 831q19 0 30 -11t11 -30q0 -18 -11 -29t-30 -11q-18 0 -29 11t-11 29q0 19 11 30t29 11z" />
    <glyph glyph-name="multiply" unicode="&#xd7;" 
d="M468 114l34 35l-367 367l-34 -35zM135 114l367 367l-34 35l-367 -367z" />
    <glyph glyph-name="Oslash" unicode="&#xd8;" horiz-adv-x="732" 
d="M201 61l-29 25l357 503l31 -23zM87 -34l85 120l29 -25l-67 -95h-47zM560 566l-31 23l69 97h48zM366 670q94 0 162 -41.5t105 -117.5t37 -181t-37 -181t-105 -117.5t-162 -41.5q-93 0 -161.5 41.5t-105.5 117.5t-37 181t37 181t105.5 117.5t161.5 41.5zM366 624
q-77 0 -133.5 -35.5t-87 -101.5t-30.5 -157t30.5 -157t87 -101.5t133.5 -35.5q78 0 134 35.5t87 101.5t31 157t-31 157t-87 101.5t-134 35.5z" />
    <glyph glyph-name="Ugrave" unicode="&#xd9;" horiz-adv-x="687" 
d="M598 660v-419q0 -123 -66.5 -187t-187.5 -64t-188 64t-67 187v419h50v-409q0 -106 52.5 -160.5t152.5 -54.5t152 54.5t52 160.5v409h50zM323 884l70 -154h-41l-82 154h53z" />
    <glyph glyph-name="Uacute" unicode="&#xda;" horiz-adv-x="687" 
d="M598 660v-419q0 -123 -66.5 -187t-187.5 -64t-188 64t-67 187v419h50v-409q0 -106 52.5 -160.5t152.5 -54.5t152 54.5t52 160.5v409h50zM389 865h53l-83 -154h-41z" />
    <glyph glyph-name="Ucircumflex" unicode="&#xdb;" horiz-adv-x="687" 
d="M598 660v-419q0 -123 -66.5 -187t-187.5 -64t-188 64t-67 187v419h50v-409q0 -106 52.5 -160.5t152.5 -54.5t152 54.5t52 160.5v409h50zM482 711h-48l-90 117l-90 -117h-48l110 151h56z" />
    <glyph glyph-name="Udieresis" unicode="&#xdc;" horiz-adv-x="687" 
d="M598 660v-419q0 -123 -66.5 -187t-187.5 -64t-188 64t-67 187v419h50v-409q0 -106 52.5 -160.5t152.5 -54.5t152 54.5t52 160.5v409h50zM249 799q18 0 29 -11t11 -30q0 -18 -11 -29t-29 -11t-29.5 11t-11.5 29q0 19 11.5 30t29.5 11zM438 799q19 0 30 -11t11 -30
q0 -18 -11 -29t-30 -11q-18 0 -29 11t-11 29q0 19 11 30t29 11z" />
    <glyph glyph-name="Yacute" unicode="&#xdd;" horiz-adv-x="544" 
d="M531 660l-234 -403v-257h-50v257l-234 403h59l129 -226l71 -125l71 125l129 226h59zM317 868h53l-83 -154h-41z" />
    <glyph glyph-name="Thorn" unicode="&#xde;" horiz-adv-x="599" 
d="M312 534q119 0 179 -50t60 -146q0 -94 -60 -144.5t-179 -50.5h-183v46h191q179 0 179 149q0 75 -44.5 112.5t-134.5 37.5h-191v46h183zM154 660v-660h-50v660h50z" />
    <glyph glyph-name="germandbls" unicode="&#xdf;" horiz-adv-x="588" 
d="M356 383q62 -2 101 -27.5t58.5 -67t19.5 -93.5q0 -58 -21.5 -104.5t-63 -73.5t-102.5 -27q-45 0 -76.5 10.5t-49.5 24.5l17 42q21 -15 45.5 -23.5t61.5 -8.5q66 0 103 45t37 116q0 82 -46.5 122.5t-127.5 40.5h-52v44h46q70 0 110 42t40 109q0 66 -41 100.5t-108 34.5
q-88 0 -128 -51t-40 -150v-488h-50v506q0 70 22.5 121.5t71.5 79.5t129 28q64 0 107 -23t65.5 -62t22.5 -88q0 -46 -18 -85.5t-52 -64.5t-81 -28v-1z" />
    <glyph glyph-name="agrave" unicode="&#xe0;" horiz-adv-x="543" 
d="M395 329q0 65 -35 101t-100 36q-57 0 -98 -24.5t-61 -81.5l-41 26q22 59 73.5 91.5t127.5 32.5q55 0 96.5 -19.5t64.5 -57.5t23 -95v-250q0 -53 48 -53q21 0 36 7l-3 -40q-17 -9 -44 -9q-23 0 -43 9t-32.5 30t-12.5 57v27l14 1q-9 -43 -39.5 -71.5t-70.5 -42t-80 -13.5
q-47 0 -84 15t-58 43.5t-21 70.5q0 56 37.5 90.5t105.5 47.5l207 41v-42l-182 -36q-59 -12 -88 -35t-29 -62q0 -42 31 -65.5t88 -23.5q29 0 59 8t55.5 25.5t40.5 44t15 64.5v153zM207 741l80 -158h-41l-93 158h54z" />
    <glyph glyph-name="aacute" unicode="&#xe1;" horiz-adv-x="543" 
d="M395 329q0 65 -35 101t-100 36q-57 0 -98 -24.5t-61 -81.5l-41 26q22 59 73.5 91.5t127.5 32.5q55 0 96.5 -19.5t64.5 -57.5t23 -95v-250q0 -53 48 -53q21 0 36 7l-3 -40q-17 -9 -44 -9q-23 0 -43 9t-32.5 30t-12.5 57v27l14 1q-9 -43 -39.5 -71.5t-70.5 -42t-80 -13.5
q-47 0 -84 15t-58 43.5t-21 70.5q0 56 37.5 90.5t105.5 47.5l207 41v-42l-182 -36q-59 -12 -88 -35t-29 -62q0 -42 31 -65.5t88 -23.5q29 0 59 8t55.5 25.5t40.5 44t15 64.5v153zM311 741h55l-94 -158h-41z" />
    <glyph glyph-name="acircumflex" unicode="&#xe2;" horiz-adv-x="543" 
d="M395 329q0 65 -35 101t-100 36q-57 0 -98 -24.5t-61 -81.5l-41 26q22 59 73.5 91.5t127.5 32.5q55 0 96.5 -19.5t64.5 -57.5t23 -95v-250q0 -53 48 -53q21 0 36 7l-3 -40q-17 -9 -44 -9q-23 0 -43 9t-32.5 30t-12.5 57v27l14 1q-9 -43 -39.5 -71.5t-70.5 -42t-80 -13.5
q-47 0 -84 15t-58 43.5t-21 70.5q0 56 37.5 90.5t105.5 47.5l207 41v-42l-182 -36q-59 -12 -88 -35t-29 -62q0 -42 31 -65.5t88 -23.5q29 0 59 8t55.5 25.5t40.5 44t15 64.5v153zM399 579h-46l-93 122l-93 -122h-46l111 156h56z" />
    <glyph glyph-name="atilde" unicode="&#xe3;" horiz-adv-x="543" 
d="M395 329q0 65 -35 101t-100 36q-57 0 -98 -24.5t-61 -81.5l-41 26q22 59 73.5 91.5t127.5 32.5q55 0 96.5 -19.5t64.5 -57.5t23 -95v-250q0 -53 48 -53q21 0 36 7l-3 -40q-17 -9 -44 -9q-23 0 -43 9t-32.5 30t-12.5 57v27l14 1q-9 -43 -39.5 -71.5t-70.5 -42t-80 -13.5
q-47 0 -84 15t-58 43.5t-21 70.5q0 56 37.5 90.5t105.5 47.5l207 41v-42l-182 -36q-59 -12 -88 -35t-29 -62q0 -42 31 -65.5t88 -23.5q29 0 59 8t55.5 25.5t40.5 44t15 64.5v153zM430 701q-4 -36 -16.5 -61t-32.5 -37t-49 -12q-27 0 -46 10.5t-34 23.5t-29.5 23.5
t-32.5 10.5q-26 0 -39.5 -18.5t-20.5 -50.5h-40q6 55 31.5 82.5t69.5 27.5q25 0 44 -10.5t34 -23.5t29.5 -23.5t32.5 -10.5q27 0 40 18t19 51h40z" />
    <glyph glyph-name="adieresis" unicode="&#xe4;" horiz-adv-x="543" 
d="M395 329q0 65 -35 101t-100 36q-57 0 -98 -24.5t-61 -81.5l-41 26q22 59 73.5 91.5t127.5 32.5q55 0 96.5 -19.5t64.5 -57.5t23 -95v-250q0 -53 48 -53q21 0 36 7l-3 -40q-17 -9 -44 -9q-23 0 -43 9t-32.5 30t-12.5 57v27l14 1q-9 -43 -39.5 -71.5t-70.5 -42t-80 -13.5
q-47 0 -84 15t-58 43.5t-21 70.5q0 56 37.5 90.5t105.5 47.5l207 41v-42l-182 -36q-59 -12 -88 -35t-29 -62q0 -42 31 -65.5t88 -23.5q29 0 59 8t55.5 25.5t40.5 44t15 64.5v153zM165 671q18 0 29 -11t11 -30q0 -18 -11 -29t-29 -11t-29.5 11t-11.5 29q0 19 11.5 30t29.5 11
zM354 671q19 0 30 -11t11 -30q0 -18 -11 -29t-30 -11q-18 0 -29 11t-11 29q0 19 11 30t29 11z" />
    <glyph glyph-name="aring" unicode="&#xe5;" horiz-adv-x="543" 
d="M395 329q0 65 -35 101t-100 36q-57 0 -98 -24.5t-61 -81.5l-41 26q22 59 73.5 91.5t127.5 32.5q55 0 96.5 -19.5t64.5 -57.5t23 -95v-250q0 -53 48 -53q21 0 36 7l-3 -40q-17 -9 -44 -9q-23 0 -43 9t-32.5 30t-12.5 57v27l14 1q-9 -43 -39.5 -71.5t-70.5 -42t-80 -13.5
q-47 0 -84 15t-58 43.5t-21 70.5q0 56 37.5 90.5t105.5 47.5l207 41v-42l-182 -36q-59 -12 -88 -35t-29 -62q0 -42 31 -65.5t88 -23.5q29 0 59 8t55.5 25.5t40.5 44t15 64.5v153zM257 776q47 0 76 -28t29 -72t-29 -72.5t-76 -28.5q-46 0 -75.5 28.5t-29.5 72.5t29.5 72
t75.5 28zM257 743q-29 0 -48.5 -19t-19.5 -48t19.5 -48.5t48.5 -19.5q30 0 49.5 19.5t19.5 48.5t-19.5 48t-49.5 19z" />
    <glyph glyph-name="ae" unicode="&#xe6;" horiz-adv-x="885" 
d="M220 -10q-48 0 -85 15t-58.5 43.5t-21.5 70.5q0 56 37 90.5t104 47.5l199 38v34q0 65 -36.5 101t-99.5 36q-54 0 -95.5 -24.5t-62.5 -81.5l-41 26q16 40 44 67.5t67.5 42t86.5 14.5q73 0 121 -35.5t57 -109.5l-14 3q15 44 44.5 76t70 49t86.5 17q65 0 111.5 -29.5
t71 -81.5t24.5 -118q0 -10 -0.5 -18.5t-1.5 -14.5h-383v-10q3 -96 51.5 -150t131.5 -54q53 0 94 25t64 69l40 -23q-19 -36 -48.5 -61.5t-67.5 -39.5t-81 -14q-79 0 -136 41t-78 116l15 5q-3 -42 -23 -72.5t-50.5 -50.5t-66 -29.5t-70.5 -9.5zM225 34q31 0 61 8.5t55 26
t39.5 45.5t14.5 66v72l-172 -32q-59 -12 -88 -35t-29 -62q0 -42 31 -65.5t88 -23.5zM448 292h333q-1 52 -20.5 91t-54.5 61t-84 22q-70 0 -117 -45.5t-57 -128.5z" />
    <glyph glyph-name="ccedilla" unicode="&#xe7;" horiz-adv-x="543" 
d="M291 510q51 0 91 -16t68 -46t43 -73l-47 -22q-16 54 -55.5 83.5t-100.5 29.5q-55 0 -97 -25.5t-65 -74t-23 -116.5q0 -67 23 -116t64 -74.5t97 -25.5q42 0 76.5 14t57 41t29.5 64l46 -16q-13 -46 -42.5 -79t-71.5 -50.5t-94 -17.5q-68 0 -121.5 31t-83.5 89.5t-30 139.5
t30.5 139.5t84 89.5t121.5 31zM242 4l32 13q56 -22 78.5 -52.5t22.5 -70.5q0 -44 -29.5 -73.5t-75.5 -29.5q-31 0 -54 9t-41 26l14 37q17 -15 35 -23.5t41 -8.5q30 0 49 19t19 53q0 29 -19.5 51.5t-71.5 49.5z" />
    <glyph glyph-name="egrave" unicode="&#xe8;" horiz-adv-x="557" 
d="M293 -10q-69 0 -123 31t-84.5 89.5t-30.5 139.5t30.5 139.5t83 89.5t118.5 31q68 0 116 -30t74 -83.5t26 -123.5q0 -9 -0.5 -17.5t-1.5 -15.5h-415v45h393l-25 -7q-1 86 -45.5 137t-122.5 51q-54 0 -95 -25.5t-64 -74t-23 -116.5q0 -67 23.5 -116t66 -74.5t98.5 -25.5
q58 0 99.5 25t64.5 69l40 -23q-18 -36 -48 -61.5t-69 -39.5t-86 -14zM229 741l80 -158h-41l-93 158h54z" />
    <glyph glyph-name="eacute" unicode="&#xe9;" horiz-adv-x="557" 
d="M293 -10q-69 0 -123 31t-84.5 89.5t-30.5 139.5t30.5 139.5t83 89.5t118.5 31q68 0 116 -30t74 -83.5t26 -123.5q0 -9 -0.5 -17.5t-1.5 -15.5h-415v45h393l-25 -7q-1 86 -45.5 137t-122.5 51q-54 0 -95 -25.5t-64 -74t-23 -116.5q0 -67 23.5 -116t66 -74.5t98.5 -25.5
q58 0 99.5 25t64.5 69l40 -23q-18 -36 -48 -61.5t-69 -39.5t-86 -14zM333 741h55l-94 -158h-41z" />
    <glyph glyph-name="ecircumflex" unicode="&#xea;" horiz-adv-x="557" 
d="M293 -10q-69 0 -123 31t-84.5 89.5t-30.5 139.5t30.5 139.5t83 89.5t118.5 31q68 0 116 -30t74 -83.5t26 -123.5q0 -9 -0.5 -17.5t-1.5 -15.5h-415v45h393l-25 -7q-1 86 -45.5 137t-122.5 51q-54 0 -95 -25.5t-64 -74t-23 -116.5q0 -67 23.5 -116t66 -74.5t98.5 -25.5
q58 0 99.5 25t64.5 69l40 -23q-18 -36 -48 -61.5t-69 -39.5t-86 -14zM421 579h-46l-93 122l-93 -122h-46l111 156h56z" />
    <glyph glyph-name="edieresis" unicode="&#xeb;" horiz-adv-x="557" 
d="M293 -10q-69 0 -123 31t-84.5 89.5t-30.5 139.5t30.5 139.5t83 89.5t118.5 31q68 0 116 -30t74 -83.5t26 -123.5q0 -9 -0.5 -17.5t-1.5 -15.5h-415v45h393l-25 -7q-1 86 -45.5 137t-122.5 51q-54 0 -95 -25.5t-64 -74t-23 -116.5q0 -67 23.5 -116t66 -74.5t98.5 -25.5
q58 0 99.5 25t64.5 69l40 -23q-18 -36 -48 -61.5t-69 -39.5t-86 -14zM187 671q18 0 29 -11t11 -30q0 -18 -11 -29t-29 -11t-29.5 11t-11.5 29q0 19 11.5 30t29.5 11zM376 671q19 0 30 -11t11 -30q0 -18 -11 -29t-30 -11q-18 0 -29 11t-11 29q0 19 11 30t29 11z" />
    <glyph glyph-name="igrave" unicode="&#xec;" horiz-adv-x="229" 
d="M139 500v-500h-50v500h50zM61 741l80 -158h-41l-93 158h54z" />
    <glyph glyph-name="iacute" unicode="&#xed;" horiz-adv-x="229" 
d="M139 500v-500h-50v500h50zM165 741h55l-94 -158h-41z" />
    <glyph glyph-name="icircumflex" unicode="&#xee;" horiz-adv-x="229" 
d="M139 500v-500h-50v500h50zM253 579h-46l-93 122l-93 -122h-46l111 156h56z" />
    <glyph glyph-name="idieresis" unicode="&#xef;" horiz-adv-x="229" 
d="M180 590q-18 0 -29.5 11t-11.5 29q0 19 11.5 30t29.5 11q19 0 30 -11t11 -30q0 -18 -11 -29t-30 -11zM48 590q-18 0 -29 11t-11 29q0 19 11.5 30t28.5 11q19 0 30 -11t11 -30q0 -18 -11 -29t-30 -11zM139 500v-500h-50v500h50z" />
    <glyph glyph-name="eth" unicode="&#xf0;" horiz-adv-x="600" 
d="M293 -10q-73 0 -126 30t-81.5 86t-28.5 132t30 131.5t82 85.5t119 30q78 0 128.5 -34t70.5 -93l-7 -9q-6 72 -27 131t-54 105.5t-78 82.5t-100 62h73q54 -28 97.5 -68.5t74 -95t47.5 -124t17 -156.5q0 -93 -27.5 -159.5t-80 -101.5t-129.5 -35zM295 34q61 0 102.5 29
t62.5 78t21 107q0 60 -24 103.5t-66 66.5t-97 23q-57 0 -98.5 -25t-64.5 -70.5t-23 -107.5q0 -95 50 -149.5t137 -54.5zM217 552l-10 39l192 41l22 -31zM421 601l-22 31l132 33l11 -37z" />
    <glyph glyph-name="ntilde" unicode="&#xf1;" horiz-adv-x="598" 
d="M89 0v500h45l4 -125l-8 7q14 41 42 70t67 43.5t84 14.5q56 0 99 -21t67.5 -62t24.5 -103v-324h-50v308q0 82 -40.5 120t-105.5 38q-47 0 -87.5 -21.5t-66 -62.5t-25.5 -100v-282h-50zM476 701q-4 -36 -16.5 -61t-32.5 -37t-49 -12q-27 0 -46 10.5t-34 23.5t-29.5 23.5
t-32.5 10.5q-26 0 -39.5 -18.5t-20.5 -50.5h-40q6 55 31.5 82.5t69.5 27.5q25 0 44 -10.5t34 -23.5t29.5 -23.5t32.5 -10.5q27 0 40 18t19 51h40z" />
    <glyph glyph-name="ograve" unicode="&#xf2;" horiz-adv-x="585" 
d="M293 510q70 0 123.5 -31t84 -89.5t30.5 -139.5t-30.5 -139.5t-84 -89.5t-123.5 -31t-123.5 31t-84 89.5t-30.5 139.5t30.5 139.5t84 89.5t123.5 31zM293 467q-57 0 -99 -26t-65.5 -74.5t-23.5 -116.5q0 -67 23.5 -116t65.5 -75t99 -26t99 26t65.5 75t23.5 116
q0 68 -23.5 116.5t-65.5 74.5t-99 26zM240 739l80 -158h-41l-93 158h54z" />
    <glyph glyph-name="oacute" unicode="&#xf3;" horiz-adv-x="585" 
d="M293 510q70 0 123.5 -31t84 -89.5t30.5 -139.5t-30.5 -139.5t-84 -89.5t-123.5 -31t-123.5 31t-84 89.5t-30.5 139.5t30.5 139.5t84 89.5t123.5 31zM293 467q-57 0 -99 -26t-65.5 -74.5t-23.5 -116.5q0 -67 23.5 -116t65.5 -75t99 -26t99 26t65.5 75t23.5 116
q0 68 -23.5 116.5t-65.5 74.5t-99 26zM344 739h55l-94 -158h-41z" />
    <glyph glyph-name="ocircumflex" unicode="&#xf4;" horiz-adv-x="585" 
d="M293 510q70 0 123.5 -31t84 -89.5t30.5 -139.5t-30.5 -139.5t-84 -89.5t-123.5 -31t-123.5 31t-84 89.5t-30.5 139.5t30.5 139.5t84 89.5t123.5 31zM293 467q-57 0 -99 -26t-65.5 -74.5t-23.5 -116.5q0 -67 23.5 -116t65.5 -75t99 -26t99 26t65.5 75t23.5 116
q0 68 -23.5 116.5t-65.5 74.5t-99 26zM432 577h-46l-93 122l-93 -122h-46l111 156h56z" />
    <glyph glyph-name="otilde" unicode="&#xf5;" horiz-adv-x="585" 
d="M293 510q70 0 123.5 -31t84 -89.5t30.5 -139.5t-30.5 -139.5t-84 -89.5t-123.5 -31t-123.5 31t-84 89.5t-30.5 139.5t30.5 139.5t84 89.5t123.5 31zM293 467q-57 0 -99 -26t-65.5 -74.5t-23.5 -116.5q0 -67 23.5 -116t65.5 -75t99 -26t99 26t65.5 75t23.5 116
q0 68 -23.5 116.5t-65.5 74.5t-99 26zM463 699q-4 -36 -16.5 -61t-32.5 -37t-49 -12q-27 0 -46 10.5t-34 23.5t-29.5 23.5t-32.5 10.5q-26 0 -39.5 -18.5t-20.5 -50.5h-40q6 55 31.5 82.5t69.5 27.5q25 0 44 -10.5t34 -23.5t29.5 -23.5t32.5 -10.5q27 0 40 18t19 51h40z" />
    <glyph glyph-name="odieresis" unicode="&#xf6;" horiz-adv-x="585" 
d="M293 510q70 0 123.5 -31t84 -89.5t30.5 -139.5t-30.5 -139.5t-84 -89.5t-123.5 -31t-123.5 31t-84 89.5t-30.5 139.5t30.5 139.5t84 89.5t123.5 31zM293 467q-57 0 -99 -26t-65.5 -74.5t-23.5 -116.5q0 -67 23.5 -116t65.5 -75t99 -26t99 26t65.5 75t23.5 116
q0 68 -23.5 116.5t-65.5 74.5t-99 26zM198 669q18 0 29 -11t11 -30q0 -18 -11 -29t-29 -11t-29.5 11t-11.5 29q0 19 11.5 30t29.5 11zM387 669q19 0 30 -11t11 -30q0 -18 -11 -29t-30 -11q-18 0 -29 11t-11 29q0 19 11 30t29 11z" />
    <glyph glyph-name="divide" unicode="&#xf7;" 
d="M537 339v-46h-470v46h470zM302 170q20 0 32.5 -12t12.5 -32t-12.5 -32.5t-32.5 -12.5t-32.5 12.5t-12.5 32.5t12.5 32t32.5 12zM302 552q20 0 32.5 -12.5t12.5 -32.5t-12.5 -32.5t-32.5 -12.5t-32.5 12.5t-12.5 32.5t12.5 32.5t32.5 12.5z" />
    <glyph glyph-name="oslash" unicode="&#xf8;" horiz-adv-x="585" 
d="M293 510q70 0 123.5 -31t84 -89.5t30.5 -139.5t-30.5 -139.5t-84 -89.5t-123.5 -31t-123.5 31t-84 89.5t-30.5 139.5t30.5 139.5t84 89.5t123.5 31zM293 467q-57 0 -99 -26t-65.5 -74.5t-23.5 -116.5q0 -67 23.5 -116t65.5 -75t99 -26t99 26t65.5 75t23.5 116
q0 68 -23.5 116.5t-65.5 74.5t-99 26zM54 -30l434 560h44l-434 -560h-44z" />
    <glyph glyph-name="ugrave" unicode="&#xf9;" horiz-adv-x="592" 
d="M265 -10q-52 0 -93 19t-64.5 59.5t-23.5 101.5v330h50v-318q0 -78 37.5 -113t105.5 -35q40 0 72.5 14t55.5 39t35.5 57.5t12.5 68.5v287h50v-500h-45l-2 103q-22 -53 -72 -83t-119 -30zM241 726l80 -158h-41l-93 158h54z" />
    <glyph glyph-name="uacute" unicode="&#xfa;" horiz-adv-x="592" 
d="M265 -10q-52 0 -93 19t-64.5 59.5t-23.5 101.5v330h50v-318q0 -78 37.5 -113t105.5 -35q40 0 72.5 14t55.5 39t35.5 57.5t12.5 68.5v287h50v-500h-45l-2 103q-22 -53 -72 -83t-119 -30zM345 726h55l-94 -158h-41z" />
    <glyph glyph-name="ucircumflex" unicode="&#xfb;" horiz-adv-x="592" 
d="M265 -10q-52 0 -93 19t-64.5 59.5t-23.5 101.5v330h50v-318q0 -78 37.5 -113t105.5 -35q40 0 72.5 14t55.5 39t35.5 57.5t12.5 68.5v287h50v-500h-45l-2 103q-22 -53 -72 -83t-119 -30zM433 564h-46l-93 122l-93 -122h-46l111 156h56z" />
    <glyph glyph-name="udieresis" unicode="&#xfc;" horiz-adv-x="592" 
d="M265 -10q-52 0 -93 19t-64.5 59.5t-23.5 101.5v330h50v-318q0 -78 37.5 -113t105.5 -35q40 0 72.5 14t55.5 39t35.5 57.5t12.5 68.5v287h50v-500h-45l-2 103q-22 -53 -72 -83t-119 -30zM199 656q18 0 29 -11t11 -30q0 -18 -11 -29t-29 -11t-29.5 11t-11.5 29
q0 19 11.5 30t29.5 11zM388 656q19 0 30 -11t11 -30q0 -18 -11 -29t-30 -11q-18 0 -29 11t-11 29q0 19 11 30t29 11z" />
    <glyph glyph-name="yacute" unicode="&#xfd;" horiz-adv-x="500" 
d="M483 500l-242 -592q-18 -46 -39 -73t-47 -38.5t-60 -11.5q-30 0 -54.5 9t-41.5 25l16 43q15 -18 36 -25.5t43 -7.5q32 0 57 18.5t47 72.5l33 80l-53 124l-158 376h57l153 -379l25 -67l27 72l147 374h54zM303 726h55l-94 -158h-41z" />
    <glyph glyph-name="thorn" unicode="&#xfe;" horiz-adv-x="607" 
d="M89 -210v940h50v-369l-6 13q19 63 71 99.5t120 36.5q66 0 117 -31t81 -89t30 -140q0 -81 -30 -139.5t-81.5 -89.5t-116.5 -31q-69 0 -120 36.5t-71 98.5l6 9v-344h-50zM318 34q85 0 134.5 58t49.5 158t-49 158t-133 58q-53 0 -93.5 -26.5t-64 -75t-23.5 -114.5
q0 -65 23 -114t63.5 -75.5t92.5 -26.5z" />
    <glyph glyph-name="ydieresis" unicode="&#xff;" horiz-adv-x="500" 
d="M483 500l-242 -592q-18 -46 -39 -73t-47 -38.5t-60 -11.5q-30 0 -54.5 9t-41.5 25l16 43q15 -18 36 -25.5t43 -7.5q32 0 57 18.5t47 72.5l33 80l-53 124l-158 376h57l153 -379l25 -67l27 72l147 374h54zM157 656q18 0 29 -11t11 -30q0 -18 -11 -29t-29 -11t-29.5 11
t-11.5 29q0 19 11.5 30t29.5 11zM346 656q19 0 30 -11t11 -30q0 -18 -11 -29t-30 -11q-18 0 -29 11t-11 29q0 19 11 30t29 11z" />
    <glyph glyph-name="Amacron" unicode="&#x100;" horiz-adv-x="625" 
d="M606 0h-53l-83 207h-315l-83 -207h-53l264 660h59zM173 253h279l-140 358zM468 802v-42h-310v42h310z" />
    <glyph glyph-name="amacron" unicode="&#x101;" horiz-adv-x="543" 
d="M395 329q0 65 -35 101t-100 36q-57 0 -98 -24.5t-61 -81.5l-41 26q22 59 73.5 91.5t127.5 32.5q55 0 96.5 -19.5t64.5 -57.5t23 -95v-250q0 -53 48 -53q21 0 36 7l-3 -40q-17 -9 -44 -9q-23 0 -43 9t-32.5 30t-12.5 57v27l14 1q-9 -43 -39.5 -71.5t-70.5 -42t-80 -13.5
q-47 0 -84 15t-58 43.5t-21 70.5q0 56 37.5 90.5t105.5 47.5l207 41v-42l-182 -36q-59 -12 -88 -35t-29 -62q0 -42 31 -65.5t88 -23.5q29 0 59 8t55.5 25.5t40.5 44t15 64.5v153zM415 642v-42h-310v42h310z" />
    <glyph glyph-name="Abreve" unicode="&#x102;" horiz-adv-x="625" 
d="M606 0h-53l-83 207h-315l-83 -207h-53l264 660h59zM173 253h279l-140 358zM448 874q0 -62 -36.5 -98.5t-98.5 -36.5t-98.5 36.5t-36.5 98.5h41q0 -41 24.5 -69t69.5 -28q46 0 70 28t24 69h41z" />
    <glyph glyph-name="abreve" unicode="&#x103;" horiz-adv-x="543" 
d="M395 329q0 65 -35 101t-100 36q-57 0 -98 -24.5t-61 -81.5l-41 26q22 59 73.5 91.5t127.5 32.5q55 0 96.5 -19.5t64.5 -57.5t23 -95v-250q0 -53 48 -53q21 0 36 7l-3 -40q-17 -9 -44 -9q-23 0 -43 9t-32.5 30t-12.5 57v27l14 1q-9 -43 -39.5 -71.5t-70.5 -42t-80 -13.5
q-47 0 -84 15t-58 43.5t-21 70.5q0 56 37.5 90.5t105.5 47.5l207 41v-42l-182 -36q-59 -12 -88 -35t-29 -62q0 -42 31 -65.5t88 -23.5q29 0 59 8t55.5 25.5t40.5 44t15 64.5v153zM395 714q0 -62 -36.5 -98.5t-98.5 -36.5t-98.5 36.5t-36.5 98.5h41q0 -41 24.5 -69t69.5 -28
q46 0 70 28t24 69h41z" />
    <glyph glyph-name="Aogonek" unicode="&#x104;" horiz-adv-x="625" 
d="M541 -209q-30 0 -53.5 10.5t-37 31t-13.5 50.5q0 45 31.5 78t105.5 59l32 -20q-50 -17 -78 -35.5t-39 -38t-11 -40.5q0 -29 19.5 -43.5t48.5 -14.5q19 0 34 4t27 12l11 -33q-13 -10 -33 -15t-44 -5zM606 0h-53l-83 207h-315l-83 -207h-53l264 660h59zM173 253h279
l-140 358z" />
    <glyph glyph-name="aogonek" unicode="&#x105;" horiz-adv-x="543" 
d="M452 -220q-31 0 -54 11t-37 31t-14 48q0 48 34.5 81t109.5 64l35 -13q-52 -23 -82 -43.5t-42.5 -41t-12.5 -42.5q0 -28 19.5 -43t48.5 -15q20 0 36 4.5t27 11.5l11 -33q-13 -9 -33 -14.5t-46 -5.5zM395 329q0 65 -35 101t-100 36q-57 0 -98 -24.5t-61 -81.5l-41 26
q22 59 73.5 91.5t127.5 32.5q55 0 96.5 -19.5t64.5 -57.5t23 -95v-250q0 -53 48 -53q21 0 36 7l-3 -40q-17 -9 -44 -9q-23 0 -43 9t-32.5 30t-12.5 57v27l14 1q-9 -43 -39.5 -71.5t-70.5 -42t-80 -13.5q-47 0 -84 15t-58 43.5t-21 70.5q0 56 37.5 90.5t105.5 47.5l207 41
v-42l-182 -36q-59 -12 -88 -35t-29 -62q0 -42 31 -65.5t88 -23.5q29 0 59 8t55.5 25.5t40.5 44t15 64.5v153z" />
    <glyph glyph-name="Cacute" unicode="&#x106;" horiz-adv-x="669" 
d="M626 167q-19 -55 -56.5 -95t-90 -61t-117.5 -21q-90 0 -157.5 41.5t-105 117.5t-37.5 181t37 181t104.5 117.5t157.5 41.5q67 0 117.5 -18.5t85.5 -55t53 -89.5l-49 -23q-23 69 -73 104.5t-131 35.5q-74 0 -130.5 -35.5t-87.5 -101t-31 -157.5q0 -91 30.5 -157
t86.5 -101.5t130 -35.5q80 0 136 38.5t78 111.5zM402 897h53l-83 -154h-41z" />
    <glyph glyph-name="cacute" unicode="&#x107;" horiz-adv-x="543" 
d="M291 510q51 0 91 -16t68 -46t43 -73l-47 -22q-16 54 -55.5 83.5t-100.5 29.5q-55 0 -97 -25.5t-65 -74t-23 -116.5q0 -67 23 -116t64 -74.5t97 -25.5q42 0 76.5 14t57 41t29.5 64l46 -16q-13 -46 -42.5 -79t-71.5 -50.5t-94 -17.5q-68 0 -121.5 31t-83.5 89.5t-30 139.5
t30.5 139.5t84 89.5t121.5 31zM335 741h55l-94 -158h-41z" />
    <glyph glyph-name="Ccircumflex" unicode="&#x108;" horiz-adv-x="669" 
d="M626 167q-19 -55 -56.5 -95t-90 -61t-117.5 -21q-90 0 -157.5 41.5t-105 117.5t-37.5 181t37 181t104.5 117.5t157.5 41.5q67 0 117.5 -18.5t85.5 -55t53 -89.5l-49 -23q-23 69 -73 104.5t-131 35.5q-74 0 -130.5 -35.5t-87.5 -101t-31 -157.5q0 -91 30.5 -157
t86.5 -101.5t130 -35.5q80 0 136 38.5t78 111.5zM495 743h-48l-90 117l-90 -117h-48l110 151h56z" />
    <glyph glyph-name="ccircumflex" unicode="&#x109;" horiz-adv-x="543" 
d="M291 510q51 0 91 -16t68 -46t43 -73l-47 -22q-16 54 -55.5 83.5t-100.5 29.5q-55 0 -97 -25.5t-65 -74t-23 -116.5q0 -67 23 -116t64 -74.5t97 -25.5q42 0 76.5 14t57 41t29.5 64l46 -16q-13 -46 -42.5 -79t-71.5 -50.5t-94 -17.5q-68 0 -121.5 31t-83.5 89.5t-30 139.5
t30.5 139.5t84 89.5t121.5 31zM423 579h-46l-93 122l-93 -122h-46l111 156h56z" />
    <glyph glyph-name="Cdotaccent" unicode="&#x10a;" horiz-adv-x="669" 
d="M626 167q-19 -55 -56.5 -95t-90 -61t-117.5 -21q-90 0 -157.5 41.5t-105 117.5t-37.5 181t37 181t104.5 117.5t157.5 41.5q67 0 117.5 -18.5t85.5 -55t53 -89.5l-49 -23q-23 69 -73 104.5t-131 35.5q-74 0 -130.5 -35.5t-87.5 -101t-31 -157.5q0 -91 30.5 -157
t86.5 -101.5t130 -35.5q80 0 136 38.5t78 111.5zM357 841q19 0 30.5 -11.5t11.5 -30.5t-11.5 -30.5t-30.5 -11.5t-30.5 11.5t-11.5 30.5t11.5 30.5t30.5 11.5z" />
    <glyph glyph-name="cdotaccent" unicode="&#x10b;" horiz-adv-x="543" 
d="M291 510q51 0 91 -16t68 -46t43 -73l-47 -22q-16 54 -55.5 83.5t-100.5 29.5q-55 0 -97 -25.5t-65 -74t-23 -116.5q0 -67 23 -116t64 -74.5t97 -25.5q42 0 76.5 14t57 41t29.5 64l46 -16q-13 -46 -42.5 -79t-71.5 -50.5t-94 -17.5q-68 0 -121.5 31t-83.5 89.5t-30 139.5
t30.5 139.5t84 89.5t121.5 31zM284 681q19 0 30.5 -11.5t11.5 -30.5t-11.5 -30.5t-30.5 -11.5t-30.5 11.5t-11.5 30.5t11.5 30.5t30.5 11.5z" />
    <glyph glyph-name="Ccaron" unicode="&#x10c;" horiz-adv-x="669" 
d="M626 167q-19 -55 -56.5 -95t-90 -61t-117.5 -21q-90 0 -157.5 41.5t-105 117.5t-37.5 181t37 181t104.5 117.5t157.5 41.5q67 0 117.5 -18.5t85.5 -55t53 -89.5l-49 -23q-23 69 -73 104.5t-131 35.5q-74 0 -130.5 -35.5t-87.5 -101t-31 -157.5q0 -91 30.5 -157
t86.5 -101.5t130 -35.5q80 0 136 38.5t78 111.5zM495 894l-110 -151h-56l-110 151h48l90 -117l90 117h48z" />
    <glyph glyph-name="ccaron" unicode="&#x10d;" horiz-adv-x="543" 
d="M291 510q51 0 91 -16t68 -46t43 -73l-47 -22q-16 54 -55.5 83.5t-100.5 29.5q-55 0 -97 -25.5t-65 -74t-23 -116.5q0 -67 23 -116t64 -74.5t97 -25.5q42 0 76.5 14t57 41t29.5 64l46 -16q-13 -46 -42.5 -79t-71.5 -50.5t-94 -17.5q-68 0 -121.5 31t-83.5 89.5t-30 139.5
t30.5 139.5t84 89.5t121.5 31zM423 738l-111 -155h-56l-111 155h46l93 -121l93 121h46z" />
    <glyph glyph-name="Dcaron" unicode="&#x10e;" horiz-adv-x="703" 
d="M312 660q158 0 243.5 -83.5t85.5 -241.5q0 -163 -85.5 -249t-243.5 -86h-208v660h208zM316 46q132 0 202.5 75t70.5 214q0 134 -70.5 206.5t-202.5 72.5h-162v-568h162zM477 894l-110 -151h-56l-110 151h48l90 -117l90 117h48z" />
    <glyph glyph-name="dcaron" unicode="&#x10f;" horiz-adv-x="624" 
d="M659 730l-35 -197h-36l23 197h48zM284 -10q-65 0 -117 31t-81.5 89.5t-29.5 139.5q0 83 31 141t84 88.5t118 30.5q69 0 118.5 -37t66.5 -102l-6 -5v364h50v-730h-45l-3 139l6 2q-9 -48 -36.5 -82t-68 -51.5t-87.5 -17.5zM290 34q53 0 93 26.5t62.5 76.5t22.5 117
q0 66 -22.5 113.5t-62 73t-91.5 25.5q-86 0 -136 -58t-50 -158t49.5 -158t134.5 -58z" />
    <glyph glyph-name="Dcroat" unicode="&#x110;" horiz-adv-x="715" 
d="M16 311v46h352v-46h-352zM324 660q158 0 243.5 -83.5t85.5 -241.5q0 -163 -85.5 -249t-243.5 -86h-208v660h208zM329 46q131 0 201.5 75t70.5 214q0 134 -70.5 206.5t-201.5 72.5h-163v-568h163z" />
    <glyph glyph-name="dcroat" unicode="&#x111;" horiz-adv-x="608" 
d="M301 579v38h305v-38h-305zM284 -10q-65 0 -117 31t-81.5 89.5t-29.5 139.5q0 83 31 141t84 88.5t118 30.5q69 0 118.5 -37t66.5 -102l-6 -5v364h50v-730h-45l-3 139l6 2q-9 -48 -36.5 -82t-68 -51.5t-87.5 -17.5zM290 34q53 0 93 26.5t62.5 76.5t22.5 117
q0 66 -22.5 113.5t-62 73t-91.5 25.5q-86 0 -136 -58t-50 -158t49.5 -158t134.5 -58z" />
    <glyph glyph-name="Emacron" unicode="&#x112;" horiz-adv-x="612" 
d="M104 0v660h451v-46h-401v-255h317v-47h-317v-266h417v-46h-467zM485 802v-42h-310v42h310z" />
    <glyph glyph-name="emacron" unicode="&#x113;" horiz-adv-x="557" 
d="M293 -10q-69 0 -123 31t-84.5 89.5t-30.5 139.5t30.5 139.5t83 89.5t118.5 31q68 0 116 -30t74 -83.5t26 -123.5q0 -9 -0.5 -17.5t-1.5 -15.5h-415v45h393l-25 -7q-1 86 -45.5 137t-122.5 51q-54 0 -95 -25.5t-64 -74t-23 -116.5q0 -67 23.5 -116t66 -74.5t98.5 -25.5
q58 0 99.5 25t64.5 69l40 -23q-18 -36 -48 -61.5t-69 -39.5t-86 -14zM437 642v-42h-310v42h310z" />
    <glyph glyph-name="Ebreve" unicode="&#x114;" horiz-adv-x="612" 
d="M104 0v660h451v-46h-401v-255h317v-47h-317v-266h417v-46h-467zM465 874q0 -62 -36.5 -98.5t-98.5 -36.5t-98.5 36.5t-36.5 98.5h41q0 -41 24.5 -69t69.5 -28q46 0 70 28t24 69h41z" />
    <glyph glyph-name="ebreve" unicode="&#x115;" horiz-adv-x="557" 
d="M293 -10q-69 0 -123 31t-84.5 89.5t-30.5 139.5t30.5 139.5t83 89.5t118.5 31q68 0 116 -30t74 -83.5t26 -123.5q0 -9 -0.5 -17.5t-1.5 -15.5h-415v45h393l-25 -7q-1 86 -45.5 137t-122.5 51q-54 0 -95 -25.5t-64 -74t-23 -116.5q0 -67 23.5 -116t66 -74.5t98.5 -25.5
q58 0 99.5 25t64.5 69l40 -23q-18 -36 -48 -61.5t-69 -39.5t-86 -14zM417 714q0 -62 -36.5 -98.5t-98.5 -36.5t-98.5 36.5t-36.5 98.5h41q0 -41 24.5 -69t69.5 -28q46 0 70 28t24 69h41z" />
    <glyph glyph-name="Edotaccent" unicode="&#x116;" horiz-adv-x="612" 
d="M104 0v660h451v-46h-401v-255h317v-47h-317v-266h417v-46h-467zM330 841q19 0 30.5 -11.5t11.5 -30.5t-11.5 -30.5t-30.5 -11.5t-30.5 11.5t-11.5 30.5t11.5 30.5t30.5 11.5z" />
    <glyph glyph-name="edotaccent" unicode="&#x117;" horiz-adv-x="557" 
d="M293 -10q-69 0 -123 31t-84.5 89.5t-30.5 139.5t30.5 139.5t83 89.5t118.5 31q68 0 116 -30t74 -83.5t26 -123.5q0 -9 -0.5 -17.5t-1.5 -15.5h-415v45h393l-25 -7q-1 86 -45.5 137t-122.5 51q-54 0 -95 -25.5t-64 -74t-23 -116.5q0 -67 23.5 -116t66 -74.5t98.5 -25.5
q58 0 99.5 25t64.5 69l40 -23q-18 -36 -48 -61.5t-69 -39.5t-86 -14zM282 681q19 0 30.5 -11.5t11.5 -30.5t-11.5 -30.5t-30.5 -11.5t-30.5 11.5t-11.5 30.5t11.5 30.5t30.5 11.5z" />
    <glyph glyph-name="Eogonek" unicode="&#x118;" horiz-adv-x="612" 
d="M494 -221q-30 0 -53 10.5t-36 30.5t-13 48q0 49 35 83.5t112 63.5l32 -15q-78 -32 -108 -63t-30 -63q0 -28 19.5 -43t47.5 -15q18 0 33.5 4t26.5 11l12 -33q-14 -8 -33.5 -13.5t-44.5 -5.5zM104 0v660h451v-46h-401v-255h317v-47h-317v-266h417v-46h-467z" />
    <glyph glyph-name="eogonek" unicode="&#x119;" horiz-adv-x="557" 
d="M293 -10q-69 0 -123 31t-84.5 89.5t-30.5 139.5t30.5 139.5t83 89.5t118.5 31q68 0 116 -30t74 -83.5t26 -123.5q0 -9 -0.5 -17.5t-1.5 -15.5h-415v45h393l-25 -7q-1 86 -45.5 137t-122.5 51q-54 0 -95 -25.5t-64 -74t-23 -116.5q0 -67 23.5 -116t66 -74.5t98.5 -25.5
q58 0 99.5 25t64.5 69l40 -23q-18 -36 -48 -61.5t-69 -39.5t-86 -14zM313 -215q-47 0 -75.5 24.5t-28.5 66.5q0 49 33.5 81.5t109.5 61.5l31 -13q-55 -21 -83.5 -41.5t-39 -40.5t-10.5 -43q0 -29 19 -44t48 -15q21 0 36.5 4.5t26.5 11.5l9 -35q-13 -7 -31.5 -12.5
t-44.5 -5.5z" />
    <glyph glyph-name="Ecaron" unicode="&#x11a;" horiz-adv-x="612" 
d="M104 0v660h451v-46h-401v-255h317v-47h-317v-266h417v-46h-467zM468 894l-110 -151h-56l-110 151h48l90 -117l90 117h48z" />
    <glyph glyph-name="ecaron" unicode="&#x11b;" horiz-adv-x="557" 
d="M293 -10q-69 0 -123 31t-84.5 89.5t-30.5 139.5t30.5 139.5t83 89.5t118.5 31q68 0 116 -30t74 -83.5t26 -123.5q0 -9 -0.5 -17.5t-1.5 -15.5h-415v45h393l-25 -7q-1 86 -45.5 137t-122.5 51q-54 0 -95 -25.5t-64 -74t-23 -116.5q0 -67 23.5 -116t66 -74.5t98.5 -25.5
q58 0 99.5 25t64.5 69l40 -23q-18 -36 -48 -61.5t-69 -39.5t-86 -14zM421 738l-111 -155h-56l-111 155h46l93 -121l93 121h46z" />
    <glyph glyph-name="Gcircumflex" unicode="&#x11c;" horiz-adv-x="702" 
d="M365 -10q-93 0 -161 41.5t-105 117.5t-37 181t38.5 181t107 117.5t158.5 41.5q101 0 163.5 -40t94.5 -122l-46 -24q-23 69 -76 104.5t-136 35.5q-74 0 -131 -35.5t-88.5 -101.5t-31.5 -157t29.5 -157t86 -101.5t136.5 -35.5q55 0 95.5 17.5t67 46t39.5 65t13 74.5v37
h-224v47h271v-323h-41l-2 143l9 -2q-24 -70 -82.5 -110.5t-147.5 -40.5zM497 743h-48l-90 117l-90 -117h-48l110 151h56z" />
    <glyph glyph-name="gcircumflex" unicode="&#x11d;" horiz-adv-x="515" 
d="M121 579l111 156h57l111 -156h-47l-93 122l-92 -122h-47zM503 592l12 -44h-1h-1q-50 0 -77 -25.5t-27 -71.5l-33 14q0 39 16 67t44 44t64 16h2h1zM345 51q74 0 116 -31t42 -83q0 -46 -30.5 -80t-83.5 -53t-121 -19q-113 0 -173 38.5t-60 96.5q0 42 30.5 73t89.5 37l-4 -9
q-32 9 -56.5 30t-24.5 60q0 42 31.5 68.5t83.5 30.5l53 -18h-21q-46 -3 -73.5 -22.5t-27.5 -50.5q0 -34 26.5 -51t67.5 -17h135zM268 -173q59 0 101 14t64.5 37.5t22.5 52.5q0 35 -30.5 56t-92.5 21h-142q-47 0 -78 -22t-31 -59q0 -45 49.5 -72.5t136.5 -27.5zM261 510
q59 0 104.5 -20.5t70.5 -57t25 -85.5q0 -48 -25 -85.5t-70.5 -58t-104.5 -20.5q-95 0 -148.5 45.5t-53.5 118.5q0 49 25.5 85.5t71 57t105.5 20.5zM261 469q-66 0 -108 -33.5t-42 -88.5t42 -89t108 -34t107.5 34t41.5 89t-41.5 88.5t-107.5 33.5z" />
    <glyph glyph-name="Gbreve" unicode="&#x11e;" horiz-adv-x="702" 
d="M365 -10q-93 0 -161 41.5t-105 117.5t-37 181t38.5 181t107 117.5t158.5 41.5q101 0 163.5 -40t94.5 -122l-46 -24q-23 69 -76 104.5t-136 35.5q-74 0 -131 -35.5t-88.5 -101.5t-31.5 -157t29.5 -157t86 -101.5t136.5 -35.5q55 0 95.5 17.5t67 46t39.5 65t13 74.5v37
h-224v47h271v-323h-41l-2 143l9 -2q-24 -70 -82.5 -110.5t-147.5 -40.5zM494 874q0 -62 -36.5 -98.5t-98.5 -36.5t-98.5 36.5t-36.5 98.5h41q0 -41 24.5 -69t69.5 -28q46 0 70 28t24 69h41z" />
    <glyph glyph-name="gbreve" unicode="&#x11f;" horiz-adv-x="515" 
d="M503 592l12 -44h-1h-1q-50 0 -77 -25.5t-27 -71.5l-33 14q0 39 16 67t44 44t64 16h2h1zM345 51q74 0 116 -31t42 -83q0 -46 -30.5 -80t-83.5 -53t-121 -19q-113 0 -173 38.5t-60 96.5q0 42 30.5 73t89.5 37l-4 -9q-32 9 -56.5 30t-24.5 60q0 42 31.5 68.5t83.5 30.5
l53 -18h-21q-46 -3 -73.5 -22.5t-27.5 -50.5q0 -34 26.5 -51t67.5 -17h135zM268 -173q59 0 101 14t64.5 37.5t22.5 52.5q0 35 -30.5 56t-92.5 21h-142q-47 0 -78 -22t-31 -59q0 -45 49.5 -72.5t136.5 -27.5zM261 510q59 0 104.5 -20.5t70.5 -57t25 -85.5q0 -48 -25 -85.5
t-70.5 -58t-104.5 -20.5q-95 0 -148.5 45.5t-53.5 118.5q0 49 25.5 85.5t71 57t105.5 20.5zM261 469q-66 0 -108 -33.5t-42 -88.5t42 -89t108 -34t107.5 34t41.5 89t-41.5 88.5t-107.5 33.5zM405 714q0 -62 -37 -98.5t-98 -36.5q-62 0 -99 36.5t-37 98.5h41q1 -41 25 -69
t70 -28q45 0 69 28t25 69h41z" />
    <glyph glyph-name="Gdotaccent" unicode="&#x120;" horiz-adv-x="702" 
d="M365 -10q-93 0 -161 41.5t-105 117.5t-37 181t38.5 181t107 117.5t158.5 41.5q101 0 163.5 -40t94.5 -122l-46 -24q-23 69 -76 104.5t-136 35.5q-74 0 -131 -35.5t-88.5 -101.5t-31.5 -157t29.5 -157t86 -101.5t136.5 -35.5q55 0 95.5 17.5t67 46t39.5 65t13 74.5v37
h-224v47h271v-323h-41l-2 143l9 -2q-24 -70 -82.5 -110.5t-147.5 -40.5zM359 841q19 0 30.5 -11.5t11.5 -30.5t-11.5 -30.5t-30.5 -11.5t-30.5 11.5t-11.5 30.5t11.5 30.5t30.5 11.5z" />
    <glyph glyph-name="gdotaccent" unicode="&#x121;" horiz-adv-x="515" 
d="M503 592l12 -44h-2h-3q-49 0 -75.5 -25.5t-26.5 -71.5l-32 16q0 38 16 66t44 43.5t63 15.5h2.5h1.5zM345 51q74 0 116 -31t42 -83q0 -46 -30.5 -80t-83.5 -53t-121 -19q-113 0 -173 38.5t-60 96.5q0 42 30.5 73t89.5 37l-4 -9q-32 9 -56.5 30t-24.5 60q0 42 31.5 68.5
t83.5 30.5l53 -18h-21q-46 -3 -73.5 -22.5t-27.5 -50.5q0 -34 26.5 -51t67.5 -17h135zM268 -173q59 0 101 14t64.5 37.5t22.5 52.5q0 35 -30.5 56t-92.5 21h-142q-47 0 -78 -22t-31 -59q0 -45 49.5 -72.5t136.5 -27.5zM261 510q59 0 104.5 -20.5t70.5 -57t25 -85.5
q0 -48 -25 -85.5t-70.5 -58t-104.5 -20.5q-95 0 -148.5 45.5t-53.5 118.5q0 49 25.5 85.5t71 57t105.5 20.5zM261 469q-66 0 -108 -33.5t-42 -88.5t42 -89t108 -34t107.5 34t41.5 89t-41.5 88.5t-107.5 33.5zM260 681q19 0 30.5 -11.5t11.5 -30.5t-11.5 -30.5t-30.5 -11.5
t-30.5 11.5t-11.5 30.5t11.5 30.5t30.5 11.5z" />
    <glyph glyph-name="uni0122" unicode="&#x122;" horiz-adv-x="702" 
d="M365 -10q-93 0 -161 41.5t-105 117.5t-37 181t38.5 181t107 117.5t158.5 41.5q101 0 163.5 -40t94.5 -122l-46 -24q-23 69 -76 104.5t-136 35.5q-74 0 -131 -35.5t-88.5 -101.5t-31.5 -157t29.5 -157t86 -101.5t136.5 -35.5q55 0 95.5 17.5t67 46t39.5 65t13 74.5v37
h-224v47h271v-323h-41l-2 143l9 -2q-24 -70 -82.5 -110.5t-147.5 -40.5zM406 -72l-60 -161h-40l47 161h53z" />
    <glyph glyph-name="uni0123" unicode="&#x123;" horiz-adv-x="515" 
d="M503 592l12 -44h-2h-3q-49 0 -75.5 -25.5t-26.5 -71.5l-32 16q0 38 16 66t44 43.5t63 15.5h2.5h1.5zM345 51q74 0 116 -31t42 -83q0 -46 -30.5 -80t-83.5 -53t-121 -19q-113 0 -173 38.5t-60 96.5q0 42 30.5 73t89.5 37l-4 -9q-32 9 -56.5 30t-24.5 60q0 42 31.5 68.5
t83.5 30.5l53 -18h-21q-46 -3 -73.5 -22.5t-27.5 -50.5q0 -34 26.5 -51t67.5 -17h135zM268 -173q59 0 101 14t64.5 37.5t22.5 52.5q0 35 -30.5 56t-92.5 21h-142q-47 0 -78 -22t-31 -59q0 -45 49.5 -72.5t136.5 -27.5zM261 510q59 0 104.5 -20.5t70.5 -57t25 -85.5
q0 -48 -25 -85.5t-70.5 -58t-104.5 -20.5q-95 0 -148.5 45.5t-53.5 118.5q0 49 25.5 85.5t71 57t105.5 20.5zM261 469q-66 0 -108 -33.5t-42 -88.5t42 -89t108 -34t107.5 34t41.5 89t-41.5 88.5t-107.5 33.5zM343 778l-48 -191h-55l65 191h38z" />
    <glyph glyph-name="Hcircumflex" unicode="&#x124;" horiz-adv-x="716" 
d="M612 660v-660h-50v660h50zM154 660v-660h-50v660h50zM586 359v-47h-456v47h456zM496 743h-48l-90 117l-90 -117h-48l110 151h56z" />
    <glyph glyph-name="hcircumflex" unicode="&#x125;" horiz-adv-x="598" 
d="M89 0v730h50v-332q22 53 71 82.5t113 29.5q56 0 99 -20.5t67.5 -62t24.5 -102.5v-325h-50v309q0 81 -40.5 119.5t-105.5 38.5q-47 0 -87.5 -22t-66 -63t-25.5 -100v-282h-50zM252 779h-48l-90 117l-90 -117h-48l110 151h56z" />
    <glyph glyph-name="Hbar" unicode="&#x126;" horiz-adv-x="716" 
d="M612 660v-660h-50v660h50zM154 660v-660h-50v660h50zM586 359v-47h-456v47h456zM689 529v-43h-661v43h661z" />
    <glyph glyph-name="hbar" unicode="&#x127;" horiz-adv-x="598" 
d="M3 617h305v-38h-305v38zM89 0v730h50v-332q22 53 71 82.5t113 29.5q56 0 99 -20.5t67.5 -62t24.5 -102.5v-325h-50v309q0 81 -40.5 119.5t-105.5 38.5q-47 0 -87.5 -22t-66 -63t-25.5 -100v-282h-50z" />
    <glyph glyph-name="Itilde" unicode="&#x128;" horiz-adv-x="258" 
d="M154 660v-660h-50v660h50zM299 861q-4 -36 -16.5 -61t-32.5 -37t-49 -12q-27 0 -46 10.5t-34 23.5t-29.5 23.5t-32.5 10.5q-26 0 -39.5 -18.5t-20.5 -50.5h-40q6 55 31.5 82.5t69.5 27.5q25 0 44 -10.5t34 -23.5t29.5 -23.5t32.5 -10.5q27 0 40 18t19 51h40z" />
    <glyph glyph-name="itilde" unicode="&#x129;" horiz-adv-x="229" 
d="M139 500v-500h-50v500h50zM284 701q-4 -36 -16.5 -61t-32.5 -37t-49 -12q-27 0 -46 10.5t-34 23.5t-29.5 23.5t-32.5 10.5q-26 0 -39.5 -18.5t-20.5 -50.5h-40q6 55 31.5 82.5t69.5 27.5q25 0 44 -10.5t34 -23.5t29.5 -23.5t32.5 -10.5q27 0 40 18t19 51h40z" />
    <glyph glyph-name="Imacron" unicode="&#x12a;" horiz-adv-x="258" 
d="M237 802v-42h-217v42h217zM154 660v-660h-50v660h50z" />
    <glyph glyph-name="imacron" unicode="&#x12b;" horiz-adv-x="229" 
d="M205 642v-42h-182v42h182zM139 500v-500h-50v500h50z" />
    <glyph glyph-name="Ibreve" unicode="&#x12c;" horiz-adv-x="258" 
d="M154 660v-660h-50v660h50zM264 874q0 -62 -36.5 -98.5t-98.5 -36.5t-98.5 36.5t-36.5 98.5h41q0 -41 24.5 -69t69.5 -28q46 0 70 28t24 69h41z" />
    <glyph glyph-name="ibreve" unicode="&#x12d;" horiz-adv-x="229" 
d="M139 500v-500h-50v500h50zM249 714q0 -62 -36.5 -98.5t-98.5 -36.5t-98.5 36.5t-36.5 98.5h41q0 -41 24.5 -69t69.5 -28q46 0 70 28t24 69h41z" />
    <glyph glyph-name="Iogonek" unicode="&#x12e;" horiz-adv-x="258" 
d="M109 -221q-26 0 -48 11t-35 30.5t-13 47.5q0 30 13 54.5t38 46.5t59 45l31 -14q-55 -37 -77 -67t-22 -59q0 -27 16.5 -42.5t43.5 -15.5q15 0 27.5 3.5t20.5 8.5l11 -33q-11 -6 -27 -11t-38 -5zM154 660v-660h-50v660h50z" />
    <glyph glyph-name="iogonek" unicode="&#x12f;" horiz-adv-x="229" 
d="M95 -221q-27 0 -49 11t-34.5 30.5t-12.5 47.5q0 30 13 54.5t37.5 46.5t59.5 45l30 -14q-54 -37 -76.5 -67t-22.5 -59q0 -27 16.5 -42.5t43.5 -15.5q15 0 27.5 3.5t20.5 8.5l11 -33q-11 -6 -27 -11t-37 -5zM114 597q-19 0 -30.5 11.5t-11.5 30.5t11.5 30.5t30.5 11.5
t30.5 -11.5t11.5 -30.5t-11.5 -30.5t-30.5 -11.5zM139 500v-500h-50v500h50z" />
    <glyph glyph-name="Idotaccent" unicode="&#x130;" horiz-adv-x="258" 
d="M154 660v-660h-50v660h50zM129 841q19 0 30.5 -11.5t11.5 -30.5t-11.5 -30.5t-30.5 -11.5t-30.5 11.5t-11.5 30.5t11.5 30.5t30.5 11.5z" />
    <glyph glyph-name="dotlessi" unicode="&#x131;" horiz-adv-x="229" 
d="M139 500v-500h-50v500h50z" />
    <glyph glyph-name="IJ" unicode="&#x132;" horiz-adv-x="792" 
d="M154 660v-660h-50v660h50zM695 660v-442q0 -106 -54.5 -167t-155.5 -61q-70 0 -115.5 27.5t-64 76.5t-7.5 116l47 11q-12 -91 22.5 -138t116.5 -47q87 0 124 51t37 142v431h50z" />
    <glyph glyph-name="ij" unicode="&#x133;" horiz-adv-x="457" 
d="M114 597q-19 0 -30.5 11.5t-11.5 30.5t11.5 30.5t30.5 11.5t30.5 -11.5t11.5 -30.5t-11.5 -30.5t-30.5 -11.5zM139 500v-500h-50v500h50zM343 597q-19 0 -30.5 11.5t-11.5 30.5t11.5 30.5t30.5 11.5t30.5 -11.5t11.5 -30.5t-11.5 -30.5t-30.5 -11.5zM368 500v-557
q0 -55 -20.5 -90t-53 -51.5t-68.5 -16.5q-27 0 -49.5 8t-37.5 20l12 47q13 -12 32.5 -19.5t41.5 -7.5q42 0 67.5 28.5t25.5 85.5v553h50z" />
    <glyph glyph-name="Jcircumflex" unicode="&#x134;" horiz-adv-x="534" 
d="M437 660v-442q0 -106 -54.5 -167t-155.5 -61q-70 0 -115.5 27.5t-64 76.5t-7.5 116l47 11q-12 -91 22.5 -138t116.5 -47q87 0 124 51t37 142v431h50zM550 743h-48l-90 117l-90 -117h-48l110 151h56z" />
    <glyph glyph-name="jcircumflex" unicode="&#x135;" horiz-adv-x="229" 
d="M139 500v-557q0 -55 -20.5 -90t-53 -51.5t-68.5 -16.5q-27 0 -49.5 8t-37.5 20l12 47q13 -12 32.5 -19.5t41.5 -7.5q42 0 67.5 28.5t25.5 85.5v553h50zM253 579h-46l-93 122l-93 -122h-46l111 156h56z" />
    <glyph glyph-name="uni0136" unicode="&#x136;" horiz-adv-x="610" 
d="M582 660l-276 -283l-8 -8l-170 -173v68l388 396h66zM154 660v-660h-50v660h50zM310 410l279 -410h-61l-258 380zM374 -72l-60 -161h-40l47 161h53z" />
    <glyph glyph-name="uni0137" unicode="&#x137;" horiz-adv-x="527" 
d="M501 500l-220 -212l-12 -12l-155 -150v64l322 310h65zM139 730v-730h-50v730h50zM284 314l225 -314h-61l-205 285zM339 -72l-60 -161h-40l47 161h53z" />
    <glyph glyph-name="kgreenlandic" unicode="&#x138;" horiz-adv-x="527" 
d="M501 500l-220 -212l-12 -12l-155 -150v64l322 310h65zM139 500v-500h-50v500h50zM284 314l225 -314h-61l-205 285z" />
    <glyph glyph-name="Lacute" unicode="&#x139;" horiz-adv-x="572" 
d="M154 46h396v-46h-446v660h50v-614zM174 897h53l-83 -154h-41z" />
    <glyph glyph-name="lacute" unicode="&#x13a;" horiz-adv-x="274" 
d="M135 730v-612q0 -46 16 -65t50 -19q21 0 33.5 3t29.5 10l-7 -44q-13 -6 -29.5 -9.5t-36.5 -3.5q-53 0 -79.5 30.5t-26.5 95.5v614h50zM81 797l57 133h52l-69 -133h-40z" />
    <glyph glyph-name="uni013B" unicode="&#x13b;" horiz-adv-x="572" 
d="M154 46h396v-46h-446v660h50v-614zM373 -72l-60 -161h-40l47 161h53z" />
    <glyph glyph-name="uni013C" unicode="&#x13c;" horiz-adv-x="274" 
d="M135 730v-612q0 -46 16 -65t50 -19q21 0 33.5 3t29.5 10l-7 -44q-13 -6 -29.5 -9.5t-36.5 -3.5q-53 0 -79.5 30.5t-26.5 95.5v614h50zM206 -72l-60 -161h-40l47 161h53z" />
    <glyph glyph-name="Lcaron" unicode="&#x13d;" horiz-adv-x="572" 
d="M374 660l-35 -197h-36l23 197h48zM154 46h396v-46h-446v660h50v-614z" />
    <glyph glyph-name="lcaron" unicode="&#x13e;" horiz-adv-x="278" 
d="M278 730l-35 -197h-36l23 197h48zM135 730v-612q0 -46 16 -65t50 -19q21 0 33.5 3t29.5 10l-7 -44q-13 -6 -29.5 -9.5t-36.5 -3.5q-53 0 -79.5 30.5t-26.5 95.5v614h50z" />
    <glyph glyph-name="Ldot" unicode="&#x13f;" horiz-adv-x="583" 
d="M154 46h396v-46h-446v660h50v-614zM425 394q20 0 32.5 -12.5t12.5 -32.5t-12.5 -32.5t-32.5 -12.5t-32.5 12.5t-12.5 32.5t12.5 32.5t32.5 12.5z" />
    <glyph glyph-name="ldot" unicode="&#x140;" horiz-adv-x="354" 
d="M135 730v-612q0 -46 16 -65t50 -19q21 0 33.5 3t29.5 10l-7 -44q-13 -6 -29.5 -9.5t-36.5 -3.5q-53 0 -79.5 30.5t-26.5 95.5v614h50zM289 408q20 0 32.5 -12.5t12.5 -32.5t-12.5 -32.5t-32.5 -12.5t-32.5 12.5t-12.5 32.5t12.5 32.5t32.5 12.5z" />
    <glyph glyph-name="Lslash" unicode="&#x141;" horiz-adv-x="593" 
d="M366 461v-53l-344 -204v53zM175 46h396v-46h-446v660h50v-614z" />
    <glyph glyph-name="lslash" unicode="&#x142;" horiz-adv-x="328" 
d="M296 479v-52l-137 -93l-3 -2l-129 -85v52l121 81l6 3zM174 730v-612q0 -46 16 -65t49 -19q21 0 33.5 3t30.5 10l-7 -44q-13 -6 -30 -9.5t-37 -3.5q-53 0 -79 30.5t-26 95.5v614h50z" />
    <glyph glyph-name="Nacute" unicode="&#x143;" horiz-adv-x="715" 
d="M611 660v-660h-62l-350 518l-49 85h-1l3 -80v-523h-48v660h63l349 -517l50 -86v0l-2 80v523h47zM408 897h53l-83 -154h-41z" />
    <glyph glyph-name="nacute" unicode="&#x144;" horiz-adv-x="598" 
d="M89 0v500h45l4 -125l-8 7q14 41 42 70t67 43.5t84 14.5q56 0 99 -21t67.5 -62t24.5 -103v-324h-50v308q0 82 -40.5 120t-105.5 38q-47 0 -87.5 -21.5t-66 -62.5t-25.5 -100v-282h-50zM357 741h55l-94 -158h-41z" />
    <glyph glyph-name="uni0145" unicode="&#x145;" horiz-adv-x="715" 
d="M611 660v-660h-62l-350 518l-49 85h-1l3 -80v-523h-48v660h63l349 -517l50 -86v0l-2 80v523h47zM400 -72l-60 -161h-40l47 161h53z" />
    <glyph glyph-name="uni0146" unicode="&#x146;" horiz-adv-x="598" 
d="M89 0v500h45l4 -125l-8 7q14 41 42 70t67 43.5t84 14.5q56 0 99 -21t67.5 -62t24.5 -103v-324h-50v308q0 82 -40.5 120t-105.5 38q-47 0 -87.5 -21.5t-66 -62.5t-25.5 -100v-282h-50zM359 -72l-60 -161h-40l47 161h53z" />
    <glyph glyph-name="Ncaron" unicode="&#x147;" horiz-adv-x="715" 
d="M611 660v-660h-62l-350 518l-49 85h-1l3 -80v-523h-48v660h63l349 -517l50 -86v0l-2 80v523h47zM501 894l-110 -151h-56l-110 151h48l90 -117l90 117h48z" />
    <glyph glyph-name="ncaron" unicode="&#x148;" horiz-adv-x="598" 
d="M89 0v500h45l4 -125l-8 7q14 41 42 70t67 43.5t84 14.5q56 0 99 -21t67.5 -62t24.5 -103v-324h-50v308q0 82 -40.5 120t-105.5 38q-47 0 -87.5 -21.5t-66 -62.5t-25.5 -100v-282h-50zM445 738l-111 -155h-56l-111 155h46l93 -121l93 121h46z" />
    <glyph glyph-name="Eng" unicode="&#x14a;" horiz-adv-x="715" 
d="M469 -215q-26 0 -49 8t-38 20l12 47q13 -12 32.5 -19.5t41.5 -7.5q42 0 69 28.5t27 85.5v55l-365 516l-49 88h-1l3 -83v-523h-48v660h63l365 -517l32 -56v0v573h47v-717q0 -55 -20 -90t-52.5 -51.5t-69.5 -16.5z" />
    <glyph glyph-name="eng" unicode="&#x14b;" horiz-adv-x="598" 
d="M514 189v-246q0 -55 -20.5 -90t-53 -51.5t-68.5 -16.5q-27 0 -49.5 8t-37.5 20l11 47q14 -12 33.5 -19.5t41.5 -7.5q42 0 67.5 28.5t25.5 85.5v242h50zM89 0v500h45l4 -125l-8 7q14 41 42 70t67 43.5t84 14.5q56 0 99 -21t67.5 -62t24.5 -103v-324h-50v308
q0 82 -40.5 120t-105.5 38q-47 0 -87.5 -21.5t-66 -62.5t-25.5 -100v-282h-50z" />
    <glyph glyph-name="Omacron" unicode="&#x14c;" horiz-adv-x="732" 
d="M366 670q94 0 162 -41.5t105 -117.5t37 -181t-37 -181t-105 -117.5t-162 -41.5q-93 0 -161.5 41.5t-105.5 117.5t-37 181t37 181t105.5 117.5t161.5 41.5zM366 624q-77 0 -133.5 -35.5t-87 -101.5t-30.5 -157t30.5 -157t87 -101.5t133.5 -35.5q78 0 134 35.5t87 101.5
t31 157t-31 157t-87 101.5t-134 35.5zM521 802v-42h-310v42h310z" />
    <glyph glyph-name="omacron" unicode="&#x14d;" horiz-adv-x="585" 
d="M293 510q70 0 123.5 -31t84 -89.5t30.5 -139.5t-30.5 -139.5t-84 -89.5t-123.5 -31t-123.5 31t-84 89.5t-30.5 139.5t30.5 139.5t84 89.5t123.5 31zM293 467q-57 0 -99 -26t-65.5 -74.5t-23.5 -116.5q0 -67 23.5 -116t65.5 -75t99 -26t99 26t65.5 75t23.5 116
q0 68 -23.5 116.5t-65.5 74.5t-99 26zM448 640v-42h-310v42h310z" />
    <glyph glyph-name="Obreve" unicode="&#x14e;" horiz-adv-x="732" 
d="M366 670q94 0 162 -41.5t105 -117.5t37 -181t-37 -181t-105 -117.5t-162 -41.5q-93 0 -161.5 41.5t-105.5 117.5t-37 181t37 181t105.5 117.5t161.5 41.5zM366 624q-77 0 -133.5 -35.5t-87 -101.5t-30.5 -157t30.5 -157t87 -101.5t133.5 -35.5q78 0 134 35.5t87 101.5
t31 157t-31 157t-87 101.5t-134 35.5zM501 874q0 -62 -36.5 -98.5t-98.5 -36.5t-98.5 36.5t-36.5 98.5h41q0 -41 24.5 -69t69.5 -28q46 0 70 28t24 69h41z" />
    <glyph glyph-name="obreve" unicode="&#x14f;" horiz-adv-x="585" 
d="M293 510q70 0 123.5 -31t84 -89.5t30.5 -139.5t-30.5 -139.5t-84 -89.5t-123.5 -31t-123.5 31t-84 89.5t-30.5 139.5t30.5 139.5t84 89.5t123.5 31zM293 467q-57 0 -99 -26t-65.5 -74.5t-23.5 -116.5q0 -67 23.5 -116t65.5 -75t99 -26t99 26t65.5 75t23.5 116
q0 68 -23.5 116.5t-65.5 74.5t-99 26zM428 712q0 -62 -36.5 -98.5t-98.5 -36.5t-98.5 36.5t-36.5 98.5h41q0 -41 24.5 -69t69.5 -28q46 0 70 28t24 69h41z" />
    <glyph glyph-name="Ohungarumlaut" unicode="&#x150;" horiz-adv-x="732" 
d="M366 670q94 0 162 -41.5t105 -117.5t37 -181t-37 -181t-105 -117.5t-162 -41.5q-93 0 -161.5 41.5t-105.5 117.5t-37 181t37 181t105.5 117.5t161.5 41.5zM366 624q-77 0 -133.5 -35.5t-87 -101.5t-30.5 -157t30.5 -157t87 -101.5t133.5 -35.5q78 0 134 35.5t87 101.5
t31 157t-31 157t-87 101.5t-134 35.5zM486 897h53l-83 -154h-41zM337 897h53l-83 -154h-41z" />
    <glyph glyph-name="ohungarumlaut" unicode="&#x151;" horiz-adv-x="585" 
d="M293 510q70 0 123.5 -31t84 -89.5t30.5 -139.5t-30.5 -139.5t-84 -89.5t-123.5 -31t-123.5 31t-84 89.5t-30.5 139.5t30.5 139.5t84 89.5t123.5 31zM293 467q-57 0 -99 -26t-65.5 -74.5t-23.5 -116.5q0 -67 23.5 -116t65.5 -75t99 -26t99 26t65.5 75t23.5 116
q0 68 -23.5 116.5t-65.5 74.5t-99 26zM334 581l80 158h55l-93 -158h-42zM179 581l80 158h55l-93 -158h-42z" />
    <glyph glyph-name="OE" unicode="&#x152;" horiz-adv-x="1066" 
d="M635 46h389v-46h-435v140q-30 -74 -88.5 -112t-144.5 -38q-90 0 -155.5 41.5t-102 117.5t-36.5 181t36 181t102 117.5t158 41.5q85 0 143 -37.5t88 -111.5v139h419v-46h-373v-255h294v-47h-294v-266zM358 36q75 0 126.5 33.5t78 99t26.5 161.5t-26.5 161.5t-78 99
t-126.5 33.5t-130 -35.5t-84 -101.5t-29 -157t29 -157t84 -101.5t130 -35.5z" />
    <glyph glyph-name="oe" unicode="&#x153;" horiz-adv-x="982" 
d="M293 -10q-70 0 -123.5 31t-84 89.5t-30.5 139.5t30.5 139.5t84 89.5t123.5 31q78 0 136.5 -42t82.5 -120h-13q23 78 80.5 120t132.5 42q68 0 116.5 -30t74.5 -83.5t26 -123.5q0 -9 -0.5 -17.5t-2.5 -15.5h-414v45h368q-2 83 -47 132t-122 49q-53 0 -94 -25.5t-64.5 -74
t-23.5 -116.5q0 -67 24 -116t66.5 -74.5t98.5 -25.5q57 0 99 25t65 69l39 -23q-18 -36 -47.5 -61.5t-69 -39.5t-85.5 -14q-78 0 -137.5 41.5t-82.5 120.5l13 1q-23 -79 -81.5 -121t-137.5 -42zM293 33q57 0 99 26t65.5 75t23.5 116q0 68 -23.5 116.5t-65.5 74.5t-99 26
t-99 -26t-65.5 -74.5t-23.5 -116.5q0 -67 23.5 -116t65.5 -75t99 -26z" />
    <glyph glyph-name="Racute" unicode="&#x154;" horiz-adv-x="640" 
d="M349 660q99 0 157.5 -50t58.5 -137t-59 -135.5t-158 -48.5l-5 -3h-189v-286h-50v660h245zM348 333q80 0 122.5 36t42.5 104t-42.5 104.5t-122.5 36.5h-194v-281h194zM387 324l213 -324h-59l-196 296zM353 897h53l-83 -154h-41z" />
    <glyph glyph-name="racute" unicode="&#x155;" horiz-adv-x="378" 
d="M89 0v500h42l6 -104q19 52 61 83t101 31q20 0 36 -4t27 -13l-12 -44q-11 7 -24 11t-39 4q-38 0 -72 -23.5t-55 -65t-21 -95.5v-280h-50zM271 741h55l-94 -158h-41z" />
    <glyph glyph-name="uni0156" unicode="&#x156;" horiz-adv-x="640" 
d="M349 660q99 0 157.5 -50t58.5 -137t-59 -135.5t-158 -48.5l-5 -3h-189v-286h-50v660h245zM348 333q80 0 122.5 36t42.5 104t-42.5 104.5t-122.5 36.5h-194v-281h194zM387 324l213 -324h-59l-196 296zM382 -72l-60 -161h-40l47 161h53z" />
    <glyph glyph-name="uni0157" unicode="&#x157;" horiz-adv-x="378" 
d="M89 0v500h42l6 -104q19 52 61 83t101 31q20 0 36 -4t27 -13l-12 -44q-11 7 -24 11t-39 4q-38 0 -72 -23.5t-55 -65t-21 -95.5v-280h-50zM140 -72l-60 -161h-40l47 161h53z" />
    <glyph glyph-name="Rcaron" unicode="&#x158;" horiz-adv-x="640" 
d="M349 660q99 0 157.5 -50t58.5 -137t-59 -135.5t-158 -48.5l-5 -3h-189v-286h-50v660h245zM348 333q80 0 122.5 36t42.5 104t-42.5 104.5t-122.5 36.5h-194v-281h194zM387 324l213 -324h-59l-196 296zM446 894l-110 -151h-56l-110 151h48l90 -117l90 117h48z" />
    <glyph glyph-name="rcaron" unicode="&#x159;" horiz-adv-x="378" 
d="M89 0v500h42l6 -104q19 52 61 83t101 31q20 0 36 -4t27 -13l-12 -44q-11 7 -24 11t-39 4q-38 0 -72 -23.5t-55 -65t-21 -95.5v-280h-50zM359 738l-111 -155h-56l-111 155h46l93 -121l93 121h46z" />
    <glyph glyph-name="Sacute" unicode="&#x15a;" horiz-adv-x="619" 
d="M308 670q91 0 153.5 -36t95.5 -110l-42 -32q-29 70 -81.5 101t-129.5 31q-59 0 -100 -18.5t-62 -49t-21 -68.5q0 -45 29.5 -75.5t110.5 -48.5l129 -28q97 -21 136.5 -60t39.5 -102q0 -54 -31.5 -96t-86.5 -65t-129 -23q-71 0 -126.5 19.5t-93.5 55t-56 85.5l44 34
q14 -47 46.5 -80.5t80.5 -50.5t107 -17q56 0 100 15.5t68.5 45.5t24.5 74q0 42 -29.5 71t-104.5 44l-136 30q-63 14 -102 37t-56.5 55.5t-17.5 73.5q0 51 29 93.5t83 68.5t128 26zM354 897h53l-83 -154h-41z" />
    <glyph glyph-name="sacute" unicode="&#x15b;" horiz-adv-x="505" 
d="M258 -10q-76 0 -134.5 31t-82.5 89l43 29q18 -50 64.5 -77.5t113.5 -27.5q66 0 103.5 26t37.5 69q0 29 -18.5 50.5t-69.5 32.5l-117 25q-71 15 -102 48.5t-31 81.5q0 40 24 72t66.5 51.5t99.5 19.5q75 0 124 -29.5t69 -88.5l-42 -27q-15 53 -55.5 77t-95.5 24
q-42 0 -73.5 -12.5t-49 -34t-17.5 -49.5q0 -29 20 -52.5t71 -34.5l120 -26q71 -15 99 -45.5t28 -75.5q0 -44 -24 -77.5t-68 -51t-103 -17.5zM303 741h55l-94 -158h-41z" />
    <glyph glyph-name="Scircumflex" unicode="&#x15c;" horiz-adv-x="619" 
d="M308 670q91 0 153.5 -36t95.5 -110l-42 -32q-29 70 -81.5 101t-129.5 31q-59 0 -100 -18.5t-62 -49t-21 -68.5q0 -45 29.5 -75.5t110.5 -48.5l129 -28q97 -21 136.5 -60t39.5 -102q0 -54 -31.5 -96t-86.5 -65t-129 -23q-71 0 -126.5 19.5t-93.5 55t-56 85.5l44 34
q14 -47 46.5 -80.5t80.5 -50.5t107 -17q56 0 100 15.5t68.5 45.5t24.5 74q0 42 -29.5 71t-104.5 44l-136 30q-63 14 -102 37t-56.5 55.5t-17.5 73.5q0 51 29 93.5t83 68.5t128 26zM447 743h-48l-90 117l-90 -117h-48l110 151h56z" />
    <glyph glyph-name="scircumflex" unicode="&#x15d;" horiz-adv-x="505" 
d="M258 -10q-76 0 -134.5 31t-82.5 89l43 29q18 -50 64.5 -77.5t113.5 -27.5q66 0 103.5 26t37.5 69q0 29 -18.5 50.5t-69.5 32.5l-117 25q-71 15 -102 48.5t-31 81.5q0 40 24 72t66.5 51.5t99.5 19.5q75 0 124 -29.5t69 -88.5l-42 -27q-15 53 -55.5 77t-95.5 24
q-42 0 -73.5 -12.5t-49 -34t-17.5 -49.5q0 -29 20 -52.5t71 -34.5l120 -26q71 -15 99 -45.5t28 -75.5q0 -44 -24 -77.5t-68 -51t-103 -17.5zM391 579h-46l-93 122l-93 -122h-46l111 156h56z" />
    <glyph glyph-name="Scedilla" unicode="&#x15e;" horiz-adv-x="619" 
d="M308 670q91 0 153.5 -36t95.5 -110l-42 -32q-29 70 -81.5 101t-129.5 31q-59 0 -100 -18.5t-62 -49t-21 -68.5q0 -45 29.5 -75.5t110.5 -48.5l129 -28q97 -21 136.5 -60t39.5 -102q0 -54 -31.5 -96t-86.5 -65t-129 -23q-71 0 -126.5 19.5t-93.5 55t-56 85.5l44 34
q14 -47 46.5 -80.5t80.5 -50.5t107 -17q56 0 100 15.5t68.5 45.5t24.5 74q0 42 -29.5 71t-104.5 44l-136 30q-63 14 -102 37t-56.5 55.5t-17.5 73.5q0 51 29 93.5t83 68.5t128 26zM267 4l32 13q56 -22 78.5 -52.5t22.5 -70.5q0 -44 -29.5 -73.5t-75.5 -29.5q-31 0 -54 9
t-41 26l14 37q17 -15 35 -23.5t41 -8.5q30 0 49 19t19 53q0 29 -19.5 51.5t-71.5 49.5z" />
    <glyph glyph-name="scedilla" unicode="&#x15f;" horiz-adv-x="505" 
d="M258 -10q-76 0 -134.5 31t-82.5 89l43 29q18 -50 64.5 -77.5t113.5 -27.5q66 0 103.5 26t37.5 69q0 29 -18.5 50.5t-69.5 32.5l-117 25q-71 15 -102 48.5t-31 81.5q0 40 24 72t66.5 51.5t99.5 19.5q75 0 124 -29.5t69 -88.5l-42 -27q-15 53 -55.5 77t-95.5 24
q-42 0 -73.5 -12.5t-49 -34t-17.5 -49.5q0 -29 20 -52.5t71 -34.5l120 -26q71 -15 99 -45.5t28 -75.5q0 -44 -24 -77.5t-68 -51t-103 -17.5zM212 4l32 13q56 -22 78.5 -52.5t22.5 -70.5q0 -44 -29.5 -73.5t-75.5 -29.5q-31 0 -54 9t-41 26l14 37q17 -15 35 -23.5t41 -8.5
q30 0 49 19t19 53q0 29 -19.5 51.5t-71.5 49.5z" />
    <glyph glyph-name="Scaron" unicode="&#x160;" horiz-adv-x="619" 
d="M308 670q91 0 153.5 -36t95.5 -110l-42 -32q-29 70 -81.5 101t-129.5 31q-59 0 -100 -18.5t-62 -49t-21 -68.5q0 -45 29.5 -75.5t110.5 -48.5l129 -28q97 -21 136.5 -60t39.5 -102q0 -54 -31.5 -96t-86.5 -65t-129 -23q-71 0 -126.5 19.5t-93.5 55t-56 85.5l44 34
q14 -47 46.5 -80.5t80.5 -50.5t107 -17q56 0 100 15.5t68.5 45.5t24.5 74q0 42 -29.5 71t-104.5 44l-136 30q-63 14 -102 37t-56.5 55.5t-17.5 73.5q0 51 29 93.5t83 68.5t128 26zM447 894l-110 -151h-56l-110 151h48l90 -117l90 117h48z" />
    <glyph glyph-name="scaron" unicode="&#x161;" horiz-adv-x="505" 
d="M258 -10q-76 0 -134.5 31t-82.5 89l43 29q18 -50 64.5 -77.5t113.5 -27.5q66 0 103.5 26t37.5 69q0 29 -18.5 50.5t-69.5 32.5l-117 25q-71 15 -102 48.5t-31 81.5q0 40 24 72t66.5 51.5t99.5 19.5q75 0 124 -29.5t69 -88.5l-42 -27q-15 53 -55.5 77t-95.5 24
q-42 0 -73.5 -12.5t-49 -34t-17.5 -49.5q0 -29 20 -52.5t71 -34.5l120 -26q71 -15 99 -45.5t28 -75.5q0 -44 -24 -77.5t-68 -51t-103 -17.5zM391 738l-111 -155h-56l-111 155h46l93 -121l93 121h46z" />
    <glyph glyph-name="uni0162" unicode="&#x162;" horiz-adv-x="576" 
d="M263 0l20 17q56 -22 76.5 -52.5t20.5 -70.5q0 -44 -29.5 -73.5t-76.5 -29.5q-30 0 -53 9t-41 26l14 37q16 -15 34 -23.5t41 -8.5q30 0 49.5 19t19.5 53q0 29 -16 51.5t-59 45.5zM554 660v-46h-241v-614h-50v614h-241v46h532z" />
    <glyph glyph-name="uni0163" unicode="&#x163;" horiz-adv-x="377" 
d="M172 639v-507q0 -47 22.5 -71.5t65.5 -24.5q28 0 49.5 9.5t38.5 27.5l19 -41q-19 -19 -48 -30.5t-65 -11.5q-39 0 -69 14.5t-46.5 44.5t-16.5 76v500zM359 500v-43h-337v43h337zM193 4l32 13q56 -22 78.5 -52.5t22.5 -70.5q0 -44 -29.5 -73.5t-75.5 -29.5q-31 0 -54 9
t-41 26l14 37q17 -15 35 -23.5t41 -8.5q30 0 49 19t19 53q0 29 -19.5 51.5t-71.5 49.5z" />
    <glyph glyph-name="Tcaron" unicode="&#x164;" horiz-adv-x="576" 
d="M554 660v-46h-241v-614h-50v614h-241v46h532zM426 894l-110 -151h-56l-110 151h48l90 -117l90 117h48z" />
    <glyph glyph-name="tcaron" unicode="&#x165;" horiz-adv-x="377" 
d="M319 767l-35 -197h-36l23 197h48zM172 639v-507q0 -47 22.5 -71.5t65.5 -24.5q28 0 49.5 9.5t38.5 27.5l19 -41q-19 -19 -48 -30.5t-65 -11.5q-39 0 -69 14.5t-46.5 44.5t-16.5 76v500zM359 500v-43h-337v43h337z" />
    <glyph glyph-name="Tbar" unicode="&#x166;" horiz-adv-x="576" 
d="M554 660v-46h-241v-614h-50v614h-241v46h532zM476 353v-46h-375v46h375z" />
    <glyph glyph-name="tbar" unicode="&#x167;" horiz-adv-x="377" 
d="M360 348v-39h-338v39h338zM172 639v-507q0 -47 22.5 -71.5t65.5 -24.5q28 0 49.5 9.5t38.5 27.5l19 -41q-19 -19 -48 -30.5t-65 -11.5q-39 0 -69 14.5t-46.5 44.5t-16.5 76v500zM359 500v-43h-337v43h337z" />
    <glyph glyph-name="Utilde" unicode="&#x168;" horiz-adv-x="687" 
d="M598 660v-419q0 -123 -66.5 -187t-187.5 -64t-188 64t-67 187v419h50v-409q0 -106 52.5 -160.5t152.5 -54.5t152 54.5t52 160.5v409h50zM514 829q-4 -36 -16.5 -61t-32.5 -37t-49 -12q-27 0 -46 10.5t-34 23.5t-29.5 23.5t-32.5 10.5q-26 0 -39.5 -18.5t-20.5 -50.5h-40
q6 55 31.5 82.5t69.5 27.5q25 0 44 -10.5t34 -23.5t29.5 -23.5t32.5 -10.5q27 0 40 18t19 51h40z" />
    <glyph glyph-name="utilde" unicode="&#x169;" horiz-adv-x="592" 
d="M265 -10q-52 0 -93 19t-64.5 59.5t-23.5 101.5v330h50v-318q0 -78 37.5 -113t105.5 -35q40 0 72.5 14t55.5 39t35.5 57.5t12.5 68.5v287h50v-500h-45l-2 103q-22 -53 -72 -83t-119 -30zM464 686q-4 -36 -16.5 -61t-32.5 -37t-49 -12q-27 0 -46 10.5t-34 23.5t-29.5 23.5
t-32.5 10.5q-26 0 -39.5 -18.5t-20.5 -50.5h-40q6 55 31.5 82.5t69.5 27.5q25 0 44 -10.5t34 -23.5t29.5 -23.5t32.5 -10.5q27 0 40 18t19 51h40z" />
    <glyph glyph-name="Umacron" unicode="&#x16a;" horiz-adv-x="687" 
d="M598 660v-419q0 -123 -66.5 -187t-187.5 -64t-188 64t-67 187v419h50v-409q0 -106 52.5 -160.5t152.5 -54.5t152 54.5t52 160.5v409h50zM499 770v-42h-310v42h310z" />
    <glyph glyph-name="umacron" unicode="&#x16b;" horiz-adv-x="592" 
d="M265 -10q-52 0 -93 19t-64.5 59.5t-23.5 101.5v330h50v-318q0 -78 37.5 -113t105.5 -35q40 0 72.5 14t55.5 39t35.5 57.5t12.5 68.5v287h50v-500h-45l-2 103q-22 -53 -72 -83t-119 -30zM449 627v-42h-310v42h310z" />
    <glyph glyph-name="Ubreve" unicode="&#x16c;" horiz-adv-x="687" 
d="M598 660v-419q0 -123 -66.5 -187t-187.5 -64t-188 64t-67 187v419h50v-409q0 -106 52.5 -160.5t152.5 -54.5t152 54.5t52 160.5v409h50zM479 842q0 -62 -36.5 -98.5t-98.5 -36.5t-98.5 36.5t-36.5 98.5h41q0 -41 24.5 -69t69.5 -28q46 0 70 28t24 69h41z" />
    <glyph glyph-name="ubreve" unicode="&#x16d;" horiz-adv-x="592" 
d="M265 -10q-52 0 -93 19t-64.5 59.5t-23.5 101.5v330h50v-318q0 -78 37.5 -113t105.5 -35q40 0 72.5 14t55.5 39t35.5 57.5t12.5 68.5v287h50v-500h-45l-2 103q-22 -53 -72 -83t-119 -30zM429 699q0 -62 -36.5 -98.5t-98.5 -36.5t-98.5 36.5t-36.5 98.5h41q0 -41 24.5 -69
t69.5 -28q46 0 70 28t24 69h41z" />
    <glyph glyph-name="Uring" unicode="&#x16e;" horiz-adv-x="687" 
d="M598 660v-419q0 -123 -66.5 -187t-187.5 -64t-188 64t-67 187v419h50v-409q0 -106 52.5 -160.5t152.5 -54.5t152 54.5t52 160.5v409h50zM341 879q47 0 76 -28t29 -72t-29 -72.5t-76 -28.5q-46 0 -75.5 28.5t-29.5 72.5t29.5 72t75.5 28zM341 846q-29 0 -48.5 -19
t-19.5 -48t19.5 -48.5t48.5 -19.5q30 0 49.5 19.5t19.5 48.5t-19.5 48t-49.5 19z" />
    <glyph glyph-name="uring" unicode="&#x16f;" horiz-adv-x="592" 
d="M265 -10q-52 0 -93 19t-64.5 59.5t-23.5 101.5v330h50v-318q0 -78 37.5 -113t105.5 -35q40 0 72.5 14t55.5 39t35.5 57.5t12.5 68.5v287h50v-500h-45l-2 103q-22 -53 -72 -83t-119 -30zM291 761q47 0 76 -28t29 -72t-29 -72.5t-76 -28.5q-46 0 -75.5 28.5t-29.5 72.5
t29.5 72t75.5 28zM291 728q-29 0 -48.5 -19t-19.5 -48t19.5 -48.5t48.5 -19.5q30 0 49.5 19.5t19.5 48.5t-19.5 48t-49.5 19z" />
    <glyph glyph-name="Uhungarumlaut" unicode="&#x170;" horiz-adv-x="687" 
d="M598 660v-419q0 -123 -66.5 -187t-187.5 -64t-188 64t-67 187v419h50v-409q0 -106 52.5 -160.5t152.5 -54.5t152 54.5t52 160.5v409h50zM464 865h53l-83 -154h-41zM315 865h53l-83 -154h-41z" />
    <glyph glyph-name="uhungarumlaut" unicode="&#x171;" horiz-adv-x="592" 
d="M265 -10q-52 0 -93 19t-64.5 59.5t-23.5 101.5v330h50v-318q0 -78 37.5 -113t105.5 -35q40 0 72.5 14t55.5 39t35.5 57.5t12.5 68.5v287h50v-500h-45l-2 103q-22 -53 -72 -83t-119 -30zM335 568l80 158h55l-93 -158h-42zM180 568l80 158h55l-93 -158h-42z" />
    <glyph glyph-name="Uogonek" unicode="&#x172;" horiz-adv-x="687" 
d="M598 660v-419q0 -123 -66.5 -187t-187.5 -64t-188 64t-67 187v419h50v-409q0 -106 52.5 -160.5t152.5 -54.5t152 54.5t52 160.5v409h50zM385 -212q-47 0 -75.5 24.5t-28.5 66.5q0 49 33.5 81.5t109.5 61.5l31 -13q-55 -21 -83.5 -41.5t-39 -40.5t-10.5 -43q0 -29 19 -44
t48 -15q21 0 36.5 4.5t26.5 11.5l9 -35q-13 -7 -31.5 -12.5t-44.5 -5.5z" />
    <glyph glyph-name="uogonek" unicode="&#x173;" horiz-adv-x="592" 
d="M458 -221q-26 0 -47.5 11t-35 30.5t-13.5 47.5q0 30 13 54.5t38 46.5t60 45l30 -14q-54 -37 -76.5 -67t-22.5 -59q0 -27 16.5 -42.5t43.5 -15.5q15 0 27.5 3.5t20.5 8.5l11 -33q-11 -6 -27 -11t-38 -5zM265 -10q-52 0 -93 19t-64.5 59.5t-23.5 101.5v330h50v-318
q0 -78 37.5 -113t105.5 -35q40 0 72.5 14t55.5 39t35.5 57.5t12.5 68.5v287h50v-500h-45l-2 103q-22 -53 -72 -83t-119 -30z" />
    <glyph glyph-name="Wcircumflex" unicode="&#x174;" horiz-adv-x="937" 
d="M236 0l-206 660h52l186 -614l172 614h58l173 -615l186 615h50l-206 -660h-62l-133 463l-37 143h-1l-37 -143l-133 -463h-62zM607 743h-48l-90 117l-90 -117h-48l110 151h56z" />
    <glyph glyph-name="wcircumflex" unicode="&#x175;" horiz-adv-x="809" 
d="M726 500h55l-170 -500h-50l-158 435l-155 -435h-50l-170 500h55l141 -440l155 440h51l156 -440zM544 579h-46l-93 122l-93 -122h-46l111 156h56z" />
    <glyph glyph-name="Ycircumflex" unicode="&#x176;" horiz-adv-x="544" 
d="M531 660l-234 -403v-257h-50v257l-234 403h59l129 -226l71 -125l71 125l129 226h59zM410 714h-48l-90 117l-90 -117h-48l110 151h56z" />
    <glyph glyph-name="ycircumflex" unicode="&#x177;" horiz-adv-x="500" 
d="M483 500l-242 -592q-18 -46 -39 -73t-47 -38.5t-60 -11.5q-30 0 -54.5 9t-41.5 25l16 43q15 -18 36 -25.5t43 -7.5q32 0 57 18.5t47 72.5l33 80l-53 124l-158 376h57l153 -379l25 -67l27 72l147 374h54zM391 564h-46l-93 122l-93 -122h-46l111 156h56z" />
    <glyph glyph-name="Ydieresis" unicode="&#x178;" horiz-adv-x="544" 
d="M531 660l-234 -403v-257h-50v257l-234 403h59l129 -226l71 -125l71 125l129 226h59zM177 802q18 0 29 -11t11 -30q0 -18 -11 -29t-29 -11t-29.5 11t-11.5 29q0 19 11.5 30t29.5 11zM366 802q19 0 30 -11t11 -30q0 -18 -11 -29t-30 -11q-18 0 -29 11t-11 29q0 19 11 30
t29 11z" />
    <glyph glyph-name="Zacute" unicode="&#x179;" horiz-adv-x="593" 
d="M88 28l-9 18h474v-46h-510v44l449 588l9 -18h-449v46h485v-44zM337 897h53l-83 -154h-41z" />
    <glyph glyph-name="zacute" unicode="&#x17a;" horiz-adv-x="505" 
d="M49 0v39l294 361l52 58l-79 -1h-270v43h405v-39l-285 -352l-60 -67l90 1h267v-43h-414zM296 741h55l-94 -158h-41z" />
    <glyph glyph-name="Zdotaccent" unicode="&#x17b;" horiz-adv-x="593" 
d="M88 28l-9 18h474v-46h-510v44l449 588l9 -18h-449v46h485v-44zM292 841q19 0 30.5 -11.5t11.5 -30.5t-11.5 -30.5t-30.5 -11.5t-30.5 11.5t-11.5 30.5t11.5 30.5t30.5 11.5z" />
    <glyph glyph-name="zdotaccent" unicode="&#x17c;" horiz-adv-x="505" 
d="M49 0v39l294 361l52 58l-79 -1h-270v43h405v-39l-285 -352l-60 -67l90 1h267v-43h-414zM245 681q19 0 30.5 -11.5t11.5 -30.5t-11.5 -30.5t-30.5 -11.5t-30.5 11.5t-11.5 30.5t11.5 30.5t30.5 11.5z" />
    <glyph glyph-name="Zcaron" unicode="&#x17d;" horiz-adv-x="593" 
d="M88 28l-9 18h474v-46h-510v44l449 588l9 -18h-449v46h485v-44zM430 894l-110 -151h-56l-110 151h48l90 -117l90 117h48z" />
    <glyph glyph-name="zcaron" unicode="&#x17e;" horiz-adv-x="505" 
d="M49 0v39l294 361l52 58l-79 -1h-270v43h405v-39l-285 -352l-60 -67l90 1h267v-43h-414zM384 738l-111 -155h-56l-111 155h46l93 -121l93 121h46z" />
    <glyph glyph-name="longs" unicode="&#x17f;" horiz-adv-x="236" 
d="M85 0v588q0 46 13 79t40.5 50.5t69.5 17.5q28 0 44.5 -6.5t26.5 -17.5l-11 -40q-11 10 -22 14.5t-29 4.5q-40 0 -61 -26t-21 -80v-584h-50z" />
    <glyph glyph-name="uni018E" unicode="&#x18e;" horiz-adv-x="612" 
d="M508 0h-466v46h416v266h-316v47h316v255h-400v46h450v-660z" />
    <glyph glyph-name="uni018F" unicode="&#x18f;" horiz-adv-x="694" 
d="M338 -10q-85 0 -149.5 38.5t-100 110.5t-35.5 171q0 9 0.5 18t1.5 18h543v-49h-516l27 21q-1 -6 -1 -11.5v-11.5q0 -81 30 -139t83 -89t120 -31q74 0 127.5 34.5t82.5 100t29 159.5q0 91 -29.5 157t-83.5 101.5t-129 35.5q-82 0 -139.5 -41.5t-84.5 -118.5l-51 19
q22 60 61.5 101.5t94 63.5t119.5 22q90 0 156 -41.5t102 -117.5t36 -181t-36 -181t-102.5 -117.5t-155.5 -41.5z" />
    <glyph glyph-name="florin" unicode="&#x192;" horiz-adv-x="446" 
d="M366 735q26 0 42 -4t36 -15l-7 -45q-29 19 -63 19q-41 0 -65 -26t-32 -80l-89 -565q-12 -73 -47.5 -110t-94.5 -37q-25 0 -41.5 4.5t-37.5 16.5l9 43q27 -19 66 -19t63 26.5t32 79.5l89 565q12 74 46.5 110.5t93.5 36.5zM405 400v-43h-364v43h364z" />
    <glyph glyph-name="Ohorn" unicode="&#x1a0;" horiz-adv-x="732" 
d="M630 768q0 -70 -44.5 -108.5t-124.5 -38.5l-15 39q74 0 105.5 28.5t31.5 79.5h47zM366 670q94 0 162 -41.5t105 -117.5t37 -181t-37 -181t-105 -117.5t-162 -41.5q-93 0 -161.5 41.5t-105.5 117.5t-37 181t37 181t105.5 117.5t161.5 41.5zM366 624q-77 0 -133.5 -35.5
t-87 -101.5t-30.5 -157t30.5 -157t87 -101.5t133.5 -35.5q78 0 134 35.5t87 101.5t31 157t-31 157t-87 101.5t-134 35.5z" />
    <glyph glyph-name="ohorn" unicode="&#x1a1;" horiz-adv-x="585" 
d="M293 510q70 0 123.5 -31t84 -89.5t30.5 -139.5t-30.5 -139.5t-84 -89.5t-123.5 -31t-123.5 31t-84 89.5t-30.5 139.5t30.5 139.5t84 89.5t123.5 31zM293 467q-57 0 -99 -26t-65.5 -74.5t-23.5 -116.5q0 -67 23.5 -116t65.5 -75t99 -26t99 26t65.5 75t23.5 116
q0 68 -23.5 116.5t-65.5 74.5t-99 26zM366 462v38q48 0 73 28t25 85h44q0 -74 -37 -112.5t-105 -38.5z" />
    <glyph glyph-name="Uhorn" unicode="&#x1af;" horiz-adv-x="687" 
d="M598 660v-419q0 -123 -66.5 -187t-187.5 -64t-188 64t-67 187v419h50v-409q0 -106 52.5 -160.5t152.5 -54.5t152 54.5t52 160.5v409h50zM703 768q0 -70 -38.5 -109t-103.5 -39l-11 40q55 0 80.5 28.5t25.5 79.5h47z" />
    <glyph glyph-name="uhorn" unicode="&#x1b0;" horiz-adv-x="593" 
d="M265 -10q-52 0 -93 19t-64.5 59.5t-23.5 101.5v330h50v-318q0 -78 37.5 -113t105.5 -35q40 0 72.5 14t55.5 39t35.5 57.5t12.5 68.5v287h50v-500h-45l-2 103q-22 -53 -72 -83t-119 -30zM463 465v38q48 0 73 28t25 85h44q0 -74 -37 -112.5t-105 -38.5z" />
    <glyph glyph-name="uni01C4" unicode="&#x1c4;" horiz-adv-x="1281" 
d="M312 660q158 0 243.5 -83.5t85.5 -241.5q0 -163 -85.5 -249t-243.5 -86h-208v660h208zM316 46q132 0 202.5 75t70.5 214q0 134 -70.5 206.5t-202.5 72.5h-162v-568h162zM775 28l-9 18h474v-46h-510v44l449 588l9 -18h-449v46h485v-44zM1118 894l-110 -151h-56l-110 151
h48l90 -117l90 117h48z" />
    <glyph glyph-name="uni01C5" unicode="&#x1c5;" horiz-adv-x="1205" 
d="M312 660q158 0 243.5 -83.5t85.5 -241.5q0 -163 -85.5 -249t-243.5 -86h-208v660h208zM316 46q132 0 202.5 75t70.5 214q0 134 -70.5 206.5t-202.5 72.5h-162v-568h162zM749 0v39l294 361l52 58l-79 -1h-270v43h405v-39l-285 -352l-60 -67l90 1h267v-43h-414zM1084 738
l-111 -155h-56l-111 155h46l93 -121l93 121h46z" />
    <glyph glyph-name="uni01C6" unicode="&#x1c6;" horiz-adv-x="1112" 
d="M284 -10q-65 0 -117 31t-81.5 89.5t-29.5 139.5q0 83 31 141t84 88.5t118 30.5q69 0 118.5 -37t66.5 -102l-6 -5v364h50v-730h-45l-3 139l6 2q-9 -48 -36.5 -82t-68 -51.5t-87.5 -17.5zM290 34q53 0 93 26.5t62.5 76.5t22.5 117q0 66 -22.5 113.5t-62 73t-91.5 25.5
q-86 0 -136 -58t-50 -158t49.5 -158t134.5 -58zM656 0v39l294 361l52 58l-79 -1h-270v43h405v-39l-285 -352l-60 -67l90 1h267v-43h-414zM991 738l-111 -155h-56l-111 155h46l93 -121l93 121h46z" />
    <glyph glyph-name="uni01C7" unicode="&#x1c7;" horiz-adv-x="1106" 
d="M154 46h396v-46h-446v660h50v-614zM1009 660v-442q0 -106 -54.5 -167t-155.5 -61q-70 0 -115.5 27.5t-64 76.5t-7.5 116l47 11q-12 -91 22.5 -138t116.5 -47q87 0 124 51t37 142v431h50z" />
    <glyph glyph-name="uni01C8" unicode="&#x1c8;" horiz-adv-x="801" 
d="M154 46h396v-46h-446v660h50v-614zM686 597q-19 0 -30.5 11.5t-11.5 30.5t11.5 30.5t30.5 11.5t30.5 -11.5t11.5 -30.5t-11.5 -30.5t-30.5 -11.5zM711 500v-557q0 -55 -20.5 -90t-53 -51.5t-68.5 -16.5q-27 0 -49.5 8t-37.5 20l12 47q13 -12 32.5 -19.5t41.5 -7.5
q42 0 67.5 28.5t25.5 85.5v553h50z" />
    <glyph glyph-name="uni01C9" unicode="&#x1c9;" horiz-adv-x="502" 
d="M135 730v-612q0 -46 16 -65t50 -19q21 0 33.5 3t29.5 10l-7 -44q-13 -6 -29.5 -9.5t-36.5 -3.5q-53 0 -79.5 30.5t-26.5 95.5v614h50zM388 597q-19 0 -30.5 11.5t-11.5 30.5t11.5 30.5t30.5 11.5t30.5 -11.5t11.5 -30.5t-11.5 -30.5t-30.5 -11.5zM413 500v-557
q0 -55 -20.5 -90t-53 -51.5t-68.5 -16.5q-27 0 -49.5 8t-37.5 20l12 47q13 -12 32.5 -19.5t41.5 -7.5q42 0 67.5 28.5t25.5 85.5v553h50z" />
    <glyph glyph-name="uni01CA" unicode="&#x1ca;" horiz-adv-x="1249" 
d="M611 660v-660h-62l-350 518l-49 85h-1l3 -80v-523h-48v660h63l349 -517l50 -86v0l-2 80v523h47zM1152 660v-442q0 -106 -54.5 -167t-155.5 -61q-70 0 -115.5 27.5t-64 76.5t-7.5 116l47 11q-12 -91 22.5 -138t116.5 -47q87 0 124 51t37 142v431h50z" />
    <glyph glyph-name="uni01CB" unicode="&#x1cb;" horiz-adv-x="944" 
d="M611 660v-660h-62l-350 518l-49 85h-1l3 -80v-523h-48v660h63l349 -517l50 -86v0l-2 80v523h47zM829 597q-19 0 -30.5 11.5t-11.5 30.5t11.5 30.5t30.5 11.5t30.5 -11.5t11.5 -30.5t-11.5 -30.5t-30.5 -11.5zM854 500v-557q0 -55 -20.5 -90t-53 -51.5t-68.5 -16.5
q-27 0 -49.5 8t-37.5 20l12 47q13 -12 32.5 -19.5t41.5 -7.5q42 0 67.5 28.5t25.5 85.5v553h50z" />
    <glyph glyph-name="uni01CC" unicode="&#x1cc;" horiz-adv-x="826" 
d="M89 0v500h45l4 -125l-8 7q14 41 42 70t67 43.5t84 14.5q56 0 99 -21t67.5 -62t24.5 -103v-324h-50v308q0 82 -40.5 120t-105.5 38q-47 0 -87.5 -21.5t-66 -62.5t-25.5 -100v-282h-50zM712 597q-19 0 -30.5 11.5t-11.5 30.5t11.5 30.5t30.5 11.5t30.5 -11.5t11.5 -30.5
t-11.5 -30.5t-30.5 -11.5zM737 500v-557q0 -55 -20.5 -90t-53 -51.5t-68.5 -16.5q-27 0 -49.5 8t-37.5 20l12 47q13 -12 32.5 -19.5t41.5 -7.5q42 0 67.5 28.5t25.5 85.5v553h50z" />
    <glyph glyph-name="uni01DD" unicode="&#x1dd;" horiz-adv-x="557" 
d="M269 510q70 0 122 -31t81.5 -89.5t29.5 -139.5t-29.5 -139.5t-81 -89.5t-118.5 -31q-68 0 -117 32t-75.5 85.5t-26.5 119.5q0 10 0.5 18.5t1.5 14.5h415v-45h-393l25 7q0 -53 21.5 -96t60 -67.5t89.5 -24.5q54 0 94 25.5t62.5 74.5t22.5 116q0 68 -22 116.5t-63 74
t-98 25.5q-60 0 -103 -27.5t-67 -71.5l-39 23q18 35 48.5 62t71 42.5t88.5 15.5z" />
    <glyph glyph-name="Gcaron" unicode="&#x1e6;" horiz-adv-x="702" 
d="M365 -10q-93 0 -161 41.5t-105 117.5t-37 181t38.5 181t107 117.5t158.5 41.5q101 0 163.5 -40t94.5 -122l-46 -24q-23 69 -76 104.5t-136 35.5q-74 0 -131 -35.5t-88.5 -101.5t-31.5 -157t29.5 -157t86 -101.5t136.5 -35.5q55 0 95.5 17.5t67 46t39.5 65t13 74.5v37
h-224v47h271v-323h-41l-2 143l9 -2q-24 -70 -82.5 -110.5t-147.5 -40.5zM497 894l-110 -151h-56l-110 151h48l90 -117l90 117h48z" />
    <glyph glyph-name="gcaron" unicode="&#x1e7;" horiz-adv-x="515" 
d="M503 592l12 -44h-2h-3q-49 0 -75.5 -25.5t-26.5 -71.5l-32 16q0 38 16 66t44 43.5t63 15.5h2.5h1.5zM345 51q74 0 116 -31t42 -83q0 -46 -30.5 -80t-83.5 -53t-121 -19q-113 0 -173 38.5t-60 96.5q0 42 30.5 73t89.5 37l-4 -9q-32 9 -56.5 30t-24.5 60q0 42 31.5 68.5
t83.5 30.5l53 -18h-21q-46 -3 -73.5 -22.5t-27.5 -50.5q0 -34 26.5 -51t67.5 -17h135zM268 -173q59 0 101 14t64.5 37.5t22.5 52.5q0 35 -30.5 56t-92.5 21h-142q-47 0 -78 -22t-31 -59q0 -45 49.5 -72.5t136.5 -27.5zM261 510q59 0 104.5 -20.5t70.5 -57t25 -85.5
q0 -48 -25 -85.5t-70.5 -58t-104.5 -20.5q-95 0 -148.5 45.5t-53.5 118.5q0 49 25.5 85.5t71 57t105.5 20.5zM261 469q-66 0 -108 -33.5t-42 -88.5t42 -89t108 -34t107.5 34t41.5 89t-41.5 88.5t-107.5 33.5zM399 738l-111 -155h-56l-111 155h46l93 -121l93 121h46z" />
    <glyph glyph-name="uni01EA" unicode="&#x1ea;" horiz-adv-x="732" 
d="M366 670q94 0 162 -41.5t105 -117.5t37 -181t-37 -181t-105 -117.5t-162 -41.5q-93 0 -161.5 41.5t-105.5 117.5t-37 181t37 181t105.5 117.5t161.5 41.5zM366 624q-77 0 -133.5 -35.5t-87 -101.5t-30.5 -157t30.5 -157t87 -101.5t133.5 -35.5q78 0 134 35.5t87 101.5
t31 157t-31 157t-87 101.5t-134 35.5zM387 -218q-47 0 -75.5 24.5t-28.5 66.5q0 49 33.5 81.5t109.5 61.5l31 -13q-55 -21 -83.5 -41.5t-39 -40.5t-10.5 -43q0 -29 19 -44t48 -15q21 0 36.5 4.5t26.5 11.5l9 -35q-13 -7 -31.5 -12.5t-44.5 -5.5z" />
    <glyph glyph-name="uni01EB" unicode="&#x1eb;" horiz-adv-x="585" 
d="M293 510q70 0 123.5 -31t84 -89.5t30.5 -139.5t-30.5 -139.5t-84 -89.5t-123.5 -31t-123.5 31t-84 89.5t-30.5 139.5t30.5 139.5t84 89.5t123.5 31zM293 467q-57 0 -99 -26t-65.5 -74.5t-23.5 -116.5q0 -67 23.5 -116t65.5 -75t99 -26t99 26t65.5 75t23.5 116
q0 68 -23.5 116.5t-65.5 74.5t-99 26zM326 -210q-47 0 -75.5 24.5t-28.5 66.5q0 49 33.5 81.5t109.5 61.5l31 -13q-55 -21 -83.5 -41.5t-39 -40.5t-10.5 -43q0 -29 19 -44t48 -15q21 0 36.5 4.5t26.5 11.5l9 -35q-13 -7 -31.5 -12.5t-44.5 -5.5z" />
    <glyph glyph-name="uni01F1" unicode="&#x1f1;" horiz-adv-x="1281" 
d="M312 660q158 0 243.5 -83.5t85.5 -241.5q0 -163 -85.5 -249t-243.5 -86h-208v660h208zM316 46q132 0 202.5 75t70.5 214q0 134 -70.5 206.5t-202.5 72.5h-162v-568h162zM775 28l-9 18h474v-46h-510v44l449 588l9 -18h-449v46h485v-44z" />
    <glyph glyph-name="uni01F2" unicode="&#x1f2;" horiz-adv-x="1205" 
d="M312 660q158 0 243.5 -83.5t85.5 -241.5q0 -163 -85.5 -249t-243.5 -86h-208v660h208zM316 46q132 0 202.5 75t70.5 214q0 134 -70.5 206.5t-202.5 72.5h-162v-568h162zM749 0v39l294 361l52 58l-79 -1h-270v43h405v-39l-285 -352l-60 -67l90 1h267v-43h-414z" />
    <glyph glyph-name="uni01F3" unicode="&#x1f3;" horiz-adv-x="1112" 
d="M284 -10q-65 0 -117 31t-81.5 89.5t-29.5 139.5q0 83 31 141t84 88.5t118 30.5q69 0 118.5 -37t66.5 -102l-6 -5v364h50v-730h-45l-3 139l6 2q-9 -48 -36.5 -82t-68 -51.5t-87.5 -17.5zM290 34q53 0 93 26.5t62.5 76.5t22.5 117q0 66 -22.5 113.5t-62 73t-91.5 25.5
q-86 0 -136 -58t-50 -158t49.5 -158t134.5 -58zM656 0v39l294 361l52 58l-79 -1h-270v43h405v-39l-285 -352l-60 -67l90 1h267v-43h-414z" />
    <glyph glyph-name="Aringacute" unicode="&#x1fa;" horiz-adv-x="625" 
d="M606 0h-53l-83 207h-315l-83 -207h-53l264 660h59zM173 253h279l-140 358zM310 828q47 0 76 -28t29 -72t-29 -72.5t-76 -28.5q-46 0 -75.5 28.5t-29.5 72.5t29.5 72t75.5 28zM310 795q-29 0 -48.5 -19t-19.5 -48t19.5 -48.5t48.5 -19.5q30 0 49.5 19.5t19.5 48.5
t-19.5 48t-49.5 19zM358 1042h53l-83 -154h-41z" />
    <glyph glyph-name="aringacute" unicode="&#x1fb;" horiz-adv-x="543" 
d="M395 329q0 65 -35 101t-100 36q-57 0 -98 -24.5t-61 -81.5l-41 26q22 59 73.5 91.5t127.5 32.5q55 0 96.5 -19.5t64.5 -57.5t23 -95v-250q0 -53 48 -53q21 0 36 7l-3 -40q-17 -9 -44 -9q-23 0 -43 9t-32.5 30t-12.5 57v27l14 1q-9 -43 -39.5 -71.5t-70.5 -42t-80 -13.5
q-47 0 -84 15t-58 43.5t-21 70.5q0 56 37.5 90.5t105.5 47.5l207 41v-42l-182 -36q-59 -12 -88 -35t-29 -62q0 -42 31 -65.5t88 -23.5q29 0 59 8t55.5 25.5t40.5 44t15 64.5v153zM257 776q47 0 76 -28t29 -72t-29 -72.5t-76 -28.5q-46 0 -75.5 28.5t-29.5 72.5t29.5 72
t75.5 28zM257 743q-29 0 -48.5 -19t-19.5 -48t19.5 -48.5t48.5 -19.5q30 0 49.5 19.5t19.5 48.5t-19.5 48t-49.5 19zM239 812l57 133h52l-69 -133h-40z" />
    <glyph glyph-name="AEacute" unicode="&#x1fc;" horiz-adv-x="922" 
d="M495 46h385v-46h-435v232h-249l-140 -232h-57l402 660h464v-46h-370v-256h288v-46h-288v-266zM223 279h222v335h-19zM515 897h53l-83 -154h-41z" />
    <glyph glyph-name="aeacute" unicode="&#x1fd;" horiz-adv-x="885" 
d="M220 -10q-48 0 -85 15t-58.5 43.5t-21.5 70.5q0 56 37 90.5t104 47.5l199 38v34q0 65 -36.5 101t-99.5 36q-54 0 -95.5 -24.5t-62.5 -81.5l-41 26q16 40 44 67.5t67.5 42t86.5 14.5q73 0 121 -35.5t57 -109.5l-14 3q15 44 44.5 76t70 49t86.5 17q65 0 111.5 -29.5
t71 -81.5t24.5 -118q0 -10 -0.5 -18.5t-1.5 -14.5h-383v-10q3 -96 51.5 -150t131.5 -54q53 0 94 25t64 69l40 -23q-19 -36 -48.5 -61.5t-67.5 -39.5t-81 -14q-79 0 -136 41t-78 116l15 5q-3 -42 -23 -72.5t-50.5 -50.5t-66 -29.5t-70.5 -9.5zM225 34q31 0 61 8.5t55 26
t39.5 45.5t14.5 66v72l-172 -32q-59 -12 -88 -35t-29 -62q0 -42 31 -65.5t88 -23.5zM448 292h333q-1 52 -20.5 91t-54.5 61t-84 22q-70 0 -117 -45.5t-57 -128.5zM489 741h55l-94 -158h-41z" />
    <glyph glyph-name="Oslashacute" unicode="&#x1fe;" horiz-adv-x="732" 
d="M201 61l-29 25l357 503l31 -23zM87 -34l85 120l29 -25l-67 -95h-47zM560 566l-31 23l69 97h48zM366 670q94 0 162 -41.5t105 -117.5t37 -181t-37 -181t-105 -117.5t-162 -41.5q-93 0 -161.5 41.5t-105.5 117.5t-37 181t37 181t105.5 117.5t161.5 41.5zM366 624
q-77 0 -133.5 -35.5t-87 -101.5t-30.5 -157t30.5 -157t87 -101.5t133.5 -35.5q78 0 134 35.5t87 101.5t31 157t-31 157t-87 101.5t-134 35.5zM411 897h53l-83 -154h-41z" />
    <glyph glyph-name="oslashacute" unicode="&#x1ff;" horiz-adv-x="585" 
d="M293 510q70 0 123.5 -31t84 -89.5t30.5 -139.5t-30.5 -139.5t-84 -89.5t-123.5 -31t-123.5 31t-84 89.5t-30.5 139.5t30.5 139.5t84 89.5t123.5 31zM293 467q-57 0 -99 -26t-65.5 -74.5t-23.5 -116.5q0 -67 23.5 -116t65.5 -75t99 -26t99 26t65.5 75t23.5 116
q0 68 -23.5 116.5t-65.5 74.5t-99 26zM54 -30l434 560h44l-434 -560h-44zM344 739h55l-94 -158h-41z" />
    <glyph glyph-name="uni0200" unicode="&#x200;" horiz-adv-x="625" 
d="M606 0h-53l-83 207h-315l-83 -207h-53l264 660h59zM173 253h279l-140 358zM193 897l71 -154h-42l-82 154h53zM343 897l70 -154h-41l-82 154h53z" />
    <glyph glyph-name="uni0201" unicode="&#x201;" horiz-adv-x="543" 
d="M395 329q0 65 -35 101t-100 36q-57 0 -98 -24.5t-61 -81.5l-41 26q22 59 73.5 91.5t127.5 32.5q55 0 96.5 -19.5t64.5 -57.5t23 -95v-250q0 -53 48 -53q21 0 36 7l-3 -40q-17 -9 -44 -9q-23 0 -43 9t-32.5 30t-12.5 57v27l14 1q-9 -43 -39.5 -71.5t-70.5 -42t-80 -13.5
q-47 0 -84 15t-58 43.5t-21 70.5q0 56 37.5 90.5t105.5 47.5l207 41v-42l-182 -36q-59 -12 -88 -35t-29 -62q0 -42 31 -65.5t88 -23.5q29 0 59 8t55.5 25.5t40.5 44t15 64.5v153zM214 583h-42l-93 158h54zM369 583h-42l-93 158h54z" />
    <glyph glyph-name="uni0202" unicode="&#x202;" horiz-adv-x="625" 
d="M606 0h-53l-83 207h-315l-83 -207h-53l264 660h59zM173 253h279l-140 358zM448 735h-41q0 41 -24 69t-70 28q-45 0 -69.5 -28t-24.5 -69h-41q0 61 36.5 98t98.5 37t98.5 -37t36.5 -98z" />
    <glyph glyph-name="uni0203" unicode="&#x203;" horiz-adv-x="543" 
d="M395 329q0 65 -35 101t-100 36q-57 0 -98 -24.5t-61 -81.5l-41 26q22 59 73.5 91.5t127.5 32.5q55 0 96.5 -19.5t64.5 -57.5t23 -95v-250q0 -53 48 -53q21 0 36 7l-3 -40q-17 -9 -44 -9q-23 0 -43 9t-32.5 30t-12.5 57v27l14 1q-9 -43 -39.5 -71.5t-70.5 -42t-80 -13.5
q-47 0 -84 15t-58 43.5t-21 70.5q0 56 37.5 90.5t105.5 47.5l207 41v-42l-182 -36q-59 -12 -88 -35t-29 -62q0 -42 31 -65.5t88 -23.5q29 0 59 8t55.5 25.5t40.5 44t15 64.5v153zM395 575h-41q0 41 -24 69t-70 28q-45 0 -69.5 -28t-24.5 -69h-41q0 61 36.5 98t98.5 37
t98.5 -37t36.5 -98z" />
    <glyph glyph-name="uni0204" unicode="&#x204;" horiz-adv-x="612" 
d="M104 0v660h451v-46h-401v-255h317v-47h-317v-266h417v-46h-467zM210 897l71 -154h-42l-82 154h53zM360 897l70 -154h-41l-82 154h53z" />
    <glyph glyph-name="uni0205" unicode="&#x205;" horiz-adv-x="557" 
d="M293 -10q-69 0 -123 31t-84.5 89.5t-30.5 139.5t30.5 139.5t83 89.5t118.5 31q68 0 116 -30t74 -83.5t26 -123.5q0 -9 -0.5 -17.5t-1.5 -15.5h-415v45h393l-25 -7q-1 86 -45.5 137t-122.5 51q-54 0 -95 -25.5t-64 -74t-23 -116.5q0 -67 23.5 -116t66 -74.5t98.5 -25.5
q58 0 99.5 25t64.5 69l40 -23q-18 -36 -48 -61.5t-69 -39.5t-86 -14zM236 583h-42l-93 158h54zM391 583h-42l-93 158h54z" />
    <glyph glyph-name="uni0206" unicode="&#x206;" horiz-adv-x="612" 
d="M104 0v660h451v-46h-401v-255h317v-47h-317v-266h417v-46h-467zM465 735h-41q0 41 -24 69t-70 28q-45 0 -69.5 -28t-24.5 -69h-41q0 61 36.5 98t98.5 37t98.5 -37t36.5 -98z" />
    <glyph glyph-name="uni0207" unicode="&#x207;" horiz-adv-x="557" 
d="M293 -10q-69 0 -123 31t-84.5 89.5t-30.5 139.5t30.5 139.5t83 89.5t118.5 31q68 0 116 -30t74 -83.5t26 -123.5q0 -9 -0.5 -17.5t-1.5 -15.5h-415v45h393l-25 -7q-1 86 -45.5 137t-122.5 51q-54 0 -95 -25.5t-64 -74t-23 -116.5q0 -67 23.5 -116t66 -74.5t98.5 -25.5
q58 0 99.5 25t64.5 69l40 -23q-18 -36 -48 -61.5t-69 -39.5t-86 -14zM417 575h-41q0 41 -24 69t-70 28q-45 0 -69.5 -28t-24.5 -69h-41q0 61 36.5 98t98.5 37t98.5 -37t36.5 -98z" />
    <glyph glyph-name="uni0208" unicode="&#x208;" horiz-adv-x="258" 
d="M154 660v-660h-50v660h50zM9 897l71 -154h-42l-82 154h53zM159 897l70 -154h-41l-82 154h53z" />
    <glyph glyph-name="uni0209" unicode="&#x209;" horiz-adv-x="229" 
d="M139 500v-500h-50v500h50zM68 583h-42l-93 158h54zM223 583h-42l-93 158h54z" />
    <glyph glyph-name="uni020A" unicode="&#x20a;" horiz-adv-x="258" 
d="M154 660v-660h-50v660h50zM264 735h-41q0 41 -24 69t-70 28q-45 0 -69.5 -28t-24.5 -69h-41q0 61 36.5 98t98.5 37t98.5 -37t36.5 -98z" />
    <glyph glyph-name="uni020B" unicode="&#x20b;" horiz-adv-x="229" 
d="M139 500v-500h-50v500h50zM249 575h-41q0 41 -24 69t-70 28q-45 0 -69.5 -28t-24.5 -69h-41q0 61 36.5 98t98.5 37t98.5 -37t36.5 -98z" />
    <glyph glyph-name="uni020C" unicode="&#x20c;" horiz-adv-x="732" 
d="M366 670q94 0 162 -41.5t105 -117.5t37 -181t-37 -181t-105 -117.5t-162 -41.5q-93 0 -161.5 41.5t-105.5 117.5t-37 181t37 181t105.5 117.5t161.5 41.5zM366 624q-77 0 -133.5 -35.5t-87 -101.5t-30.5 -157t30.5 -157t87 -101.5t133.5 -35.5q78 0 134 35.5t87 101.5
t31 157t-31 157t-87 101.5t-134 35.5zM246 897l71 -154h-42l-82 154h53zM396 897l70 -154h-41l-82 154h53z" />
    <glyph glyph-name="uni020D" unicode="&#x20d;" horiz-adv-x="585" 
d="M293 510q70 0 123.5 -31t84 -89.5t30.5 -139.5t-30.5 -139.5t-84 -89.5t-123.5 -31t-123.5 31t-84 89.5t-30.5 139.5t30.5 139.5t84 89.5t123.5 31zM293 467q-57 0 -99 -26t-65.5 -74.5t-23.5 -116.5q0 -67 23.5 -116t65.5 -75t99 -26t99 26t65.5 75t23.5 116
q0 68 -23.5 116.5t-65.5 74.5t-99 26zM247 581h-42l-93 158h54zM402 581h-42l-93 158h54z" />
    <glyph glyph-name="uni020E" unicode="&#x20e;" horiz-adv-x="732" 
d="M366 670q94 0 162 -41.5t105 -117.5t37 -181t-37 -181t-105 -117.5t-162 -41.5q-93 0 -161.5 41.5t-105.5 117.5t-37 181t37 181t105.5 117.5t161.5 41.5zM366 624q-77 0 -133.5 -35.5t-87 -101.5t-30.5 -157t30.5 -157t87 -101.5t133.5 -35.5q78 0 134 35.5t87 101.5
t31 157t-31 157t-87 101.5t-134 35.5zM501 735h-41q0 41 -24 69t-70 28q-45 0 -69.5 -28t-24.5 -69h-41q0 61 36.5 98t98.5 37t98.5 -37t36.5 -98z" />
    <glyph glyph-name="uni020F" unicode="&#x20f;" horiz-adv-x="585" 
d="M293 510q70 0 123.5 -31t84 -89.5t30.5 -139.5t-30.5 -139.5t-84 -89.5t-123.5 -31t-123.5 31t-84 89.5t-30.5 139.5t30.5 139.5t84 89.5t123.5 31zM293 467q-57 0 -99 -26t-65.5 -74.5t-23.5 -116.5q0 -67 23.5 -116t65.5 -75t99 -26t99 26t65.5 75t23.5 116
q0 68 -23.5 116.5t-65.5 74.5t-99 26zM428 573h-41q0 41 -24 69t-70 28q-45 0 -69.5 -28t-24.5 -69h-41q0 61 36.5 98t98.5 37t98.5 -37t36.5 -98z" />
    <glyph glyph-name="uni0210" unicode="&#x210;" horiz-adv-x="640" 
d="M349 660q99 0 157.5 -50t58.5 -137t-59 -135.5t-158 -48.5l-5 -3h-189v-286h-50v660h245zM348 333q80 0 122.5 36t42.5 104t-42.5 104.5t-122.5 36.5h-194v-281h194zM387 324l213 -324h-59l-196 296zM188 897l71 -154h-42l-82 154h53zM338 897l70 -154h-41l-82 154h53z
" />
    <glyph glyph-name="uni0211" unicode="&#x211;" horiz-adv-x="378" 
d="M89 0v500h42l6 -104q19 52 61 83t101 31q20 0 36 -4t27 -13l-12 -44q-11 7 -24 11t-39 4q-38 0 -72 -23.5t-55 -65t-21 -95.5v-280h-50zM174 583h-42l-93 158h54zM329 583h-42l-93 158h54z" />
    <glyph glyph-name="uni0212" unicode="&#x212;" horiz-adv-x="640" 
d="M349 660q99 0 157.5 -50t58.5 -137t-59 -135.5t-158 -48.5l-5 -3h-189v-286h-50v660h245zM348 333q80 0 122.5 36t42.5 104t-42.5 104.5t-122.5 36.5h-194v-281h194zM387 324l213 -324h-59l-196 296zM443 735h-41q0 41 -24 69t-70 28q-45 0 -69.5 -28t-24.5 -69h-41
q0 61 36.5 98t98.5 37t98.5 -37t36.5 -98z" />
    <glyph glyph-name="uni0213" unicode="&#x213;" horiz-adv-x="378" 
d="M89 0v500h42l6 -104q19 52 61 83t101 31q20 0 36 -4t27 -13l-12 -44q-11 7 -24 11t-39 4q-38 0 -72 -23.5t-55 -65t-21 -95.5v-280h-50zM355 575h-41q0 41 -24 69t-70 28q-45 0 -69.5 -28t-24.5 -69h-41q0 61 36.5 98t98.5 37t98.5 -37t36.5 -98z" />
    <glyph glyph-name="uni0214" unicode="&#x214;" horiz-adv-x="687" 
d="M598 660v-419q0 -123 -66.5 -187t-187.5 -64t-188 64t-67 187v419h50v-409q0 -106 52.5 -160.5t152.5 -54.5t152 54.5t52 160.5v409h50zM224 865l71 -154h-42l-82 154h53zM374 865l70 -154h-41l-82 154h53z" />
    <glyph glyph-name="uni0215" unicode="&#x215;" horiz-adv-x="592" 
d="M265 -10q-52 0 -93 19t-64.5 59.5t-23.5 101.5v330h50v-318q0 -78 37.5 -113t105.5 -35q40 0 72.5 14t55.5 39t35.5 57.5t12.5 68.5v287h50v-500h-45l-2 103q-22 -53 -72 -83t-119 -30zM248 568h-42l-93 158h54zM403 568h-42l-93 158h54z" />
    <glyph glyph-name="uni0216" unicode="&#x216;" horiz-adv-x="687" 
d="M598 660v-419q0 -123 -66.5 -187t-187.5 -64t-188 64t-67 187v419h50v-409q0 -106 52.5 -160.5t152.5 -54.5t152 54.5t52 160.5v409h50zM479 703h-41q0 41 -24 69t-70 28q-45 0 -69.5 -28t-24.5 -69h-41q0 61 36.5 98t98.5 37t98.5 -37t36.5 -98z" />
    <glyph glyph-name="uni0217" unicode="&#x217;" horiz-adv-x="592" 
d="M265 -10q-52 0 -93 19t-64.5 59.5t-23.5 101.5v330h50v-318q0 -78 37.5 -113t105.5 -35q40 0 72.5 14t55.5 39t35.5 57.5t12.5 68.5v287h50v-500h-45l-2 103q-22 -53 -72 -83t-119 -30zM429 560h-41q0 41 -24 69t-70 28q-45 0 -69.5 -28t-24.5 -69h-41q0 61 36.5 98
t98.5 37t98.5 -37t36.5 -98z" />
    <glyph glyph-name="uni0218" unicode="&#x218;" horiz-adv-x="619" 
d="M308 670q91 0 153.5 -36t95.5 -110l-42 -32q-29 70 -81.5 101t-129.5 31q-59 0 -100 -18.5t-62 -49t-21 -68.5q0 -45 29.5 -75.5t110.5 -48.5l129 -28q97 -21 136.5 -60t39.5 -102q0 -54 -31.5 -96t-86.5 -65t-129 -23q-71 0 -126.5 19.5t-93.5 55t-56 85.5l44 34
q14 -47 46.5 -80.5t80.5 -50.5t107 -17q56 0 100 15.5t68.5 45.5t24.5 74q0 42 -29.5 71t-104.5 44l-136 30q-63 14 -102 37t-56.5 55.5t-17.5 73.5q0 51 29 93.5t83 68.5t128 26zM339 -72l-60 -161h-40l47 161h53z" />
    <glyph glyph-name="uni0219" unicode="&#x219;" horiz-adv-x="505" 
d="M258 -10q-76 0 -134.5 31t-82.5 89l43 29q18 -50 64.5 -77.5t113.5 -27.5q66 0 103.5 26t37.5 69q0 29 -18.5 50.5t-69.5 32.5l-117 25q-71 15 -102 48.5t-31 81.5q0 40 24 72t66.5 51.5t99.5 19.5q75 0 124 -29.5t69 -88.5l-42 -27q-15 53 -55.5 77t-95.5 24
q-42 0 -73.5 -12.5t-49 -34t-17.5 -49.5q0 -29 20 -52.5t71 -34.5l120 -26q71 -15 99 -45.5t28 -75.5q0 -44 -24 -77.5t-68 -51t-103 -17.5zM285 -72l-60 -161h-40l47 161h53z" />
    <glyph glyph-name="uni021A" unicode="&#x21a;" horiz-adv-x="576" 
d="M554 660v-46h-241v-614h-50v614h-241v46h532zM324 -72l-60 -161h-40l47 161h53z" />
    <glyph glyph-name="uni021B" unicode="&#x21b;" horiz-adv-x="377" 
d="M172 639v-507q0 -47 22.5 -71.5t65.5 -24.5q28 0 49.5 9.5t38.5 27.5l19 -41q-19 -19 -48 -30.5t-65 -11.5q-39 0 -69 14.5t-46.5 44.5t-16.5 76v500zM359 500v-43h-337v43h337zM265 -72l-60 -161h-40l47 161h53z" />
    <glyph glyph-name="uni022A" unicode="&#x22a;" horiz-adv-x="732" 
d="M366 670q94 0 162 -41.5t105 -117.5t37 -181t-37 -181t-105 -117.5t-162 -41.5q-93 0 -161.5 41.5t-105.5 117.5t-37 181t37 181t105.5 117.5t161.5 41.5zM366 624q-77 0 -133.5 -35.5t-87 -101.5t-30.5 -157t30.5 -157t87 -101.5t133.5 -35.5q78 0 134 35.5t87 101.5
t31 157t-31 157t-87 101.5t-134 35.5zM271 831q18 0 29 -11t11 -30q0 -18 -11 -29t-29 -11t-29.5 11t-11.5 29q0 19 11.5 30t29.5 11zM460 831q19 0 30 -11t11 -30q0 -18 -11 -29t-30 -11q-18 0 -29 11t-11 29q0 19 11 30t29 11zM521 956v-42h-310v42h310z" />
    <glyph glyph-name="uni022B" unicode="&#x22b;" horiz-adv-x="585" 
d="M293 510q70 0 123.5 -31t84 -89.5t30.5 -139.5t-30.5 -139.5t-84 -89.5t-123.5 -31t-123.5 31t-84 89.5t-30.5 139.5t30.5 139.5t84 89.5t123.5 31zM293 467q-57 0 -99 -26t-65.5 -74.5t-23.5 -116.5q0 -67 23.5 -116t65.5 -75t99 -26t99 26t65.5 75t23.5 116
q0 68 -23.5 116.5t-65.5 74.5t-99 26zM198 669q18 0 29 -11t11 -30q0 -18 -11 -29t-29 -11t-29.5 11t-11.5 29q0 19 11.5 30t29.5 11zM387 669q19 0 30 -11t11 -30q0 -18 -11 -29t-30 -11q-18 0 -29 11t-11 29q0 19 11 30t29 11zM448 795v-42h-310v42h310z" />
    <glyph glyph-name="uni022C" unicode="&#x22c;" horiz-adv-x="732" 
d="M366 670q94 0 162 -41.5t105 -117.5t37 -181t-37 -181t-105 -117.5t-162 -41.5q-93 0 -161.5 41.5t-105.5 117.5t-37 181t37 181t105.5 117.5t161.5 41.5zM366 624q-77 0 -133.5 -35.5t-87 -101.5t-30.5 -157t30.5 -157t87 -101.5t133.5 -35.5q78 0 134 35.5t87 101.5
t31 157t-31 157t-87 101.5t-134 35.5zM536 861q-4 -36 -16.5 -61t-32.5 -37t-49 -12q-27 0 -46 10.5t-34 23.5t-29.5 23.5t-32.5 10.5q-26 0 -39.5 -18.5t-20.5 -50.5h-40q6 55 31.5 82.5t69.5 27.5q25 0 44 -10.5t34 -23.5t29.5 -23.5t32.5 -10.5q27 0 40 18t19 51h40z
M521 982v-42h-310v42h310z" />
    <glyph glyph-name="uni022D" unicode="&#x22d;" horiz-adv-x="585" 
d="M293 510q70 0 123.5 -31t84 -89.5t30.5 -139.5t-30.5 -139.5t-84 -89.5t-123.5 -31t-123.5 31t-84 89.5t-30.5 139.5t30.5 139.5t84 89.5t123.5 31zM293 467q-57 0 -99 -26t-65.5 -74.5t-23.5 -116.5q0 -67 23.5 -116t65.5 -75t99 -26t99 26t65.5 75t23.5 116
q0 68 -23.5 116.5t-65.5 74.5t-99 26zM463 699q-4 -36 -16.5 -61t-32.5 -37t-49 -12q-27 0 -46 10.5t-34 23.5t-29.5 23.5t-32.5 10.5q-26 0 -39.5 -18.5t-20.5 -50.5h-40q6 55 31.5 82.5t69.5 27.5q25 0 44 -10.5t34 -23.5t29.5 -23.5t32.5 -10.5q27 0 40 18t19 51h40z
M447 820v-42h-310v42h310z" />
    <glyph glyph-name="uni0230" unicode="&#x230;" horiz-adv-x="732" 
d="M366 670q94 0 162 -41.5t105 -117.5t37 -181t-37 -181t-105 -117.5t-162 -41.5q-93 0 -161.5 41.5t-105.5 117.5t-37 181t37 181t105.5 117.5t161.5 41.5zM366 624q-77 0 -133.5 -35.5t-87 -101.5t-30.5 -157t30.5 -157t87 -101.5t133.5 -35.5q78 0 134 35.5t87 101.5
t31 157t-31 157t-87 101.5t-134 35.5zM366 841q19 0 30.5 -11.5t11.5 -30.5t-11.5 -30.5t-30.5 -11.5t-30.5 11.5t-11.5 30.5t11.5 30.5t30.5 11.5zM521 967v-42h-310v42h310z" />
    <glyph glyph-name="uni0231" unicode="&#x231;" horiz-adv-x="585" 
d="M293 510q70 0 123.5 -31t84 -89.5t30.5 -139.5t-30.5 -139.5t-84 -89.5t-123.5 -31t-123.5 31t-84 89.5t-30.5 139.5t30.5 139.5t84 89.5t123.5 31zM293 467q-57 0 -99 -26t-65.5 -74.5t-23.5 -116.5q0 -67 23.5 -116t65.5 -75t99 -26t99 26t65.5 75t23.5 116
q0 68 -23.5 116.5t-65.5 74.5t-99 26zM293 679q19 0 30.5 -11.5t11.5 -30.5t-11.5 -30.5t-30.5 -11.5t-30.5 11.5t-11.5 30.5t11.5 30.5t30.5 11.5zM448 805v-42h-310v42h310z" />
    <glyph glyph-name="uni0232" unicode="&#x232;" horiz-adv-x="544" 
d="M531 660l-234 -403v-257h-50v257l-234 403h59l129 -226l71 -125l71 125l129 226h59zM427 773v-42h-310v42h310z" />
    <glyph glyph-name="uni0233" unicode="&#x233;" horiz-adv-x="500" 
d="M483 500l-242 -592q-18 -46 -39 -73t-47 -38.5t-60 -11.5q-30 0 -54.5 9t-41.5 25l16 43q15 -18 36 -25.5t43 -7.5q32 0 57 18.5t47 72.5l33 80l-53 124l-158 376h57l153 -379l25 -67l27 72l147 374h54zM407 627v-42h-310v42h310z" />
    <glyph glyph-name="uni0237" unicode="&#x237;" horiz-adv-x="229" 
d="M139 500v-557q0 -55 -20.5 -90t-53 -51.5t-68.5 -16.5q-27 0 -49.5 8t-37.5 20l12 47q13 -12 32.5 -19.5t41.5 -7.5q42 0 67.5 28.5t25.5 85.5v553h50z" />
    <glyph glyph-name="uni0241" unicode="&#x241;" horiz-adv-x="522" 
d="M266 670q67 0 116.5 -26.5t77 -71t27.5 -99.5q0 -68 -25 -112.5t-71 -70.5t-110 -39v-251h-50v282q78 14 122 38t62.5 61.5t18.5 89.5q0 44 -21 78t-59.5 54.5t-91.5 20.5q-82 0 -130.5 -41t-57.5 -112l-45 24q11 54 41.5 93t80 60.5t115.5 21.5z" />
    <glyph glyph-name="uni0242" unicode="&#x242;" horiz-adv-x="481" 
d="M242 511q64 0 110 -21.5t72 -60.5t26 -92q0 -58 -23.5 -96.5t-67 -61t-103.5 -34.5v-145h-50v177q73 13 114.5 31.5t59.5 48t18 73.5q0 62 -41.5 98.5t-117.5 36.5q-77 0 -118.5 -39t-53.5 -104l-46 19q10 52 38.5 90t74.5 59t108 21z" />
    <glyph glyph-name="uni0259" unicode="&#x259;" horiz-adv-x="556" 
d="M272 -10q-68 0 -116.5 29.5t-74 81.5t-25.5 118q0 12 1 25.5t3 26.5h410v-45h-388l26 20q-1 -8 -1.5 -16t-0.5 -15q0 -84 45.5 -132.5t120.5 -48.5q85 0 132.5 55.5t47.5 155.5q0 70 -20.5 119.5t-58.5 75.5t-93 26q-60 0 -104 -27.5t-65 -76.5l-42 22q17 38 46 66.5
t70.5 44t94.5 15.5q69 0 118.5 -31t76 -89.5t26.5 -139.5q0 -121 -60 -190.5t-169 -69.5z" />
    <glyph glyph-name="uni02B9" unicode="&#x2b9;" horiz-adv-x="600" 
d="M146 685l-55 -205h-42l40 205h57z" />
    <glyph glyph-name="uni02BA" unicode="&#x2ba;" horiz-adv-x="325" 
d="M284 685l-55 -205h-42l40 205h57zM146 685l-55 -205h-42l40 205h57z" />
    <glyph glyph-name="uni02BB" unicode="&#x2bb;" horiz-adv-x="600" 
d="M211 778l-48 -191h-55l65 191h38z" />
    <glyph glyph-name="uni02BC" unicode="&#x2bc;" horiz-adv-x="600" 
d="M113 694q17 0 29.5 -9.5t19 -25.5t6.5 -38q0 -26 -9 -52t-28 -48t-49 -37l-28 25q25 9 42.5 26.5t27 38t8.5 39.5l-3 1q-3 -5 -8 -7.5t-15 -2.5q-9 0 -18 5.5t-15 15t-6 23.5q0 13 6.5 23.5t16.5 16.5t23 6z" />
    <glyph glyph-name="uni02BE" unicode="&#x2be;" horiz-adv-x="277" 
d="M94 730q56 0 90.5 -32.5t34.5 -85.5q0 -52 -34.5 -84.5t-90.5 -32.5h-32v37h32q38 0 60.5 22.5t22.5 57.5q0 36 -22.5 58.5t-60.5 22.5h-32v37h32z" />
    <glyph glyph-name="uni02BF" unicode="&#x2bf;" horiz-adv-x="277" 
d="M184 495q-57 0 -91.5 32.5t-34.5 84.5q0 53 34.5 85.5t91.5 32.5h32v-37h-32q-38 0 -60.5 -22.5t-22.5 -58.5q0 -35 22.5 -57.5t60.5 -22.5h32v-37h-32z" />
    <glyph glyph-name="circumflex" unicode="&#x2c6;" horiz-adv-x="523" 
d="M401 579h-46l-93 122l-93 -122h-46l111 156h56z" />
    <glyph glyph-name="caron" unicode="&#x2c7;" horiz-adv-x="523" 
d="M401 738l-111 -155h-56l-111 155h46l93 -121l93 121h46z" />
    <glyph glyph-name="uni02C8" unicode="&#x2c8;" horiz-adv-x="196" 
d="M74 730h47v-265h-47v265z" />
    <glyph glyph-name="uni02C9" unicode="&#x2c9;" horiz-adv-x="523" 
d="M417 642v-42h-310v42h310z" />
    <glyph glyph-name="uni02CA" unicode="&#x2ca;" horiz-adv-x="600" 
d="M313 741h55l-94 -158h-41z" />
    <glyph glyph-name="uni02CB" unicode="&#x2cb;" horiz-adv-x="523" 
d="M249 741l80 -158h-41l-93 158h54z" />
    <glyph glyph-name="uni02CC" unicode="&#x2cc;" horiz-adv-x="196" 
d="M74 60h47v-265h-47v265z" />
    <glyph glyph-name="breve" unicode="&#x2d8;" horiz-adv-x="523" 
d="M397 714q0 -62 -36.5 -98.5t-98.5 -36.5t-98.5 36.5t-36.5 98.5h41q0 -41 24.5 -69t69.5 -28q46 0 70 28t24 69h41z" />
    <glyph glyph-name="dotaccent" unicode="&#x2d9;" horiz-adv-x="523" 
d="M262 681q19 0 30.5 -11.5t11.5 -30.5t-11.5 -30.5t-30.5 -11.5t-30.5 11.5t-11.5 30.5t11.5 30.5t30.5 11.5z" />
    <glyph glyph-name="ring" unicode="&#x2da;" horiz-adv-x="547" 
d="M274 776q47 0 76 -28t29 -72t-29 -72.5t-76 -28.5q-46 0 -75.5 28.5t-29.5 72.5t29.5 72t75.5 28zM274 743q-29 0 -48.5 -19t-19.5 -48t19.5 -48.5t48.5 -19.5q30 0 49.5 19.5t19.5 48.5t-19.5 48t-49.5 19z" />
    <glyph glyph-name="ogonek" unicode="&#x2db;" horiz-adv-x="547" 
d="M288 -209q-47 0 -75.5 24.5t-28.5 66.5q0 49 33.5 81.5t109.5 61.5l31 -13q-55 -21 -83.5 -41.5t-39 -40.5t-10.5 -43q0 -29 19 -44t48 -15q21 0 36.5 4.5t26.5 11.5l9 -35q-13 -7 -31.5 -12.5t-44.5 -5.5z" />
    <glyph glyph-name="tilde" unicode="&#x2dc;" horiz-adv-x="523" 
d="M432 701q-4 -36 -16.5 -61t-32.5 -37t-49 -12q-27 0 -46 10.5t-34 23.5t-29.5 23.5t-32.5 10.5q-26 0 -39.5 -18.5t-20.5 -50.5h-40q6 55 31.5 82.5t69.5 27.5q25 0 44 -10.5t34 -23.5t29.5 -23.5t32.5 -10.5q27 0 40 18t19 51h40z" />
    <glyph glyph-name="hungarumlaut" unicode="&#x2dd;" horiz-adv-x="547" 
d="M284 583l80 158h55l-93 -158h-42zM129 583l80 158h55l-93 -158h-42z" />
    <glyph glyph-name="gravecomb" unicode="&#x300;" horiz-adv-x="0" 
d="M-53 741l80 -158h-41l-93 158h54z" />
    <glyph glyph-name="acutecomb" unicode="&#x301;" horiz-adv-x="0" 
d="M51 741h55l-94 -158h-41z" />
    <glyph glyph-name="uni0302" unicode="&#x302;" horiz-adv-x="0" 
d="M139 579h-46l-93 122l-93 -122h-46l111 156h56z" />
    <glyph glyph-name="tildecomb" unicode="&#x303;" horiz-adv-x="0" 
d="M170 701q-4 -36 -16.5 -61t-32.5 -37t-49 -12q-27 0 -46 10.5t-34 23.5t-29.5 23.5t-32.5 10.5q-26 0 -39.5 -18.5t-20.5 -50.5h-40q6 55 31.5 82.5t69.5 27.5q25 0 44 -10.5t34 -23.5t29.5 -23.5t32.5 -10.5q27 0 40 18t19 51h40z" />
    <glyph glyph-name="uni0304" unicode="&#x304;" horiz-adv-x="0" 
d="M155 642v-42h-310v42h310z" />
    <glyph glyph-name="uni0306" unicode="&#x306;" horiz-adv-x="0" 
d="M135 714q0 -62 -36.5 -98.5t-98.5 -36.5t-98.5 36.5t-36.5 98.5h41q0 -41 24.5 -69t69.5 -28q46 0 70 28t24 69h41z" />
    <glyph glyph-name="uni0307" unicode="&#x307;" horiz-adv-x="0" 
d="M0 681q19 0 30.5 -11.5t11.5 -30.5t-11.5 -30.5t-30.5 -11.5t-30.5 11.5t-11.5 30.5t11.5 30.5t30.5 11.5z" />
    <glyph glyph-name="uni0308" unicode="&#x308;" horiz-adv-x="0" 
d="M-95 671q18 0 29 -11t11 -30q0 -18 -11 -29t-29 -11t-29.5 11t-11.5 29q0 19 11.5 30t29.5 11zM94 671q19 0 30 -11t11 -30q0 -18 -11 -29t-30 -11q-18 0 -29 11t-11 29q0 19 11 30t29 11z" />
    <glyph glyph-name="hookabovecomb" unicode="&#x309;" horiz-adv-x="0" 
d="M274 560l-18 25q30 17 44 33.5t14 39.5q0 19 -11.5 31t-32.5 12q-18 0 -30.5 -10t-21.5 -26l-31 21q10 24 32.5 39.5t56.5 15.5q25 0 43 -9.5t28 -27t10 -39.5q0 -23 -9.5 -42t-28 -34t-45.5 -29z" />
    <glyph glyph-name="uni030A" unicode="&#x30a;" horiz-adv-x="0" 
d="M-3 776q47 0 76 -28t29 -72t-29 -72.5t-76 -28.5q-46 0 -75.5 28.5t-29.5 72.5t29.5 72t75.5 28zM-3 743q-29 0 -48.5 -19t-19.5 -48t19.5 -48.5t48.5 -19.5q30 0 49.5 19.5t19.5 48.5t-19.5 48t-49.5 19z" />
    <glyph glyph-name="uni030B" unicode="&#x30b;" horiz-adv-x="0" 
d="M41 583l80 158h55l-93 -158h-42zM-114 583l80 158h55l-93 -158h-42z" />
    <glyph glyph-name="uni030C" unicode="&#x30c;" horiz-adv-x="0" 
d="M139 738l-111 -155h-56l-111 155h46l93 -121l93 121h46z" />
    <glyph glyph-name="uni030F" unicode="&#x30f;" horiz-adv-x="0" 
d="M-46 583h-42l-93 158h54zM109 583h-42l-93 158h54z" />
    <glyph glyph-name="uni0311" unicode="&#x311;" horiz-adv-x="0" 
d="M135 575h-41q0 41 -24 69t-70 28q-45 0 -69.5 -28t-24.5 -69h-41q0 61 36.5 98t98.5 37t98.5 -37t36.5 -98z" />
    <glyph glyph-name="uni0312" unicode="&#x312;" horiz-adv-x="0" 
d="M343 778l-48 -191h-55l65 191h38z" />
    <glyph glyph-name="uni031B" unicode="&#x31b;" horiz-adv-x="0" 
d="M252 462v38q48 0 73 28t25 85h44q0 -74 -37 -112.5t-105 -38.5z" />
    <glyph glyph-name="dotbelowcomb" unicode="&#x323;" horiz-adv-x="0" 
d="M0 -161q-10 0 -16 6t-6 16t6 15.5t16 5.5t16 -5.5t6 -15.5t-6 -16t-16 -6z" />
    <glyph glyph-name="uni0324" unicode="&#x324;" horiz-adv-x="0" 
d="M-95 -89q18 0 29 -11t11 -30q0 -18 -11 -29t-29 -11t-29.5 11t-11.5 29q0 19 11.5 30t29.5 11zM94 -89q19 0 30 -11t11 -30q0 -18 -11 -29t-30 -11q-18 0 -29 11t-11 29q0 19 11 30t29 11z" />
    <glyph glyph-name="uni0326" unicode="&#x326;" horiz-adv-x="0" 
d="M26 -72l-60 -161h-40l47 161h53z" />
    <glyph glyph-name="uni0327" unicode="&#x327;" horiz-adv-x="0" 
d="M-42 4l32 13q56 -22 78.5 -52.5t22.5 -70.5q0 -44 -29.5 -73.5t-75.5 -29.5q-31 0 -54 9t-41 26l14 37q17 -15 35 -23.5t41 -8.5q30 0 49 19t19 53q0 29 -19.5 51.5t-71.5 49.5z" />
    <glyph glyph-name="uni0328" unicode="&#x328;" horiz-adv-x="0" 
d="M-70 -209q-47 0 -75.5 24.5t-28.5 66.5q0 49 33.5 81.5t109.5 61.5l31 -13q-55 -21 -83.5 -41.5t-39 -40.5t-10.5 -43q0 -29 19 -44t48 -15q21 0 36.5 4.5t26.5 11.5l9 -35q-13 -7 -31.5 -12.5t-44.5 -5.5z" />
    <glyph glyph-name="uni032E" unicode="&#x32e;" horiz-adv-x="0" 
d="M135 -75q0 -62 -36.5 -98.5t-98.5 -36.5t-98.5 36.5t-36.5 98.5h41q0 -41 24.5 -69t69.5 -28q46 0 70 28t24 69h41z" />
    <glyph glyph-name="uni0331" unicode="&#x331;" horiz-adv-x="0" 
d="M155 -101v-42h-310v42h310z" />
    <glyph glyph-name="uni0335" unicode="&#x335;" horiz-adv-x="0" 
d="M187 349v-38h-375v38h375z" />
    <glyph glyph-name="uni0338" unicode="&#x338;" horiz-adv-x="0" 
d="M56 -30l434 560h44l-434 -560h-44z" />
    <glyph glyph-name="uni03A9" unicode="&#x3a9;" horiz-adv-x="737" 
d="M59 0v43h195l-9 -7q-82 39 -131 115.5t-49 189.5q0 99 37.5 173t105.5 115t161 41q92 0 160.5 -41t105.5 -115t37 -173q0 -113 -49 -189.5t-132 -115.5l-8 7h195v-43h-247v45q86 27 138.5 100.5t52.5 195.5q0 86 -31.5 149.5t-88 98.5t-133.5 35t-134 -35t-88.5 -98.5
t-31.5 -149.5q0 -82 24 -141.5t67 -98t100 -56.5v-45h-247z" />
    <glyph glyph-name="uni03BC" unicode="&#x3bc;" horiz-adv-x="598" 
d="M89 -210v710h50v-318q0 -74 39 -111t104 -37q50 0 89.5 22t63 63.5t23.5 99.5v281h50v-500h-42l-3 105q-22 -52 -71 -83.5t-113 -31.5q-46 0 -83 19t-57 57v0v-276h-50z" />
    <glyph glyph-name="pi" unicode="&#x3c0;" horiz-adv-x="709" 
d="M170 0v458h-148v42h661v-42h-159v-340q0 -28 13.5 -44.5t38 -23t59.5 -6.5l-10 -44q-50 0 -83.5 10t-50.5 34.5t-17 65.5v348h-254v-458h-50z" />
    <glyph glyph-name="uni1E08" unicode="&#x1e08;" horiz-adv-x="669" 
d="M626 167q-19 -55 -56.5 -95t-90 -61t-117.5 -21q-90 0 -157.5 41.5t-105 117.5t-37.5 181t37 181t104.5 117.5t157.5 41.5q67 0 117.5 -18.5t85.5 -55t53 -89.5l-49 -23q-23 69 -73 104.5t-131 35.5q-74 0 -130.5 -35.5t-87.5 -101t-31 -157.5q0 -91 30.5 -157
t86.5 -101.5t130 -35.5q80 0 136 38.5t78 111.5zM310 4l32 13q56 -22 78.5 -52.5t22.5 -70.5q0 -44 -29.5 -73.5t-75.5 -29.5q-31 0 -54 9t-41 26l14 37q17 -15 35 -23.5t41 -8.5q30 0 49 19t19 53q0 29 -19.5 51.5t-71.5 49.5zM402 897h53l-83 -154h-41z" />
    <glyph glyph-name="uni1E09" unicode="&#x1e09;" horiz-adv-x="543" 
d="M291 510q51 0 91 -16t68 -46t43 -73l-47 -22q-16 54 -55.5 83.5t-100.5 29.5q-55 0 -97 -25.5t-65 -74t-23 -116.5q0 -67 23 -116t64 -74.5t97 -25.5q42 0 76.5 14t57 41t29.5 64l46 -16q-13 -46 -42.5 -79t-71.5 -50.5t-94 -17.5q-68 0 -121.5 31t-83.5 89.5t-30 139.5
t30.5 139.5t84 89.5t121.5 31zM242 4l32 13q56 -22 78.5 -52.5t22.5 -70.5q0 -44 -29.5 -73.5t-75.5 -29.5q-31 0 -54 9t-41 26l14 37q17 -15 35 -23.5t41 -8.5q30 0 49 19t19 53q0 29 -19.5 51.5t-71.5 49.5zM335 741h55l-94 -158h-41z" />
    <glyph glyph-name="uni1E0C" unicode="&#x1e0c;" horiz-adv-x="703" 
d="M312 660q158 0 243.5 -83.5t85.5 -241.5q0 -163 -85.5 -249t-243.5 -86h-208v660h208zM316 46q132 0 202.5 75t70.5 214q0 134 -70.5 206.5t-202.5 72.5h-162v-568h162zM329 -161q-10 0 -16 6t-6 16t6 15.5t16 5.5t16 -5.5t6 -15.5t-6 -16t-16 -6z" />
    <glyph glyph-name="uni1E0D" unicode="&#x1e0d;" horiz-adv-x="607" 
d="M284 -10q-65 0 -117 31t-81.5 89.5t-29.5 139.5q0 83 31 141t84 88.5t118 30.5q69 0 118.5 -37t66.5 -102l-6 -5v364h50v-730h-45l-3 139l6 2q-9 -48 -36.5 -82t-68 -51.5t-87.5 -17.5zM290 34q53 0 93 26.5t62.5 76.5t22.5 117q0 66 -22.5 113.5t-62 73t-91.5 25.5
q-86 0 -136 -58t-50 -158t49.5 -158t134.5 -58zM295 -161q-10 0 -16 6t-6 16t6 15.5t16 5.5t16 -5.5t6 -15.5t-6 -16t-16 -6z" />
    <glyph glyph-name="uni1E0E" unicode="&#x1e0e;" horiz-adv-x="703" 
d="M312 660q158 0 243.5 -83.5t85.5 -241.5q0 -163 -85.5 -249t-243.5 -86h-208v660h208zM316 46q132 0 202.5 75t70.5 214q0 134 -70.5 206.5t-202.5 72.5h-162v-568h162zM484 -101v-42h-310v42h310z" />
    <glyph glyph-name="uni1E0F" unicode="&#x1e0f;" horiz-adv-x="607" 
d="M284 -10q-65 0 -117 31t-81.5 89.5t-29.5 139.5q0 83 31 141t84 88.5t118 30.5q69 0 118.5 -37t66.5 -102l-6 -5v364h50v-730h-45l-3 139l6 2q-9 -48 -36.5 -82t-68 -51.5t-87.5 -17.5zM290 34q53 0 93 26.5t62.5 76.5t22.5 117q0 66 -22.5 113.5t-62 73t-91.5 25.5
q-86 0 -136 -58t-50 -158t49.5 -158t134.5 -58zM450 -101v-42h-310v42h310z" />
    <glyph glyph-name="uni1E14" unicode="&#x1e14;" horiz-adv-x="612" 
d="M104 0v660h451v-46h-401v-255h317v-47h-317v-266h417v-46h-467zM485 802v-42h-310v42h310zM286 1037l70 -154h-41l-82 154h53z" />
    <glyph glyph-name="uni1E15" unicode="&#x1e15;" horiz-adv-x="557" 
d="M293 -10q-69 0 -123 31t-84.5 89.5t-30.5 139.5t30.5 139.5t83 89.5t118.5 31q68 0 116 -30t74 -83.5t26 -123.5q0 -9 -0.5 -17.5t-1.5 -15.5h-415v45h393l-25 -7q-1 86 -45.5 137t-122.5 51q-54 0 -95 -25.5t-64 -74t-23 -116.5q0 -67 23.5 -116t66 -74.5t98.5 -25.5
q58 0 99.5 25t64.5 69l40 -23q-18 -36 -48 -61.5t-69 -39.5t-86 -14zM437 642v-42h-310v42h310zM238 877l70 -154h-41l-82 154h53z" />
    <glyph glyph-name="uni1E16" unicode="&#x1e16;" horiz-adv-x="612" 
d="M104 0v660h451v-46h-401v-255h317v-47h-317v-266h417v-46h-467zM485 802v-42h-310v42h310zM375 1037h53l-83 -154h-41z" />
    <glyph glyph-name="uni1E17" unicode="&#x1e17;" horiz-adv-x="557" 
d="M293 -10q-69 0 -123 31t-84.5 89.5t-30.5 139.5t30.5 139.5t83 89.5t118.5 31q68 0 116 -30t74 -83.5t26 -123.5q0 -9 -0.5 -17.5t-1.5 -15.5h-415v45h393l-25 -7q-1 86 -45.5 137t-122.5 51q-54 0 -95 -25.5t-64 -74t-23 -116.5q0 -67 23.5 -116t66 -74.5t98.5 -25.5
q58 0 99.5 25t64.5 69l40 -23q-18 -36 -48 -61.5t-69 -39.5t-86 -14zM437 642v-42h-310v42h310zM327 877h53l-83 -154h-41z" />
    <glyph glyph-name="uni1E1C" unicode="&#x1e1c;" horiz-adv-x="612" 
d="M104 0v660h451v-46h-401v-255h317v-47h-317v-266h417v-46h-467zM296 4l32 13q56 -22 78.5 -52.5t22.5 -70.5q0 -44 -29.5 -73.5t-75.5 -29.5q-31 0 -54 9t-41 26l14 37q17 -15 35 -23.5t41 -8.5q30 0 49 19t19 53q0 29 -19.5 51.5t-71.5 49.5zM465 874q0 -62 -36.5 -98.5
t-98.5 -36.5t-98.5 36.5t-36.5 98.5h41q0 -41 24.5 -69t69.5 -28q46 0 70 28t24 69h41z" />
    <glyph glyph-name="uni1E1D" unicode="&#x1e1d;" horiz-adv-x="557" 
d="M293 -10q-69 0 -123 31t-84.5 89.5t-30.5 139.5t30.5 139.5t83 89.5t118.5 31q68 0 116 -30t74 -83.5t26 -123.5q0 -9 -0.5 -17.5t-1.5 -15.5h-415v45h393l-25 -7q-1 86 -45.5 137t-122.5 51q-54 0 -95 -25.5t-64 -74t-23 -116.5q0 -67 23.5 -116t66 -74.5t98.5 -25.5
q58 0 99.5 25t64.5 69l40 -23q-18 -36 -48 -61.5t-69 -39.5t-86 -14zM246 4l32 13q56 -22 78.5 -52.5t22.5 -70.5q0 -44 -29.5 -73.5t-75.5 -29.5q-31 0 -54 9t-41 26l14 37q17 -15 35 -23.5t41 -8.5q30 0 49 19t19 53q0 29 -19.5 51.5t-71.5 49.5zM417 714
q0 -62 -36.5 -98.5t-98.5 -36.5t-98.5 36.5t-36.5 98.5h41q0 -41 24.5 -69t69.5 -28q46 0 70 28t24 69h41z" />
    <glyph glyph-name="uni1E20" unicode="&#x1e20;" horiz-adv-x="702" 
d="M365 -10q-93 0 -161 41.5t-105 117.5t-37 181t38.5 181t107 117.5t158.5 41.5q101 0 163.5 -40t94.5 -122l-46 -24q-23 69 -76 104.5t-136 35.5q-74 0 -131 -35.5t-88.5 -101.5t-31.5 -157t29.5 -157t86 -101.5t136.5 -35.5q55 0 95.5 17.5t67 46t39.5 65t13 74.5v37
h-224v47h271v-323h-41l-2 143l9 -2q-24 -70 -82.5 -110.5t-147.5 -40.5zM514 802v-42h-310v42h310z" />
    <glyph glyph-name="uni1E21" unicode="&#x1e21;" horiz-adv-x="515" 
d="M364 642v-42h-207v42h207zM503 592l12 -44h-2h-3q-49 0 -75.5 -25.5t-26.5 -71.5l-32 16q0 38 16 66t44 43.5t63 15.5h2.5h1.5zM345 51q74 0 116 -31t42 -83q0 -46 -30.5 -80t-83.5 -53t-121 -19q-113 0 -173 38.5t-60 96.5q0 42 30.5 73t89.5 37l-4 -9q-32 9 -56.5 30
t-24.5 60q0 42 31.5 68.5t83.5 30.5l53 -18h-21q-46 -3 -73.5 -22.5t-27.5 -50.5q0 -34 26.5 -51t67.5 -17h135zM268 -173q59 0 101 14t64.5 37.5t22.5 52.5q0 35 -30.5 56t-92.5 21h-142q-47 0 -78 -22t-31 -59q0 -45 49.5 -72.5t136.5 -27.5zM261 510q59 0 104.5 -20.5
t70.5 -57t25 -85.5q0 -48 -25 -85.5t-70.5 -58t-104.5 -20.5q-95 0 -148.5 45.5t-53.5 118.5q0 49 25.5 85.5t71 57t105.5 20.5zM261 469q-66 0 -108 -33.5t-42 -88.5t42 -89t108 -34t107.5 34t41.5 89t-41.5 88.5t-107.5 33.5z" />
    <glyph glyph-name="uni1E24" unicode="&#x1e24;" horiz-adv-x="716" 
d="M612 660v-660h-50v660h50zM154 660v-660h-50v660h50zM586 359v-47h-456v47h456zM358 -161q-10 0 -16 6t-6 16t6 15.5t16 5.5t16 -5.5t6 -15.5t-6 -16t-16 -6z" />
    <glyph glyph-name="uni1E25" unicode="&#x1e25;" horiz-adv-x="598" 
d="M89 0v730h50v-332q22 53 71 82.5t113 29.5q56 0 99 -20.5t67.5 -62t24.5 -102.5v-325h-50v309q0 81 -40.5 119.5t-105.5 38.5q-47 0 -87.5 -22t-66 -63t-25.5 -100v-282h-50zM333 -161q-10 0 -16 6t-6 16t6 15.5t16 5.5t16 -5.5t6 -15.5t-6 -16t-16 -6z" />
    <glyph glyph-name="uni1E2A" unicode="&#x1e2a;" horiz-adv-x="716" 
d="M612 660v-660h-50v660h50zM154 660v-660h-50v660h50zM586 359v-47h-456v47h456zM493 -75q0 -62 -36.5 -98.5t-98.5 -36.5t-98.5 36.5t-36.5 98.5h41q0 -41 24.5 -69t69.5 -28q46 0 70 28t24 69h41z" />
    <glyph glyph-name="uni1E2B" unicode="&#x1e2b;" horiz-adv-x="598" 
d="M89 0v730h50v-332q22 53 71 82.5t113 29.5q56 0 99 -20.5t67.5 -62t24.5 -102.5v-325h-50v309q0 81 -40.5 119.5t-105.5 38.5q-47 0 -87.5 -22t-66 -63t-25.5 -100v-282h-50zM468 -75q0 -62 -36.5 -98.5t-98.5 -36.5t-98.5 36.5t-36.5 98.5h41q0 -41 24.5 -69t69.5 -28
q46 0 70 28t24 69h41z" />
    <glyph glyph-name="uni1E2E" unicode="&#x1e2e;" horiz-adv-x="258" 
d="M154 660v-660h-50v660h50zM34 831q18 0 29 -11t11 -30q0 -18 -11 -29t-29 -11t-29.5 11t-11.5 29q0 19 11.5 30t29.5 11zM223 831q19 0 30 -11t11 -30q0 -18 -11 -29t-30 -11q-18 0 -29 11t-11 29q0 19 11 30t29 11zM174 1051h53l-83 -154h-41z" />
    <glyph glyph-name="uni1E2F" unicode="&#x1e2f;" horiz-adv-x="229" 
d="M139 500v-500h-50v500h50zM19 671q18 0 29 -11t11 -30q0 -18 -11 -29t-29 -11t-29.5 11t-11.5 29q0 19 11.5 30t29.5 11zM208 671q19 0 30 -11t11 -30q0 -18 -11 -29t-30 -11q-18 0 -29 11t-11 29q0 19 11 30t29 11zM159 891h53l-83 -154h-41z" />
    <glyph glyph-name="uni1E36" unicode="&#x1e36;" horiz-adv-x="572" 
d="M154 46h396v-46h-446v660h50v-614zM347 -161q-10 0 -16 6t-6 16t6 15.5t16 5.5t16 -5.5t6 -15.5t-6 -16t-16 -6z" />
    <glyph glyph-name="uni1E37" unicode="&#x1e37;" horiz-adv-x="274" 
d="M135 730v-612q0 -46 16 -65t50 -19q21 0 33.5 3t29.5 10l-7 -44q-13 -6 -29.5 -9.5t-36.5 -3.5q-53 0 -79.5 30.5t-26.5 95.5v614h50zM180 -161q-10 0 -16 6t-6 16t6 15.5t16 5.5t16 -5.5t6 -15.5t-6 -16t-16 -6z" />
    <glyph glyph-name="uni1E3A" unicode="&#x1e3a;" horiz-adv-x="572" 
d="M154 46h396v-46h-446v660h50v-614zM502 -101v-42h-310v42h310z" />
    <glyph glyph-name="uni1E3B" unicode="&#x1e3b;" horiz-adv-x="274" 
d="M283 -100v-42h-206v42h206zM135 730v-612q0 -46 16 -65t50 -19q21 0 33.5 3t29.5 10l-7 -44q-13 -6 -29.5 -9.5t-36.5 -3.5q-53 0 -79.5 30.5t-26.5 95.5v614h50z" />
    <glyph glyph-name="uni1E42" unicode="&#x1e42;" horiz-adv-x="822" 
d="M718 660v-660h-48v492l6 120h-1l-241 -612h-46l-241 612h-1l6 -120v-492h-48v660h75l199 -500l33 -101h1l32 100l199 501h75zM411 -161q-10 0 -16 6t-6 16t6 15.5t16 5.5t16 -5.5t6 -15.5t-6 -16t-16 -6z" />
    <glyph glyph-name="uni1E43" unicode="&#x1e43;" horiz-adv-x="960" 
d="M89 0v500h45l3 -104q22 54 71.5 84t110.5 30q65 0 112.5 -31t65.5 -91q13 38 42 65.5t68 42.5t81 15q52 0 94.5 -20.5t68 -62t25.5 -103.5v-324h-50v319q0 74 -39.5 110.5t-104.5 36.5q-47 0 -87 -22.5t-63.5 -63t-23.5 -93.5v-288h-50v319q0 74 -40 110.5t-104 36.5
q-45 0 -85 -22t-65 -63t-25 -98v-283h-50zM483 -161q-10 0 -16 6t-6 16t6 15.5t16 5.5t16 -5.5t6 -15.5t-6 -16t-16 -6z" />
    <glyph glyph-name="uni1E44" unicode="&#x1e44;" horiz-adv-x="715" 
d="M611 660v-660h-62l-350 518l-49 85h-1l3 -80v-523h-48v660h63l349 -517l50 -86v0l-2 80v523h47zM363 841q19 0 30.5 -11.5t11.5 -30.5t-11.5 -30.5t-30.5 -11.5t-30.5 11.5t-11.5 30.5t11.5 30.5t30.5 11.5z" />
    <glyph glyph-name="uni1E45" unicode="&#x1e45;" horiz-adv-x="598" 
d="M89 0v500h45l4 -125l-8 7q14 41 42 70t67 43.5t84 14.5q56 0 99 -21t67.5 -62t24.5 -103v-324h-50v308q0 82 -40.5 120t-105.5 38q-47 0 -87.5 -21.5t-66 -62.5t-25.5 -100v-282h-50zM306 681q19 0 30.5 -11.5t11.5 -30.5t-11.5 -30.5t-30.5 -11.5t-30.5 11.5t-11.5 30.5
t11.5 30.5t30.5 11.5z" />
    <glyph glyph-name="uni1E46" unicode="&#x1e46;" horiz-adv-x="715" 
d="M611 660v-660h-62l-350 518l-49 85h-1l3 -80v-523h-48v660h63l349 -517l50 -86v0l-2 80v523h47zM374 -161q-10 0 -16 6t-6 16t6 15.5t16 5.5t16 -5.5t6 -15.5t-6 -16t-16 -6z" />
    <glyph glyph-name="uni1E47" unicode="&#x1e47;" horiz-adv-x="598" 
d="M89 0v500h45l4 -125l-8 7q14 41 42 70t67 43.5t84 14.5q56 0 99 -21t67.5 -62t24.5 -103v-324h-50v308q0 82 -40.5 120t-105.5 38q-47 0 -87.5 -21.5t-66 -62.5t-25.5 -100v-282h-50zM333 -161q-10 0 -16 6t-6 16t6 15.5t16 5.5t16 -5.5t6 -15.5t-6 -16t-16 -6z" />
    <glyph glyph-name="uni1E48" unicode="&#x1e48;" horiz-adv-x="715" 
d="M611 660v-660h-62l-350 518l-49 85h-1l3 -80v-523h-48v660h63l349 -517l50 -86v0l-2 80v523h47zM529 -101v-42h-310v42h310z" />
    <glyph glyph-name="uni1E49" unicode="&#x1e49;" horiz-adv-x="598" 
d="M89 0v500h45l4 -125l-8 7q14 41 42 70t67 43.5t84 14.5q56 0 99 -21t67.5 -62t24.5 -103v-324h-50v308q0 82 -40.5 120t-105.5 38q-47 0 -87.5 -21.5t-66 -62.5t-25.5 -100v-282h-50zM488 -101v-42h-310v42h310z" />
    <glyph glyph-name="uni1E4C" unicode="&#x1e4c;" horiz-adv-x="732" 
d="M366 670q94 0 162 -41.5t105 -117.5t37 -181t-37 -181t-105 -117.5t-162 -41.5q-93 0 -161.5 41.5t-105.5 117.5t-37 181t37 181t105.5 117.5t161.5 41.5zM366 624q-77 0 -133.5 -35.5t-87 -101.5t-30.5 -157t30.5 -157t87 -101.5t133.5 -35.5q78 0 134 35.5t87 101.5
t31 157t-31 157t-87 101.5t-134 35.5zM536 861q-4 -36 -16.5 -61t-32.5 -37t-49 -12q-27 0 -46 10.5t-34 23.5t-29.5 23.5t-32.5 10.5q-26 0 -39.5 -18.5t-20.5 -50.5h-40q6 55 31.5 82.5t69.5 27.5q25 0 44 -10.5t34 -23.5t29.5 -23.5t32.5 -10.5q27 0 40 18t19 51h40z
M411 1077h53l-83 -154h-41z" />
    <glyph glyph-name="uni1E4D" unicode="&#x1e4d;" horiz-adv-x="585" 
d="M293 510q70 0 123.5 -31t84 -89.5t30.5 -139.5t-30.5 -139.5t-84 -89.5t-123.5 -31t-123.5 31t-84 89.5t-30.5 139.5t30.5 139.5t84 89.5t123.5 31zM293 467q-57 0 -99 -26t-65.5 -74.5t-23.5 -116.5q0 -67 23.5 -116t65.5 -75t99 -26t99 26t65.5 75t23.5 116
q0 68 -23.5 116.5t-65.5 74.5t-99 26zM463 699q-4 -36 -16.5 -61t-32.5 -37t-49 -12q-27 0 -46 10.5t-34 23.5t-29.5 23.5t-32.5 10.5q-26 0 -39.5 -18.5t-20.5 -50.5h-40q6 55 31.5 82.5t69.5 27.5q25 0 44 -10.5t34 -23.5t29.5 -23.5t32.5 -10.5q27 0 40 18t19 51h40z
M337 915h53l-83 -154h-41z" />
    <glyph glyph-name="uni1E4E" unicode="&#x1e4e;" horiz-adv-x="732" 
d="M366 670q94 0 162 -41.5t105 -117.5t37 -181t-37 -181t-105 -117.5t-162 -41.5q-93 0 -161.5 41.5t-105.5 117.5t-37 181t37 181t105.5 117.5t161.5 41.5zM366 624q-77 0 -133.5 -35.5t-87 -101.5t-30.5 -157t30.5 -157t87 -101.5t133.5 -35.5q78 0 134 35.5t87 101.5
t31 157t-31 157t-87 101.5t-134 35.5zM536 861q-4 -36 -16.5 -61t-32.5 -37t-49 -12q-27 0 -46 10.5t-34 23.5t-29.5 23.5t-32.5 10.5q-26 0 -39.5 -18.5t-20.5 -50.5h-40q6 55 31.5 82.5t69.5 27.5q25 0 44 -10.5t34 -23.5t29.5 -23.5t32.5 -10.5q27 0 40 18t19 51h40z
M271 1011q18 0 29 -11t11 -30q0 -18 -11 -29t-29 -11t-29.5 11t-11.5 29q0 19 11.5 30t29.5 11zM460 1011q19 0 30 -11t11 -30q0 -18 -11 -29t-30 -11q-18 0 -29 11t-11 29q0 19 11 30t29 11z" />
    <glyph glyph-name="uni1E4F" unicode="&#x1e4f;" horiz-adv-x="585" 
d="M293 510q70 0 123.5 -31t84 -89.5t30.5 -139.5t-30.5 -139.5t-84 -89.5t-123.5 -31t-123.5 31t-84 89.5t-30.5 139.5t30.5 139.5t84 89.5t123.5 31zM293 467q-57 0 -99 -26t-65.5 -74.5t-23.5 -116.5q0 -67 23.5 -116t65.5 -75t99 -26t99 26t65.5 75t23.5 116
q0 68 -23.5 116.5t-65.5 74.5t-99 26zM463 699q-4 -36 -16.5 -61t-32.5 -37t-49 -12q-27 0 -46 10.5t-34 23.5t-29.5 23.5t-32.5 10.5q-26 0 -39.5 -18.5t-20.5 -50.5h-40q6 55 31.5 82.5t69.5 27.5q25 0 44 -10.5t34 -23.5t29.5 -23.5t32.5 -10.5q27 0 40 18t19 51h40z
M197 849q18 0 29 -11t11 -30q0 -18 -11 -29t-29 -11t-29.5 11t-11.5 29q0 19 11.5 30t29.5 11zM386 849q19 0 30 -11t11 -30q0 -18 -11 -29t-30 -11q-18 0 -29 11t-11 29q0 19 11 30t29 11z" />
    <glyph glyph-name="uni1E50" unicode="&#x1e50;" horiz-adv-x="732" 
d="M366 670q94 0 162 -41.5t105 -117.5t37 -181t-37 -181t-105 -117.5t-162 -41.5q-93 0 -161.5 41.5t-105.5 117.5t-37 181t37 181t105.5 117.5t161.5 41.5zM366 624q-77 0 -133.5 -35.5t-87 -101.5t-30.5 -157t30.5 -157t87 -101.5t133.5 -35.5q78 0 134 35.5t87 101.5
t31 157t-31 157t-87 101.5t-134 35.5zM521 802v-42h-310v42h310zM322 1037l70 -154h-41l-82 154h53z" />
    <glyph glyph-name="uni1E51" unicode="&#x1e51;" horiz-adv-x="585" 
d="M293 510q70 0 123.5 -31t84 -89.5t30.5 -139.5t-30.5 -139.5t-84 -89.5t-123.5 -31t-123.5 31t-84 89.5t-30.5 139.5t30.5 139.5t84 89.5t123.5 31zM293 467q-57 0 -99 -26t-65.5 -74.5t-23.5 -116.5q0 -67 23.5 -116t65.5 -75t99 -26t99 26t65.5 75t23.5 116
q0 68 -23.5 116.5t-65.5 74.5t-99 26zM448 640v-42h-310v42h310zM249 876l70 -154h-41l-82 154h53z" />
    <glyph glyph-name="uni1E52" unicode="&#x1e52;" horiz-adv-x="732" 
d="M366 670q94 0 162 -41.5t105 -117.5t37 -181t-37 -181t-105 -117.5t-162 -41.5q-93 0 -161.5 41.5t-105.5 117.5t-37 181t37 181t105.5 117.5t161.5 41.5zM366 624q-77 0 -133.5 -35.5t-87 -101.5t-30.5 -157t30.5 -157t87 -101.5t133.5 -35.5q78 0 134 35.5t87 101.5
t31 157t-31 157t-87 101.5t-134 35.5zM521 802v-42h-310v42h310zM411 1037h53l-83 -154h-41z" />
    <glyph glyph-name="uni1E53" unicode="&#x1e53;" horiz-adv-x="585" 
d="M293 510q70 0 123.5 -31t84 -89.5t30.5 -139.5t-30.5 -139.5t-84 -89.5t-123.5 -31t-123.5 31t-84 89.5t-30.5 139.5t30.5 139.5t84 89.5t123.5 31zM293 467q-57 0 -99 -26t-65.5 -74.5t-23.5 -116.5q0 -67 23.5 -116t65.5 -75t99 -26t99 26t65.5 75t23.5 116
q0 68 -23.5 116.5t-65.5 74.5t-99 26zM448 640v-42h-310v42h310zM338 876h53l-83 -154h-41z" />
    <glyph glyph-name="uni1E5A" unicode="&#x1e5a;" horiz-adv-x="640" 
d="M349 660q99 0 157.5 -50t58.5 -137t-59 -135.5t-158 -48.5l-5 -3h-189v-286h-50v660h245zM348 333q80 0 122.5 36t42.5 104t-42.5 104.5t-122.5 36.5h-194v-281h194zM387 324l213 -324h-59l-196 296zM356 -161q-10 0 -16 6t-6 16t6 15.5t16 5.5t16 -5.5t6 -15.5t-6 -16
t-16 -6z" />
    <glyph glyph-name="uni1E5B" unicode="&#x1e5b;" horiz-adv-x="378" 
d="M89 0v500h42l6 -104q19 52 61 83t101 31q20 0 36 -4t27 -13l-12 -44q-11 7 -24 11t-39 4q-38 0 -72 -23.5t-55 -65t-21 -95.5v-280h-50zM114 -161q-10 0 -16 6t-6 16t6 15.5t16 5.5t16 -5.5t6 -15.5t-6 -16t-16 -6z" />
    <glyph glyph-name="uni1E5E" unicode="&#x1e5e;" horiz-adv-x="640" 
d="M349 660q99 0 157.5 -50t58.5 -137t-59 -135.5t-158 -48.5l-5 -3h-189v-286h-50v660h245zM348 333q80 0 122.5 36t42.5 104t-42.5 104.5t-122.5 36.5h-194v-281h194zM387 324l213 -324h-59l-196 296zM511 -101v-42h-310v42h310z" />
    <glyph glyph-name="uni1E5F" unicode="&#x1e5f;" horiz-adv-x="378" 
d="M212 -100v-42h-196v42h196zM89 0v500h42l6 -104q19 52 61 83t101 31q20 0 36 -4t27 -13l-12 -44q-11 7 -24 11t-39 4q-38 0 -72 -23.5t-55 -65t-21 -95.5v-280h-50z" />
    <glyph glyph-name="uni1E60" unicode="&#x1e60;" horiz-adv-x="619" 
d="M308 670q91 0 153.5 -36t95.5 -110l-42 -32q-29 70 -81.5 101t-129.5 31q-59 0 -100 -18.5t-62 -49t-21 -68.5q0 -45 29.5 -75.5t110.5 -48.5l129 -28q97 -21 136.5 -60t39.5 -102q0 -54 -31.5 -96t-86.5 -65t-129 -23q-71 0 -126.5 19.5t-93.5 55t-56 85.5l44 34
q14 -47 46.5 -80.5t80.5 -50.5t107 -17q56 0 100 15.5t68.5 45.5t24.5 74q0 42 -29.5 71t-104.5 44l-136 30q-63 14 -102 37t-56.5 55.5t-17.5 73.5q0 51 29 93.5t83 68.5t128 26zM309 841q19 0 30.5 -11.5t11.5 -30.5t-11.5 -30.5t-30.5 -11.5t-30.5 11.5t-11.5 30.5
t11.5 30.5t30.5 11.5z" />
    <glyph glyph-name="uni1E61" unicode="&#x1e61;" horiz-adv-x="505" 
d="M258 -10q-76 0 -134.5 31t-82.5 89l43 29q18 -50 64.5 -77.5t113.5 -27.5q66 0 103.5 26t37.5 69q0 29 -18.5 50.5t-69.5 32.5l-117 25q-71 15 -102 48.5t-31 81.5q0 40 24 72t66.5 51.5t99.5 19.5q75 0 124 -29.5t69 -88.5l-42 -27q-15 53 -55.5 77t-95.5 24
q-42 0 -73.5 -12.5t-49 -34t-17.5 -49.5q0 -29 20 -52.5t71 -34.5l120 -26q71 -15 99 -45.5t28 -75.5q0 -44 -24 -77.5t-68 -51t-103 -17.5zM252 681q19 0 30.5 -11.5t11.5 -30.5t-11.5 -30.5t-30.5 -11.5t-30.5 11.5t-11.5 30.5t11.5 30.5t30.5 11.5z" />
    <glyph glyph-name="uni1E62" unicode="&#x1e62;" horiz-adv-x="619" 
d="M308 670q91 0 153.5 -36t95.5 -110l-42 -32q-29 70 -81.5 101t-129.5 31q-59 0 -100 -18.5t-62 -49t-21 -68.5q0 -45 29.5 -75.5t110.5 -48.5l129 -28q97 -21 136.5 -60t39.5 -102q0 -54 -31.5 -96t-86.5 -65t-129 -23q-71 0 -126.5 19.5t-93.5 55t-56 85.5l44 34
q14 -47 46.5 -80.5t80.5 -50.5t107 -17q56 0 100 15.5t68.5 45.5t24.5 74q0 42 -29.5 71t-104.5 44l-136 30q-63 14 -102 37t-56.5 55.5t-17.5 73.5q0 51 29 93.5t83 68.5t128 26zM313 -161q-10 0 -16 6t-6 16t6 15.5t16 5.5t16 -5.5t6 -15.5t-6 -16t-16 -6z" />
    <glyph glyph-name="uni1E63" unicode="&#x1e63;" horiz-adv-x="505" 
d="M258 -10q-76 0 -134.5 31t-82.5 89l43 29q18 -50 64.5 -77.5t113.5 -27.5q66 0 103.5 26t37.5 69q0 29 -18.5 50.5t-69.5 32.5l-117 25q-71 15 -102 48.5t-31 81.5q0 40 24 72t66.5 51.5t99.5 19.5q75 0 124 -29.5t69 -88.5l-42 -27q-15 53 -55.5 77t-95.5 24
q-42 0 -73.5 -12.5t-49 -34t-17.5 -49.5q0 -29 20 -52.5t71 -34.5l120 -26q71 -15 99 -45.5t28 -75.5q0 -44 -24 -77.5t-68 -51t-103 -17.5zM259 -161q-10 0 -16 6t-6 16t6 15.5t16 5.5t16 -5.5t6 -15.5t-6 -16t-16 -6z" />
    <glyph glyph-name="uni1E64" unicode="&#x1e64;" horiz-adv-x="619" 
d="M308 670q91 0 153.5 -36t95.5 -110l-42 -32q-29 70 -81.5 101t-129.5 31q-59 0 -100 -18.5t-62 -49t-21 -68.5q0 -45 29.5 -75.5t110.5 -48.5l129 -28q97 -21 136.5 -60t39.5 -102q0 -54 -31.5 -96t-86.5 -65t-129 -23q-71 0 -126.5 19.5t-93.5 55t-56 85.5l44 34
q14 -47 46.5 -80.5t80.5 -50.5t107 -17q56 0 100 15.5t68.5 45.5t24.5 74q0 42 -29.5 71t-104.5 44l-136 30q-63 14 -102 37t-56.5 55.5t-17.5 73.5q0 51 29 93.5t83 68.5t128 26zM354 897h53l-83 -154h-41zM309 1034q19 0 30.5 -11.5t11.5 -30.5t-11.5 -30.5t-30.5 -11.5
t-30.5 11.5t-11.5 30.5t11.5 30.5t30.5 11.5z" />
    <glyph glyph-name="uni1E65" unicode="&#x1e65;" horiz-adv-x="505" 
d="M258 -10q-76 0 -134.5 31t-82.5 89l43 29q18 -50 64.5 -77.5t113.5 -27.5q66 0 103.5 26t37.5 69q0 29 -18.5 50.5t-69.5 32.5l-117 25q-71 15 -102 48.5t-31 81.5q0 40 24 72t66.5 51.5t99.5 19.5q75 0 124 -29.5t69 -88.5l-42 -27q-15 53 -55.5 77t-95.5 24
q-42 0 -73.5 -12.5t-49 -34t-17.5 -49.5q0 -29 20 -52.5t71 -34.5l120 -26q71 -15 99 -45.5t28 -75.5q0 -44 -24 -77.5t-68 -51t-103 -17.5zM303 741h55l-94 -158h-41zM252 867q19 0 30.5 -11.5t11.5 -30.5t-11.5 -30.5t-30.5 -11.5t-30.5 11.5t-11.5 30.5t11.5 30.5
t30.5 11.5z" />
    <glyph glyph-name="uni1E66" unicode="&#x1e66;" horiz-adv-x="619" 
d="M308 670q91 0 153.5 -36t95.5 -110l-42 -32q-29 70 -81.5 101t-129.5 31q-59 0 -100 -18.5t-62 -49t-21 -68.5q0 -45 29.5 -75.5t110.5 -48.5l129 -28q97 -21 136.5 -60t39.5 -102q0 -54 -31.5 -96t-86.5 -65t-129 -23q-71 0 -126.5 19.5t-93.5 55t-56 85.5l44 34
q14 -47 46.5 -80.5t80.5 -50.5t107 -17q56 0 100 15.5t68.5 45.5t24.5 74q0 42 -29.5 71t-104.5 44l-136 30q-63 14 -102 37t-56.5 55.5t-17.5 73.5q0 51 29 93.5t83 68.5t128 26zM447 894l-110 -151h-56l-110 151h48l90 -117l90 117h48zM309 1028q19 0 30.5 -11.5
t11.5 -30.5t-11.5 -30.5t-30.5 -11.5t-30.5 11.5t-11.5 30.5t11.5 30.5t30.5 11.5z" />
    <glyph glyph-name="uni1E67" unicode="&#x1e67;" horiz-adv-x="505" 
d="M258 -10q-76 0 -134.5 31t-82.5 89l43 29q18 -50 64.5 -77.5t113.5 -27.5q66 0 103.5 26t37.5 69q0 29 -18.5 50.5t-69.5 32.5l-117 25q-71 15 -102 48.5t-31 81.5q0 40 24 72t66.5 51.5t99.5 19.5q75 0 124 -29.5t69 -88.5l-42 -27q-15 53 -55.5 77t-95.5 24
q-42 0 -73.5 -12.5t-49 -34t-17.5 -49.5q0 -29 20 -52.5t71 -34.5l120 -26q71 -15 99 -45.5t28 -75.5q0 -44 -24 -77.5t-68 -51t-103 -17.5zM391 738l-111 -155h-56l-111 155h46l93 -121l93 121h46zM252 864q19 0 30.5 -11.5t11.5 -30.5t-11.5 -30.5t-30.5 -11.5t-30.5 11.5
t-11.5 30.5t11.5 30.5t30.5 11.5z" />
    <glyph glyph-name="uni1E68" unicode="&#x1e68;" horiz-adv-x="619" 
d="M308 670q91 0 153.5 -36t95.5 -110l-42 -32q-29 70 -81.5 101t-129.5 31q-59 0 -100 -18.5t-62 -49t-21 -68.5q0 -45 29.5 -75.5t110.5 -48.5l129 -28q97 -21 136.5 -60t39.5 -102q0 -54 -31.5 -96t-86.5 -65t-129 -23q-71 0 -126.5 19.5t-93.5 55t-56 85.5l44 34
q14 -47 46.5 -80.5t80.5 -50.5t107 -17q56 0 100 15.5t68.5 45.5t24.5 74q0 42 -29.5 71t-104.5 44l-136 30q-63 14 -102 37t-56.5 55.5t-17.5 73.5q0 51 29 93.5t83 68.5t128 26zM309 841q19 0 30.5 -11.5t11.5 -30.5t-11.5 -30.5t-30.5 -11.5t-30.5 11.5t-11.5 30.5
t11.5 30.5t30.5 11.5zM313 -161q-10 0 -16 6t-6 16t6 15.5t16 5.5t16 -5.5t6 -15.5t-6 -16t-16 -6z" />
    <glyph glyph-name="uni1E69" unicode="&#x1e69;" horiz-adv-x="505" 
d="M258 -10q-76 0 -134.5 31t-82.5 89l43 29q18 -50 64.5 -77.5t113.5 -27.5q66 0 103.5 26t37.5 69q0 29 -18.5 50.5t-69.5 32.5l-117 25q-71 15 -102 48.5t-31 81.5q0 40 24 72t66.5 51.5t99.5 19.5q75 0 124 -29.5t69 -88.5l-42 -27q-15 53 -55.5 77t-95.5 24
q-42 0 -73.5 -12.5t-49 -34t-17.5 -49.5q0 -29 20 -52.5t71 -34.5l120 -26q71 -15 99 -45.5t28 -75.5q0 -44 -24 -77.5t-68 -51t-103 -17.5zM252 681q19 0 30.5 -11.5t11.5 -30.5t-11.5 -30.5t-30.5 -11.5t-30.5 11.5t-11.5 30.5t11.5 30.5t30.5 11.5zM259 -161q-10 0 -16 6
t-6 16t6 15.5t16 5.5t16 -5.5t6 -15.5t-6 -16t-16 -6z" />
    <glyph glyph-name="uni1E6C" unicode="&#x1e6c;" horiz-adv-x="576" 
d="M554 660v-46h-241v-614h-50v614h-241v46h532zM288 -161q-10 0 -16 6t-6 16t6 15.5t16 5.5t16 -5.5t6 -15.5t-6 -16t-16 -6z" />
    <glyph glyph-name="uni1E6D" unicode="&#x1e6d;" horiz-adv-x="377" 
d="M172 639v-507q0 -47 22.5 -71.5t65.5 -24.5q28 0 49.5 9.5t38.5 27.5l19 -41q-19 -19 -48 -30.5t-65 -11.5q-39 0 -69 14.5t-46.5 44.5t-16.5 76v500zM359 500v-43h-337v43h337zM239 -161q-10 0 -16 6t-6 16t6 15.5t16 5.5t16 -5.5t6 -15.5t-6 -16t-16 -6z" />
    <glyph glyph-name="uni1E6E" unicode="&#x1e6e;" horiz-adv-x="576" 
d="M554 660v-46h-241v-614h-50v614h-241v46h532zM443 -101v-42h-310v42h310z" />
    <glyph glyph-name="uni1E6F" unicode="&#x1e6f;" horiz-adv-x="377" 
d="M172 639v-507q0 -47 22.5 -71.5t65.5 -24.5q28 0 49.5 9.5t38.5 27.5l19 -41q-19 -19 -48 -30.5t-65 -11.5q-39 0 -69 14.5t-46.5 44.5t-16.5 76v500zM359 500v-43h-337v43h337zM394 -101v-42h-310v42h310z" />
    <glyph glyph-name="uni1E78" unicode="&#x1e78;" horiz-adv-x="687" 
d="M598 660v-419q0 -123 -66.5 -187t-187.5 -64t-188 64t-67 187v419h50v-409q0 -106 52.5 -160.5t152.5 -54.5t152 54.5t52 160.5v409h50zM514 829q-4 -36 -16.5 -61t-32.5 -37t-49 -12q-27 0 -46 10.5t-34 23.5t-29.5 23.5t-32.5 10.5q-26 0 -39.5 -18.5t-20.5 -50.5h-40
q6 55 31.5 82.5t69.5 27.5q25 0 44 -10.5t34 -23.5t29.5 -23.5t32.5 -10.5q27 0 40 18t19 51h40zM388 1045h53l-83 -154h-41z" />
    <glyph glyph-name="uni1E79" unicode="&#x1e79;" horiz-adv-x="592" 
d="M265 -10q-52 0 -93 19t-64.5 59.5t-23.5 101.5v330h50v-318q0 -78 37.5 -113t105.5 -35q40 0 72.5 14t55.5 39t35.5 57.5t12.5 68.5v287h50v-500h-45l-2 103q-22 -53 -72 -83t-119 -30zM464 686q-4 -36 -16.5 -61t-32.5 -37t-49 -12q-27 0 -46 10.5t-34 23.5t-29.5 23.5
t-32.5 10.5q-26 0 -39.5 -18.5t-20.5 -50.5h-40q6 55 31.5 82.5t69.5 27.5q25 0 44 -10.5t34 -23.5t29.5 -23.5t32.5 -10.5q27 0 40 18t19 51h40zM338 902h53l-83 -154h-41z" />
    <glyph glyph-name="uni1E7A" unicode="&#x1e7a;" horiz-adv-x="687" 
d="M598 660v-419q0 -123 -66.5 -187t-187.5 -64t-188 64t-67 187v419h50v-409q0 -106 52.5 -160.5t152.5 -54.5t152 54.5t52 160.5v409h50zM499 770v-42h-310v42h310zM249 939q18 0 29 -11t11 -30q0 -18 -11 -29t-29 -11t-29.5 11t-11.5 29q0 19 11.5 30t29.5 11zM438 939
q19 0 30 -11t11 -30q0 -18 -11 -29t-30 -11q-18 0 -29 11t-11 29q0 19 11 30t29 11z" />
    <glyph glyph-name="uni1E7B" unicode="&#x1e7b;" horiz-adv-x="592" 
d="M265 -10q-52 0 -93 19t-64.5 59.5t-23.5 101.5v330h50v-318q0 -78 37.5 -113t105.5 -35q40 0 72.5 14t55.5 39t35.5 57.5t12.5 68.5v287h50v-500h-45l-2 103q-22 -53 -72 -83t-119 -30zM449 627v-42h-310v42h310zM199 797q18 0 29 -11t11 -30q0 -18 -11 -29t-29 -11
t-29.5 11t-11.5 29q0 19 11.5 30t29.5 11zM388 797q19 0 30 -11t11 -30q0 -18 -11 -29t-30 -11q-18 0 -29 11t-11 29q0 19 11 30t29 11z" />
    <glyph glyph-name="Wgrave" unicode="&#x1e80;" horiz-adv-x="937" 
d="M236 0l-206 660h52l186 -614l172 614h58l173 -615l186 615h50l-206 -660h-62l-133 463l-37 143h-1l-37 -143l-133 -463h-62zM425 897l70 -154h-41l-82 154h53z" />
    <glyph glyph-name="wgrave" unicode="&#x1e81;" horiz-adv-x="809" 
d="M726 500h55l-170 -500h-50l-158 435l-155 -435h-50l-170 500h55l141 -440l155 440h51l156 -440zM352 741l80 -158h-41l-93 158h54z" />
    <glyph glyph-name="Wacute" unicode="&#x1e82;" horiz-adv-x="937" 
d="M236 0l-206 660h52l186 -614l172 614h58l173 -615l186 615h50l-206 -660h-62l-133 463l-37 143h-1l-37 -143l-133 -463h-62zM514 897h53l-83 -154h-41z" />
    <glyph glyph-name="wacute" unicode="&#x1e83;" horiz-adv-x="809" 
d="M726 500h55l-170 -500h-50l-158 435l-155 -435h-50l-170 500h55l141 -440l155 440h51l156 -440zM456 741h55l-94 -158h-41z" />
    <glyph glyph-name="Wdieresis" unicode="&#x1e84;" horiz-adv-x="937" 
d="M236 0l-206 660h52l186 -614l172 614h58l173 -615l186 615h50l-206 -660h-62l-133 463l-37 143h-1l-37 -143l-133 -463h-62zM374 831q18 0 29 -11t11 -30q0 -18 -11 -29t-29 -11t-29.5 11t-11.5 29q0 19 11.5 30t29.5 11zM563 831q19 0 30 -11t11 -30q0 -18 -11 -29
t-30 -11q-18 0 -29 11t-11 29q0 19 11 30t29 11z" />
    <glyph glyph-name="wdieresis" unicode="&#x1e85;" horiz-adv-x="809" 
d="M726 500h55l-170 -500h-50l-158 435l-155 -435h-50l-170 500h55l141 -440l155 440h51l156 -440zM310 671q18 0 29 -11t11 -30q0 -18 -11 -29t-29 -11t-29.5 11t-11.5 29q0 19 11.5 30t29.5 11zM499 671q19 0 30 -11t11 -30q0 -18 -11 -29t-30 -11q-18 0 -29 11t-11 29
q0 19 11 30t29 11z" />
    <glyph glyph-name="uni1E8E" unicode="&#x1e8e;" horiz-adv-x="544" 
d="M531 660l-234 -403v-257h-50v257l-234 403h59l129 -226l71 -125l71 125l129 226h59zM272 812q19 0 30.5 -11.5t11.5 -30.5t-11.5 -30.5t-30.5 -11.5t-30.5 11.5t-11.5 30.5t11.5 30.5t30.5 11.5z" />
    <glyph glyph-name="uni1E8F" unicode="&#x1e8f;" horiz-adv-x="500" 
d="M483 500l-242 -592q-18 -46 -39 -73t-47 -38.5t-60 -11.5q-30 0 -54.5 9t-41.5 25l16 43q15 -18 36 -25.5t43 -7.5q32 0 57 18.5t47 72.5l33 80l-53 124l-158 376h57l153 -379l25 -67l27 72l147 374h54zM252 666q19 0 30.5 -11.5t11.5 -30.5t-11.5 -30.5t-30.5 -11.5
t-30.5 11.5t-11.5 30.5t11.5 30.5t30.5 11.5z" />
    <glyph glyph-name="uni1E92" unicode="&#x1e92;" horiz-adv-x="593" 
d="M88 28l-9 18h474v-46h-510v44l449 588l9 -18h-449v46h485v-44zM292 -161q-10 0 -16 6t-6 16t6 15.5t16 5.5t16 -5.5t6 -15.5t-6 -16t-16 -6z" />
    <glyph glyph-name="uni1E93" unicode="&#x1e93;" horiz-adv-x="505" 
d="M49 0v39l294 361l52 58l-79 -1h-270v43h405v-39l-285 -352l-60 -67l90 1h267v-43h-414zM245 -161q-10 0 -16 6t-6 16t6 15.5t16 5.5t16 -5.5t6 -15.5t-6 -16t-16 -6z" />
    <glyph glyph-name="uni1E97" unicode="&#x1e97;" horiz-adv-x="377" 
d="M172 639v-507q0 -47 22.5 -71.5t65.5 -24.5q28 0 49.5 9.5t38.5 27.5l19 -41q-19 -19 -48 -30.5t-65 -11.5q-39 0 -69 14.5t-46.5 44.5t-16.5 76v500zM359 500v-43h-337v43h337zM52 793q18 0 29 -11t11 -30q0 -18 -11 -29t-29 -11t-29.5 11t-11.5 29q0 19 11.5 30
t29.5 11zM241 793q19 0 30 -11t11 -30q0 -18 -11 -29t-30 -11q-18 0 -29 11t-11 29q0 19 11 30t29 11z" />
    <glyph glyph-name="uni1E9E" unicode="&#x1e9e;" horiz-adv-x="645" 
d="M418 -5q-62 0 -103 18t-60 39l24 42q20 -21 54.5 -37.5t81.5 -16.5q46 0 79 19.5t50 52t17 72.5q0 66 -39 98.5t-112 32.5h-102v43l206 256h-205q-49 0 -87 -22t-59.5 -60.5t-21.5 -89.5v-442h-50v443q0 65 27.5 114t76.5 76t114 27h264v-47l-211 -255h-5h64
q60 0 102.5 -20t65.5 -58.5t23 -94.5t-24.5 -99t-67.5 -67t-102 -24z" />
    <glyph glyph-name="uni1EA0" unicode="&#x1ea0;" horiz-adv-x="625" 
d="M606 0h-53l-83 207h-315l-83 -207h-53l264 660h59zM173 253h279l-140 358zM313 -161q-10 0 -16 6t-6 16t6 15.5t16 5.5t16 -5.5t6 -15.5t-6 -16t-16 -6z" />
    <glyph glyph-name="uni1EA1" unicode="&#x1ea1;" horiz-adv-x="543" 
d="M395 329q0 65 -35 101t-100 36q-57 0 -98 -24.5t-61 -81.5l-41 26q22 59 73.5 91.5t127.5 32.5q55 0 96.5 -19.5t64.5 -57.5t23 -95v-250q0 -53 48 -53q21 0 36 7l-3 -40q-17 -9 -44 -9q-23 0 -43 9t-32.5 30t-12.5 57v27l14 1q-9 -43 -39.5 -71.5t-70.5 -42t-80 -13.5
q-47 0 -84 15t-58 43.5t-21 70.5q0 56 37.5 90.5t105.5 47.5l207 41v-42l-182 -36q-59 -12 -88 -35t-29 -62q0 -42 31 -65.5t88 -23.5q29 0 59 8t55.5 25.5t40.5 44t15 64.5v153zM260 -161q-10 0 -16 6t-6 16t6 15.5t16 5.5t16 -5.5t6 -15.5t-6 -16t-16 -6z" />
    <glyph glyph-name="uni1EA2" unicode="&#x1ea2;" horiz-adv-x="625" 
d="M606 0h-53l-83 207h-315l-83 -207h-53l264 660h59zM173 253h279l-140 358zM314 715l-18 23q28 15 41 30.5t13 37.5q0 17 -12 28t-31 11q-18 0 -30 -9t-19 -24l-32 20q12 25 34.5 39t52.5 14q24 0 41 -9.5t27.5 -26t10.5 -36.5q0 -22 -9 -40.5t-26.5 -32.5t-42.5 -25z" />
    <glyph glyph-name="uni1EA3" unicode="&#x1ea3;" horiz-adv-x="543" 
d="M395 329q0 65 -35 101t-100 36q-57 0 -98 -24.5t-61 -81.5l-41 26q22 59 73.5 91.5t127.5 32.5q55 0 96.5 -19.5t64.5 -57.5t23 -95v-250q0 -53 48 -53q21 0 36 7l-3 -40q-17 -9 -44 -9q-23 0 -43 9t-32.5 30t-12.5 57v27l14 1q-9 -43 -39.5 -71.5t-70.5 -42t-80 -13.5
q-47 0 -84 15t-58 43.5t-21 70.5q0 56 37.5 90.5t105.5 47.5l207 41v-42l-182 -36q-59 -12 -88 -35t-29 -62q0 -42 31 -65.5t88 -23.5q29 0 59 8t55.5 25.5t40.5 44t15 64.5v153zM254 560l-18 25q30 17 44 33.5t14 39.5q0 19 -11.5 31t-32.5 12q-18 0 -30.5 -10t-21.5 -26
l-31 21q10 24 32.5 39.5t56.5 15.5q25 0 43 -9.5t28 -27t10 -39.5q0 -23 -9.5 -42t-28 -34t-45.5 -29z" />
    <glyph glyph-name="uni1EA4" unicode="&#x1ea4;" horiz-adv-x="625" 
d="M452 739h-47l-92 122l-93 -122h-47l112 156h56zM484 992h47l-73 -138h-37zM606 0h-53l-83 207h-315l-83 -207h-53l264 660h59zM173 253h279l-140 358z" />
    <glyph glyph-name="uni1EA5" unicode="&#x1ea5;" horiz-adv-x="543" 
d="M399 579h-46l-93 122l-92 -122h-47l111 156h56zM431 832h48l-74 -138h-37zM395 329q0 65 -35 101t-100 36q-57 0 -98 -24.5t-61 -81.5l-41 26q22 59 73.5 91.5t127.5 32.5q55 0 96.5 -19.5t64.5 -57.5t23 -95v-250q0 -53 48 -53q21 0 36 7l-3 -40q-17 -9 -44 -9
q-23 0 -43 9t-32.5 30t-12.5 57v27l14 1q-9 -43 -39.5 -71.5t-70.5 -42t-80 -13.5q-47 0 -84 15t-58 43.5t-21 70.5q0 56 37.5 90.5t105.5 47.5l207 41v-42l-182 -36q-59 -12 -88 -35t-29 -62q0 -42 31 -65.5t88 -23.5q29 0 59 8t55.5 25.5t40.5 44t15 64.5v153z" />
    <glyph glyph-name="uni1EA6" unicode="&#x1ea6;" horiz-adv-x="625" 
d="M452 739h-47l-92 122l-93 -122h-47l112 156h56zM412 992l63 -138h-37l-73 138h47zM606 0h-53l-83 207h-315l-83 -207h-53l264 660h59zM173 253h279l-140 358z" />
    <glyph glyph-name="uni1EA7" unicode="&#x1ea7;" horiz-adv-x="543" 
d="M399 579h-46l-93 122l-92 -122h-47l111 156h56zM359 832l64 -138h-37l-74 138h47zM395 329q0 65 -35 101t-100 36q-57 0 -98 -24.5t-61 -81.5l-41 26q22 59 73.5 91.5t127.5 32.5q55 0 96.5 -19.5t64.5 -57.5t23 -95v-250q0 -53 48 -53q21 0 36 7l-3 -40q-17 -9 -44 -9
q-23 0 -43 9t-32.5 30t-12.5 57v27l14 1q-9 -43 -39.5 -71.5t-70.5 -42t-80 -13.5q-47 0 -84 15t-58 43.5t-21 70.5q0 56 37.5 90.5t105.5 47.5l207 41v-42l-182 -36q-59 -12 -88 -35t-29 -62q0 -42 31 -65.5t88 -23.5q29 0 59 8t55.5 25.5t40.5 44t15 64.5v153z" />
    <glyph glyph-name="uni1EA8" unicode="&#x1ea8;" horiz-adv-x="625" 
d="M452 739h-47l-92 122l-93 -122h-47l112 156h56zM445 834l-19 23q28 15 41 30.5t13 37.5q0 17 -11.5 28t-31.5 11q-18 0 -30 -9t-19 -24l-32 20q12 25 34.5 39t53.5 14q23 0 40.5 -9.5t27.5 -26t10 -36.5q0 -22 -9 -40.5t-26.5 -32.5t-41.5 -25zM606 0h-53l-83 207h-315
l-83 -207h-53l264 660h59zM173 253h279l-140 358z" />
    <glyph glyph-name="uni1EA9" unicode="&#x1ea9;" horiz-adv-x="543" 
d="M399 579h-46l-93 122l-92 -122h-47l111 156h56zM392 674l-19 23q28 15 41 30.5t13 37.5q0 17 -11.5 28t-30.5 11t-31 -9t-19 -24l-31 20q11 25 34 39t53 14q23 0 40.5 -9.5t27.5 -26t10 -36.5q0 -22 -8.5 -40.5t-26 -32.5t-42.5 -25zM395 329q0 65 -35 101t-100 36
q-57 0 -98 -24.5t-61 -81.5l-41 26q22 59 73.5 91.5t127.5 32.5q55 0 96.5 -19.5t64.5 -57.5t23 -95v-250q0 -53 48 -53q21 0 36 7l-3 -40q-17 -9 -44 -9q-23 0 -43 9t-32.5 30t-12.5 57v27l14 1q-9 -43 -39.5 -71.5t-70.5 -42t-80 -13.5q-47 0 -84 15t-58 43.5t-21 70.5
q0 56 37.5 90.5t105.5 47.5l207 41v-42l-182 -36q-59 -12 -88 -35t-29 -62q0 -42 31 -65.5t88 -23.5q29 0 59 8t55.5 25.5t40.5 44t15 64.5v153z" />
    <glyph glyph-name="uni1EAA" unicode="&#x1eaa;" horiz-adv-x="625" 
d="M452 739h-47l-92 122l-93 -122h-47l112 156h56zM475 1026q-6 -54 -30.5 -79.5t-64.5 -25.5q-28 0 -45.5 10t-30.5 22.5t-26.5 22.5t-32.5 10q-24 0 -36 -15.5t-19 -47.5h-40q6 54 30.5 79t65.5 25q27 0 44.5 -9.5t30.5 -22.5t26 -23t32 -10q25 0 37.5 16t18.5 48h40z
M606 0h-53l-83 207h-315l-83 -207h-53l264 660h59zM173 253h279l-140 358z" />
    <glyph glyph-name="uni1EAB" unicode="&#x1eab;" horiz-adv-x="543" 
d="M399 579h-46l-93 122l-92 -122h-47l111 156h56zM423 866q-7 -54 -31.5 -79.5t-64.5 -25.5q-28 0 -45.5 10t-30 22.5t-26 22.5t-33.5 10q-24 0 -36 -15.5t-18 -47.5h-41q7 54 31.5 79t64.5 25q27 0 44.5 -9.5t30.5 -22.5t26.5 -23t32.5 -10q24 0 36.5 16t18.5 48h41z
M395 329q0 65 -35 101t-100 36q-57 0 -98 -24.5t-61 -81.5l-41 26q22 59 73.5 91.5t127.5 32.5q55 0 96.5 -19.5t64.5 -57.5t23 -95v-250q0 -53 48 -53q21 0 36 7l-3 -40q-17 -9 -44 -9q-23 0 -43 9t-32.5 30t-12.5 57v27l14 1q-9 -43 -39.5 -71.5t-70.5 -42t-80 -13.5
q-47 0 -84 15t-58 43.5t-21 70.5q0 56 37.5 90.5t105.5 47.5l207 41v-42l-182 -36q-59 -12 -88 -35t-29 -62q0 -42 31 -65.5t88 -23.5q29 0 59 8t55.5 25.5t40.5 44t15 64.5v153z" />
    <glyph glyph-name="uni1EAC" unicode="&#x1eac;" horiz-adv-x="625" 
d="M606 0h-53l-83 207h-315l-83 -207h-53l264 660h59zM173 253h279l-140 358zM313 -161q-10 0 -16 6t-6 16t6 15.5t16 5.5t16 -5.5t6 -15.5t-6 -16t-16 -6zM451 743h-48l-90 117l-90 -117h-48l110 151h56z" />
    <glyph glyph-name="uni1EAD" unicode="&#x1ead;" horiz-adv-x="543" 
d="M395 329q0 65 -35 101t-100 36q-57 0 -98 -24.5t-61 -81.5l-41 26q22 59 73.5 91.5t127.5 32.5q55 0 96.5 -19.5t64.5 -57.5t23 -95v-250q0 -53 48 -53q21 0 36 7l-3 -40q-17 -9 -44 -9q-23 0 -43 9t-32.5 30t-12.5 57v27l14 1q-9 -43 -39.5 -71.5t-70.5 -42t-80 -13.5
q-47 0 -84 15t-58 43.5t-21 70.5q0 56 37.5 90.5t105.5 47.5l207 41v-42l-182 -36q-59 -12 -88 -35t-29 -62q0 -42 31 -65.5t88 -23.5q29 0 59 8t55.5 25.5t40.5 44t15 64.5v153zM260 -161q-10 0 -16 6t-6 16t6 15.5t16 5.5t16 -5.5t6 -15.5t-6 -16t-16 -6zM399 579h-46
l-93 122l-93 -122h-46l111 156h56z" />
    <glyph glyph-name="uni1EAE" unicode="&#x1eae;" horiz-adv-x="625" 
d="M448 874q0 -62 -37 -98.5t-98 -36.5q-62 0 -99 36.5t-37 98.5h41q1 -41 25.5 -69t69.5 -28t69 28t25 69h41zM284 884l57 134h52l-70 -134h-39zM606 0h-53l-83 207h-315l-83 -207h-53l264 660h59zM173 253h279l-140 358z" />
    <glyph glyph-name="uni1EAF" unicode="&#x1eaf;" horiz-adv-x="543" 
d="M395 714q0 -62 -36.5 -98.5t-98.5 -36.5t-98.5 36.5t-36.5 98.5h41q0 -41 24.5 -69t69.5 -28q46 0 70 28t24 69h41zM231 724l57 134h52l-69 -134h-40zM395 329q0 65 -35 101t-100 36q-57 0 -98 -24.5t-61 -81.5l-41 26q22 59 73.5 91.5t127.5 32.5q55 0 96.5 -19.5
t64.5 -57.5t23 -95v-250q0 -53 48 -53q21 0 36 7l-3 -40q-17 -9 -44 -9q-23 0 -43 9t-32.5 30t-12.5 57v27l14 1q-9 -43 -39.5 -71.5t-70.5 -42t-80 -13.5q-47 0 -84 15t-58 43.5t-21 70.5q0 56 37.5 90.5t105.5 47.5l207 41v-42l-182 -36q-59 -12 -88 -35t-29 -62
q0 -42 31 -65.5t88 -23.5q29 0 59 8t55.5 25.5t40.5 44t15 64.5v153z" />
    <glyph glyph-name="uni1EB0" unicode="&#x1eb0;" horiz-adv-x="625" 
d="M448 874q0 -62 -37 -98.5t-98 -36.5q-62 0 -99 36.5t-37 98.5h41q1 -41 25.5 -69t69.5 -28t69 28t25 69h41zM342 884h-40l-69 134h51zM606 0h-53l-83 207h-315l-83 -207h-53l264 660h59zM173 253h279l-140 358z" />
    <glyph glyph-name="uni1EB1" unicode="&#x1eb1;" horiz-adv-x="543" 
d="M395 714q0 -62 -36.5 -98.5t-98.5 -36.5t-98.5 36.5t-36.5 98.5h41q0 -41 24.5 -69t69.5 -28q46 0 70 28t24 69h41zM289 724h-40l-69 134h52zM395 329q0 65 -35 101t-100 36q-57 0 -98 -24.5t-61 -81.5l-41 26q22 59 73.5 91.5t127.5 32.5q55 0 96.5 -19.5t64.5 -57.5
t23 -95v-250q0 -53 48 -53q21 0 36 7l-3 -40q-17 -9 -44 -9q-23 0 -43 9t-32.5 30t-12.5 57v27l14 1q-9 -43 -39.5 -71.5t-70.5 -42t-80 -13.5q-47 0 -84 15t-58 43.5t-21 70.5q0 56 37.5 90.5t105.5 47.5l207 41v-42l-182 -36q-59 -12 -88 -35t-29 -62q0 -42 31 -65.5
t88 -23.5q29 0 59 8t55.5 25.5t40.5 44t15 64.5v153z" />
    <glyph glyph-name="uni1EB2" unicode="&#x1eb2;" horiz-adv-x="625" 
d="M448 874q0 -62 -37 -98.5t-98 -36.5q-62 0 -99 36.5t-37 98.5h41q1 -41 25.5 -69t69.5 -28t69 28t25 69h41zM314 874l-18 22q27 16 40 31t13 37q0 18 -11.5 29t-30.5 11t-31 -9.5t-19 -24.5l-31 21q12 24 34.5 38t52.5 14q23 0 40.5 -9t27.5 -25.5t10 -37.5
q0 -22 -8.5 -40t-26 -32t-42.5 -25zM606 0h-53l-83 207h-315l-83 -207h-53l264 660h59zM173 253h279l-140 358z" />
    <glyph glyph-name="uni1EB3" unicode="&#x1eb3;" horiz-adv-x="543" 
d="M395 714q0 -62 -36.5 -98.5t-98.5 -36.5t-98.5 36.5t-36.5 98.5h41q0 -41 24.5 -69t69.5 -28q46 0 70 28t24 69h41zM262 714l-19 22q28 16 41 31t13 37q0 18 -11.5 29t-31.5 11q-18 0 -30 -9.5t-19 -24.5l-32 21q12 24 34.5 38t52.5 14q24 0 41.5 -9t27.5 -25.5t10 -37.5
q0 -22 -9 -40t-26.5 -32t-41.5 -25zM395 329q0 65 -35 101t-100 36q-57 0 -98 -24.5t-61 -81.5l-41 26q22 59 73.5 91.5t127.5 32.5q55 0 96.5 -19.5t64.5 -57.5t23 -95v-250q0 -53 48 -53q21 0 36 7l-3 -40q-17 -9 -44 -9q-23 0 -43 9t-32.5 30t-12.5 57v27l14 1
q-9 -43 -39.5 -71.5t-70.5 -42t-80 -13.5q-47 0 -84 15t-58 43.5t-21 70.5q0 56 37.5 90.5t105.5 47.5l207 41v-42l-182 -36q-59 -12 -88 -35t-29 -62q0 -42 31 -65.5t88 -23.5q29 0 59 8t55.5 25.5t40.5 44t15 64.5v153z" />
    <glyph glyph-name="uni1EB4" unicode="&#x1eb4;" horiz-adv-x="625" 
d="M448 874q0 -62 -36.5 -98.5t-98.5 -36.5t-99 36.5t-37 98.5h41q1 -41 25.5 -69t69.5 -28t69 28t25 69h41zM475 1016q-6 -54 -30.5 -79t-64.5 -25q-28 0 -45.5 10t-30.5 22.5t-26 22.5t-33 10q-24 0 -36 -16t-19 -48h-40q6 54 30.5 79.5t65.5 25.5q27 0 44.5 -10
t30.5 -22.5t26 -22.5t33 -10q24 0 36.5 16t18.5 47h40zM606 0h-53l-83 207h-315l-83 -207h-53l264 660h59zM173 253h279l-140 358z" />
    <glyph glyph-name="uni1EB5" unicode="&#x1eb5;" horiz-adv-x="543" 
d="M395 714q0 -62 -36.5 -98.5t-98.5 -36.5t-98.5 36.5t-36.5 98.5h41q0 -41 24.5 -69t69.5 -28q46 0 70 28t24 69h41zM423 856q-7 -54 -31.5 -79t-64.5 -25q-28 0 -45.5 10t-30 22.5t-26 22.5t-33.5 10q-24 0 -36 -16t-18 -48h-41q7 54 31.5 79.5t64.5 25.5q27 0 44.5 -10
t30.5 -22.5t26.5 -22.5t32.5 -10q24 0 36.5 16t18.5 47h41zM395 329q0 65 -35 101t-100 36q-57 0 -98 -24.5t-61 -81.5l-41 26q22 59 73.5 91.5t127.5 32.5q55 0 96.5 -19.5t64.5 -57.5t23 -95v-250q0 -53 48 -53q21 0 36 7l-3 -40q-17 -9 -44 -9q-23 0 -43 9t-32.5 30
t-12.5 57v27l14 1q-9 -43 -39.5 -71.5t-70.5 -42t-80 -13.5q-47 0 -84 15t-58 43.5t-21 70.5q0 56 37.5 90.5t105.5 47.5l207 41v-42l-182 -36q-59 -12 -88 -35t-29 -62q0 -42 31 -65.5t88 -23.5q29 0 59 8t55.5 25.5t40.5 44t15 64.5v153z" />
    <glyph glyph-name="uni1EB6" unicode="&#x1eb6;" horiz-adv-x="625" 
d="M606 0h-53l-83 207h-315l-83 -207h-53l264 660h59zM173 253h279l-140 358zM313 -161q-10 0 -16 6t-6 16t6 15.5t16 5.5t16 -5.5t6 -15.5t-6 -16t-16 -6zM448 874q0 -62 -36.5 -98.5t-98.5 -36.5t-98.5 36.5t-36.5 98.5h41q0 -41 24.5 -69t69.5 -28q46 0 70 28t24 69h41z
" />
    <glyph glyph-name="uni1EB7" unicode="&#x1eb7;" horiz-adv-x="543" 
d="M395 329q0 65 -35 101t-100 36q-57 0 -98 -24.5t-61 -81.5l-41 26q22 59 73.5 91.5t127.5 32.5q55 0 96.5 -19.5t64.5 -57.5t23 -95v-250q0 -53 48 -53q21 0 36 7l-3 -40q-17 -9 -44 -9q-23 0 -43 9t-32.5 30t-12.5 57v27l14 1q-9 -43 -39.5 -71.5t-70.5 -42t-80 -13.5
q-47 0 -84 15t-58 43.5t-21 70.5q0 56 37.5 90.5t105.5 47.5l207 41v-42l-182 -36q-59 -12 -88 -35t-29 -62q0 -42 31 -65.5t88 -23.5q29 0 59 8t55.5 25.5t40.5 44t15 64.5v153zM260 -161q-10 0 -16 6t-6 16t6 15.5t16 5.5t16 -5.5t6 -15.5t-6 -16t-16 -6zM395 714
q0 -62 -36.5 -98.5t-98.5 -36.5t-98.5 36.5t-36.5 98.5h41q0 -41 24.5 -69t69.5 -28q46 0 70 28t24 69h41z" />
    <glyph glyph-name="uni1EB8" unicode="&#x1eb8;" horiz-adv-x="612" 
d="M104 0v660h451v-46h-401v-255h317v-47h-317v-266h417v-46h-467zM342 -161q-10 0 -16 6t-6 16t6 15.5t16 5.5t16 -5.5t6 -15.5t-6 -16t-16 -6z" />
    <glyph glyph-name="uni1EB9" unicode="&#x1eb9;" horiz-adv-x="557" 
d="M293 -10q-69 0 -123 31t-84.5 89.5t-30.5 139.5t30.5 139.5t83 89.5t118.5 31q68 0 116 -30t74 -83.5t26 -123.5q0 -9 -0.5 -17.5t-1.5 -15.5h-415v45h393l-25 -7q-1 86 -45.5 137t-122.5 51q-54 0 -95 -25.5t-64 -74t-23 -116.5q0 -67 23.5 -116t66 -74.5t98.5 -25.5
q58 0 99.5 25t64.5 69l40 -23q-18 -36 -48 -61.5t-69 -39.5t-86 -14zM293 -161q-10 0 -16 6t-6 16t6 15.5t16 5.5t16 -5.5t6 -15.5t-6 -16t-16 -6z" />
    <glyph glyph-name="uni1EBA" unicode="&#x1eba;" horiz-adv-x="612" 
d="M104 0v660h451v-46h-401v-255h317v-47h-317v-266h417v-46h-467zM331 715l-18 23q28 15 41 30.5t13 37.5q0 17 -12 28t-31 11q-18 0 -30 -9t-19 -24l-32 20q12 25 34.5 39t52.5 14q24 0 41 -9.5t27.5 -26t10.5 -36.5q0 -22 -9 -40.5t-26.5 -32.5t-42.5 -25z" />
    <glyph glyph-name="uni1EBB" unicode="&#x1ebb;" horiz-adv-x="557" 
d="M293 -10q-69 0 -123 31t-84.5 89.5t-30.5 139.5t30.5 139.5t83 89.5t118.5 31q68 0 116 -30t74 -83.5t26 -123.5q0 -9 -0.5 -17.5t-1.5 -15.5h-415v45h393l-25 -7q-1 86 -45.5 137t-122.5 51q-54 0 -95 -25.5t-64 -74t-23 -116.5q0 -67 23.5 -116t66 -74.5t98.5 -25.5
q58 0 99.5 25t64.5 69l40 -23q-18 -36 -48 -61.5t-69 -39.5t-86 -14zM276 560l-18 25q30 17 44 33.5t14 39.5q0 19 -11.5 31t-32.5 12q-18 0 -30.5 -10t-21.5 -26l-31 21q10 24 32.5 39.5t56.5 15.5q25 0 43 -9.5t28 -27t10 -39.5q0 -23 -9.5 -42t-28 -34t-45.5 -29z" />
    <glyph glyph-name="uni1EBC" unicode="&#x1ebc;" horiz-adv-x="612" 
d="M104 0v660h451v-46h-401v-255h317v-47h-317v-266h417v-46h-467zM500 861q-4 -36 -16.5 -61t-32.5 -37t-49 -12q-27 0 -46 10.5t-34 23.5t-29.5 23.5t-32.5 10.5q-26 0 -39.5 -18.5t-20.5 -50.5h-40q6 55 31.5 82.5t69.5 27.5q25 0 44 -10.5t34 -23.5t29.5 -23.5
t32.5 -10.5q27 0 40 18t19 51h40z" />
    <glyph glyph-name="uni1EBD" unicode="&#x1ebd;" horiz-adv-x="557" 
d="M293 -10q-69 0 -123 31t-84.5 89.5t-30.5 139.5t30.5 139.5t83 89.5t118.5 31q68 0 116 -30t74 -83.5t26 -123.5q0 -9 -0.5 -17.5t-1.5 -15.5h-415v45h393l-25 -7q-1 86 -45.5 137t-122.5 51q-54 0 -95 -25.5t-64 -74t-23 -116.5q0 -67 23.5 -116t66 -74.5t98.5 -25.5
q58 0 99.5 25t64.5 69l40 -23q-18 -36 -48 -61.5t-69 -39.5t-86 -14zM452 701q-4 -36 -16.5 -61t-32.5 -37t-49 -12q-27 0 -46 10.5t-34 23.5t-29.5 23.5t-32.5 10.5q-26 0 -39.5 -18.5t-20.5 -50.5h-40q6 55 31.5 82.5t69.5 27.5q25 0 44 -10.5t34 -23.5t29.5 -23.5
t32.5 -10.5q27 0 40 18t19 51h40z" />
    <glyph glyph-name="uni1EBE" unicode="&#x1ebe;" horiz-adv-x="612" 
d="M469 739h-47l-92 122l-93 -122h-47l112 156h56zM501 992h47l-73 -138h-37zM104 0v660h451v-46h-401v-255h317v-47h-317v-266h417v-46h-467z" />
    <glyph glyph-name="uni1EBF" unicode="&#x1ebf;" horiz-adv-x="557" 
d="M453 832h47l-74 -138h-36zM421 579h-47l-92 122l-93 -122h-47l112 156h56zM293 -10q-69 0 -123 31t-84.5 89.5t-30.5 139.5t30.5 139.5t83 89.5t118.5 31q68 0 116 -30t74 -83.5t26 -123.5q0 -9 -0.5 -17.5t-1.5 -15.5h-415v45h393l-25 -7q-1 86 -45.5 137t-122.5 51
q-54 0 -95 -25.5t-64 -74t-23 -116.5q0 -67 23.5 -116t66 -74.5t98.5 -25.5q58 0 99.5 25t64.5 69l40 -23q-18 -36 -48 -61.5t-69 -39.5t-86 -14z" />
    <glyph glyph-name="uni1EC0" unicode="&#x1ec0;" horiz-adv-x="612" 
d="M469 739h-47l-92 122l-93 -122h-47l112 156h56zM429 992l63 -138h-37l-73 138h47zM104 0v660h451v-46h-401v-255h317v-47h-317v-266h417v-46h-467z" />
    <glyph glyph-name="uni1EC1" unicode="&#x1ec1;" horiz-adv-x="557" 
d="M381 832l63 -138h-37l-73 138h47zM421 579h-47l-92 122l-93 -122h-47l112 156h56zM293 -10q-69 0 -123 31t-84.5 89.5t-30.5 139.5t30.5 139.5t83 89.5t118.5 31q68 0 116 -30t74 -83.5t26 -123.5q0 -9 -0.5 -17.5t-1.5 -15.5h-415v45h393l-25 -7q-1 86 -45.5 137
t-122.5 51q-54 0 -95 -25.5t-64 -74t-23 -116.5q0 -67 23.5 -116t66 -74.5t98.5 -25.5q58 0 99.5 25t64.5 69l40 -23q-18 -36 -48 -61.5t-69 -39.5t-86 -14z" />
    <glyph glyph-name="uni1EC2" unicode="&#x1ec2;" horiz-adv-x="612" 
d="M469 739h-47l-92 122l-93 -122h-47l112 156h56zM462 834l-19 23q28 15 41 30.5t13 37.5q0 17 -11.5 28t-31.5 11q-18 0 -30 -9t-19 -24l-32 20q12 25 34.5 39t53.5 14q23 0 40.5 -9.5t27.5 -26t10 -36.5q0 -22 -9 -40.5t-26.5 -32.5t-41.5 -25zM104 0v660h451v-46h-401
v-255h317v-47h-317v-266h417v-46h-467z" />
    <glyph glyph-name="uni1EC3" unicode="&#x1ec3;" horiz-adv-x="557" 
d="M414 674l-19 23q28 15 41 30.5t13 37.5q0 17 -11.5 28t-31.5 11q-18 0 -30 -9t-19 -24l-32 20q12 25 34.5 39t53.5 14q23 0 40.5 -9.5t27.5 -26t10 -36.5q0 -22 -9 -40.5t-26.5 -32.5t-41.5 -25zM421 579h-47l-92 122l-93 -122h-47l112 156h56zM293 -10q-69 0 -123 31
t-84.5 89.5t-30.5 139.5t30.5 139.5t83 89.5t118.5 31q68 0 116 -30t74 -83.5t26 -123.5q0 -9 -0.5 -17.5t-1.5 -15.5h-415v45h393l-25 -7q-1 86 -45.5 137t-122.5 51q-54 0 -95 -25.5t-64 -74t-23 -116.5q0 -67 23.5 -116t66 -74.5t98.5 -25.5q58 0 99.5 25t64.5 69l40 -23
q-18 -36 -48 -61.5t-69 -39.5t-86 -14z" />
    <glyph glyph-name="uni1EC4" unicode="&#x1ec4;" horiz-adv-x="612" 
d="M469 739h-47l-92 122l-93 -122h-47l112 156h56zM492 1026q-6 -54 -30.5 -79.5t-64.5 -25.5q-28 0 -45.5 10t-30.5 22.5t-26 22.5t-33 10q-24 0 -36 -15.5t-19 -47.5h-40q6 54 30.5 79t65.5 25q27 0 44.5 -9.5t30.5 -22.5t26 -23t33 -10q24 0 36.5 16t18.5 48h40zM104 0
v660h451v-46h-401v-255h317v-47h-317v-266h417v-46h-467z" />
    <glyph glyph-name="uni1EC5" unicode="&#x1ec5;" horiz-adv-x="557" 
d="M421 579h-47l-92 122l-93 -122h-47l112 156h56zM444 866q-6 -54 -30.5 -79.5t-64.5 -25.5q-28 0 -45.5 10t-30.5 22.5t-26.5 22.5t-32.5 10q-24 0 -36 -15.5t-19 -47.5h-40q6 54 30.5 79t65.5 25q27 0 44.5 -9.5t30.5 -22.5t26 -23t32 -10q25 0 37.5 16t18.5 48h40z
M293 -10q-69 0 -123 31t-84.5 89.5t-30.5 139.5t30.5 139.5t83 89.5t118.5 31q68 0 116 -30t74 -83.5t26 -123.5q0 -9 -0.5 -17.5t-1.5 -15.5h-415v45h393l-25 -7q-1 86 -45.5 137t-122.5 51q-54 0 -95 -25.5t-64 -74t-23 -116.5q0 -67 23.5 -116t66 -74.5t98.5 -25.5
q58 0 99.5 25t64.5 69l40 -23q-18 -36 -48 -61.5t-69 -39.5t-86 -14z" />
    <glyph glyph-name="uni1EC6" unicode="&#x1ec6;" horiz-adv-x="612" 
d="M104 0v660h451v-46h-401v-255h317v-47h-317v-266h417v-46h-467zM342 -161q-10 0 -16 6t-6 16t6 15.5t16 5.5t16 -5.5t6 -15.5t-6 -16t-16 -6zM468 743h-48l-90 117l-90 -117h-48l110 151h56z" />
    <glyph glyph-name="uni1EC7" unicode="&#x1ec7;" horiz-adv-x="557" 
d="M293 -10q-69 0 -123 31t-84.5 89.5t-30.5 139.5t30.5 139.5t83 89.5t118.5 31q68 0 116 -30t74 -83.5t26 -123.5q0 -9 -0.5 -17.5t-1.5 -15.5h-415v45h393l-25 -7q-1 86 -45.5 137t-122.5 51q-54 0 -95 -25.5t-64 -74t-23 -116.5q0 -67 23.5 -116t66 -74.5t98.5 -25.5
q58 0 99.5 25t64.5 69l40 -23q-18 -36 -48 -61.5t-69 -39.5t-86 -14zM293 -161q-10 0 -16 6t-6 16t6 15.5t16 5.5t16 -5.5t6 -15.5t-6 -16t-16 -6zM421 579h-46l-93 122l-93 -122h-46l111 156h56z" />
    <glyph glyph-name="uni1EC8" unicode="&#x1ec8;" horiz-adv-x="258" 
d="M154 660v-660h-50v660h50zM130 715l-18 23q28 15 41 30.5t13 37.5q0 17 -12 28t-31 11q-18 0 -30 -9t-19 -24l-32 20q12 25 34.5 39t52.5 14q24 0 41 -9.5t27.5 -26t10.5 -36.5q0 -22 -9 -40.5t-26.5 -32.5t-42.5 -25z" />
    <glyph glyph-name="uni1EC9" unicode="&#x1ec9;" horiz-adv-x="229" 
d="M139 500v-500h-50v500h50zM108 560l-18 25q30 17 44 33.5t14 39.5q0 19 -11.5 31t-32.5 12q-18 0 -30.5 -10t-21.5 -26l-31 21q10 24 32.5 39.5t56.5 15.5q25 0 43 -9.5t28 -27t10 -39.5q0 -23 -9.5 -42t-28 -34t-45.5 -29z" />
    <glyph glyph-name="uni1ECA" unicode="&#x1eca;" horiz-adv-x="258" 
d="M154 660v-660h-50v660h50zM129 -161q-10 0 -16 6t-6 16t6 15.5t16 5.5t16 -5.5t6 -15.5t-6 -16t-16 -6z" />
    <glyph glyph-name="uni1ECB" unicode="&#x1ecb;" horiz-adv-x="229" 
d="M114 597q-19 0 -30.5 11.5t-11.5 30.5t11.5 30.5t30.5 11.5t30.5 -11.5t11.5 -30.5t-11.5 -30.5t-30.5 -11.5zM139 500v-500h-50v500h50zM114 -161q-10 0 -16 6t-6 16t6 15.5t16 5.5t16 -5.5t6 -15.5t-6 -16t-16 -6z" />
    <glyph glyph-name="uni1ECC" unicode="&#x1ecc;" horiz-adv-x="732" 
d="M366 670q94 0 162 -41.5t105 -117.5t37 -181t-37 -181t-105 -117.5t-162 -41.5q-93 0 -161.5 41.5t-105.5 117.5t-37 181t37 181t105.5 117.5t161.5 41.5zM366 624q-77 0 -133.5 -35.5t-87 -101.5t-30.5 -157t30.5 -157t87 -101.5t133.5 -35.5q78 0 134 35.5t87 101.5
t31 157t-31 157t-87 101.5t-134 35.5zM366 -161q-10 0 -16 6t-6 16t6 15.5t16 5.5t16 -5.5t6 -15.5t-6 -16t-16 -6z" />
    <glyph glyph-name="uni1ECD" unicode="&#x1ecd;" horiz-adv-x="585" 
d="M293 510q70 0 123.5 -31t84 -89.5t30.5 -139.5t-30.5 -139.5t-84 -89.5t-123.5 -31t-123.5 31t-84 89.5t-30.5 139.5t30.5 139.5t84 89.5t123.5 31zM293 467q-57 0 -99 -26t-65.5 -74.5t-23.5 -116.5q0 -67 23.5 -116t65.5 -75t99 -26t99 26t65.5 75t23.5 116
q0 68 -23.5 116.5t-65.5 74.5t-99 26zM293 -161q-10 0 -16 6t-6 16t6 15.5t16 5.5t16 -5.5t6 -15.5t-6 -16t-16 -6z" />
    <glyph glyph-name="uni1ECE" unicode="&#x1ece;" horiz-adv-x="732" 
d="M366 670q94 0 162 -41.5t105 -117.5t37 -181t-37 -181t-105 -117.5t-162 -41.5q-93 0 -161.5 41.5t-105.5 117.5t-37 181t37 181t105.5 117.5t161.5 41.5zM366 624q-77 0 -133.5 -35.5t-87 -101.5t-30.5 -157t30.5 -157t87 -101.5t133.5 -35.5q78 0 134 35.5t87 101.5
t31 157t-31 157t-87 101.5t-134 35.5zM367 715l-18 23q28 15 41 30.5t13 37.5q0 17 -12 28t-31 11q-18 0 -30 -9t-19 -24l-32 20q12 25 34.5 39t52.5 14q24 0 41 -9.5t27.5 -26t10.5 -36.5q0 -22 -9 -40.5t-26.5 -32.5t-42.5 -25z" />
    <glyph glyph-name="uni1ECF" unicode="&#x1ecf;" horiz-adv-x="585" 
d="M293 510q70 0 123.5 -31t84 -89.5t30.5 -139.5t-30.5 -139.5t-84 -89.5t-123.5 -31t-123.5 31t-84 89.5t-30.5 139.5t30.5 139.5t84 89.5t123.5 31zM293 467q-57 0 -99 -26t-65.5 -74.5t-23.5 -116.5q0 -67 23.5 -116t65.5 -75t99 -26t99 26t65.5 75t23.5 116
q0 68 -23.5 116.5t-65.5 74.5t-99 26zM287 558l-18 25q30 17 44 33.5t14 39.5q0 19 -11.5 31t-32.5 12q-18 0 -30.5 -10t-21.5 -26l-31 21q10 24 32.5 39.5t56.5 15.5q25 0 43 -9.5t28 -27t10 -39.5q0 -23 -9.5 -42t-28 -34t-45.5 -29z" />
    <glyph glyph-name="uni1ED0" unicode="&#x1ed0;" horiz-adv-x="732" 
d="M505 739h-46l-93 122l-93 -122h-46l111 156h56zM537 992h48l-74 -138h-37zM366 670q94 0 162 -41.5t105 -117.5t37 -181t-37 -181t-105 -117.5t-162 -41.5q-93 0 -161.5 41.5t-105.5 117.5t-37 181t37 181t105.5 117.5t161.5 41.5zM366 624q-77 0 -133.5 -35.5
t-87 -101.5t-30.5 -157t30.5 -157t87 -101.5t133.5 -35.5q78 0 134 35.5t87 101.5t31 157t-31 157t-87 101.5t-134 35.5z" />
    <glyph glyph-name="uni1ED1" unicode="&#x1ed1;" horiz-adv-x="585" 
d="M464 830h48l-74 -138h-37zM432 577h-46l-93 122l-93 -122h-46l111 156h56zM293 510q70 0 123.5 -31t84 -89.5t30.5 -139.5t-30.5 -139.5t-84 -89.5t-123.5 -31t-123.5 31t-84 89.5t-30.5 139.5t30.5 139.5t84 89.5t123.5 31zM293 467q-57 0 -99 -26t-65.5 -74.5
t-23.5 -116.5q0 -67 23.5 -116t65.5 -75t99 -26t99 26t65.5 75t23.5 116q0 68 -23.5 116.5t-65.5 74.5t-99 26z" />
    <glyph glyph-name="uni1ED2" unicode="&#x1ed2;" horiz-adv-x="732" 
d="M505 739h-46l-93 122l-93 -122h-46l111 156h56zM465 992l64 -138h-37l-74 138h47zM366 670q94 0 162 -41.5t105 -117.5t37 -181t-37 -181t-105 -117.5t-162 -41.5q-93 0 -161.5 41.5t-105.5 117.5t-37 181t37 181t105.5 117.5t161.5 41.5zM366 624q-77 0 -133.5 -35.5
t-87 -101.5t-30.5 -157t30.5 -157t87 -101.5t133.5 -35.5q78 0 134 35.5t87 101.5t31 157t-31 157t-87 101.5t-134 35.5z" />
    <glyph glyph-name="uni1ED3" unicode="&#x1ed3;" horiz-adv-x="585" 
d="M392 830l63 -138h-36l-74 138h47zM432 577h-46l-93 122l-93 -122h-46l111 156h56zM293 510q70 0 123.5 -31t84 -89.5t30.5 -139.5t-30.5 -139.5t-84 -89.5t-123.5 -31t-123.5 31t-84 89.5t-30.5 139.5t30.5 139.5t84 89.5t123.5 31zM293 467q-57 0 -99 -26t-65.5 -74.5
t-23.5 -116.5q0 -67 23.5 -116t65.5 -75t99 -26t99 26t65.5 75t23.5 116q0 68 -23.5 116.5t-65.5 74.5t-99 26z" />
    <glyph glyph-name="uni1ED4" unicode="&#x1ed4;" horiz-adv-x="732" 
d="M505 739h-46l-93 122l-93 -122h-46l111 156h56zM498 834l-19 23q28 15 41 30.5t13 37.5q0 17 -11.5 28t-30.5 11t-31 -9t-19 -24l-31 20q11 25 33.5 39t53.5 14q23 0 40.5 -9.5t27.5 -26t10 -36.5q0 -22 -8.5 -40.5t-26 -32.5t-42.5 -25zM366 670q94 0 162 -41.5
t105 -117.5t37 -181t-37 -181t-105 -117.5t-162 -41.5q-93 0 -161.5 41.5t-105.5 117.5t-37 181t37 181t105.5 117.5t161.5 41.5zM366 624q-77 0 -133.5 -35.5t-87 -101.5t-30.5 -157t30.5 -157t87 -101.5t133.5 -35.5q78 0 134 35.5t87 101.5t31 157t-31 157t-87 101.5
t-134 35.5z" />
    <glyph glyph-name="uni1ED5" unicode="&#x1ed5;" horiz-adv-x="585" 
d="M425 673l-19 22q28 15 41 30.5t13 37.5q0 17 -11.5 28t-31.5 11q-18 0 -30 -9t-19 -24l-31 20q11 25 33.5 39t53.5 14q23 0 40.5 -9.5t27.5 -26t10 -36.5q0 -22 -8.5 -40.5t-26 -32.5t-42.5 -24zM432 577h-46l-93 122l-93 -122h-46l111 156h56zM293 510q70 0 123.5 -31
t84 -89.5t30.5 -139.5t-30.5 -139.5t-84 -89.5t-123.5 -31t-123.5 31t-84 89.5t-30.5 139.5t30.5 139.5t84 89.5t123.5 31zM293 467q-57 0 -99 -26t-65.5 -74.5t-23.5 -116.5q0 -67 23.5 -116t65.5 -75t99 -26t99 26t65.5 75t23.5 116q0 68 -23.5 116.5t-65.5 74.5t-99 26z
" />
    <glyph glyph-name="uni1ED6" unicode="&#x1ed6;" horiz-adv-x="732" 
d="M505 739h-46l-93 122l-93 -122h-46l111 156h56zM529 1026q-7 -54 -31.5 -79.5t-64.5 -25.5q-28 0 -45.5 10t-30 22.5t-26 22.5t-33.5 10q-24 0 -36 -15.5t-18 -47.5h-41q7 54 31.5 79t64.5 25q27 0 44.5 -9.5t30.5 -22.5t26.5 -23t32.5 -10q24 0 36.5 16t18.5 48h41z
M366 670q94 0 162 -41.5t105 -117.5t37 -181t-37 -181t-105 -117.5t-162 -41.5q-93 0 -161.5 41.5t-105.5 117.5t-37 181t37 181t105.5 117.5t161.5 41.5zM366 624q-77 0 -133.5 -35.5t-87 -101.5t-30.5 -157t30.5 -157t87 -101.5t133.5 -35.5q78 0 134 35.5t87 101.5
t31 157t-31 157t-87 101.5t-134 35.5z" />
    <glyph glyph-name="uni1ED7" unicode="&#x1ed7;" horiz-adv-x="585" 
d="M432 577h-46l-93 122l-93 -122h-46l111 156h56zM456 864q-7 -54 -31.5 -79.5t-64.5 -25.5q-28 0 -45.5 10t-30 23t-26 23t-33.5 10q-24 0 -36 -16t-18 -48h-41q7 54 31 79.5t65 25.5q27 0 44.5 -10t30.5 -23t26.5 -23t32.5 -10q24 0 36.5 16t18.5 48h41zM293 510
q70 0 123.5 -31t84 -89.5t30.5 -139.5t-30.5 -139.5t-84 -89.5t-123.5 -31t-123.5 31t-84 89.5t-30.5 139.5t30.5 139.5t84 89.5t123.5 31zM293 467q-57 0 -99 -26t-65.5 -74.5t-23.5 -116.5q0 -67 23.5 -116t65.5 -75t99 -26t99 26t65.5 75t23.5 116q0 68 -23.5 116.5
t-65.5 74.5t-99 26z" />
    <glyph glyph-name="uni1ED8" unicode="&#x1ed8;" horiz-adv-x="732" 
d="M366 670q94 0 162 -41.5t105 -117.5t37 -181t-37 -181t-105 -117.5t-162 -41.5q-93 0 -161.5 41.5t-105.5 117.5t-37 181t37 181t105.5 117.5t161.5 41.5zM366 624q-77 0 -133.5 -35.5t-87 -101.5t-30.5 -157t30.5 -157t87 -101.5t133.5 -35.5q78 0 134 35.5t87 101.5
t31 157t-31 157t-87 101.5t-134 35.5zM366 -161q-10 0 -16 6t-6 16t6 15.5t16 5.5t16 -5.5t6 -15.5t-6 -16t-16 -6zM504 743h-48l-90 117l-90 -117h-48l110 151h56z" />
    <glyph glyph-name="uni1ED9" unicode="&#x1ed9;" horiz-adv-x="585" 
d="M293 510q70 0 123.5 -31t84 -89.5t30.5 -139.5t-30.5 -139.5t-84 -89.5t-123.5 -31t-123.5 31t-84 89.5t-30.5 139.5t30.5 139.5t84 89.5t123.5 31zM293 467q-57 0 -99 -26t-65.5 -74.5t-23.5 -116.5q0 -67 23.5 -116t65.5 -75t99 -26t99 26t65.5 75t23.5 116
q0 68 -23.5 116.5t-65.5 74.5t-99 26zM293 -161q-10 0 -16 6t-6 16t6 15.5t16 5.5t16 -5.5t6 -15.5t-6 -16t-16 -6zM432 577h-46l-93 122l-93 -122h-46l111 156h56z" />
    <glyph glyph-name="uni1EDA" unicode="&#x1eda;" horiz-adv-x="732" 
d="M630 768q0 -70 -44.5 -108.5t-124.5 -38.5l-15 39q74 0 105.5 28.5t31.5 79.5h47zM366 670q94 0 162 -41.5t105 -117.5t37 -181t-37 -181t-105 -117.5t-162 -41.5q-93 0 -161.5 41.5t-105.5 117.5t-37 181t37 181t105.5 117.5t161.5 41.5zM366 624q-77 0 -133.5 -35.5
t-87 -101.5t-30.5 -157t30.5 -157t87 -101.5t133.5 -35.5q78 0 134 35.5t87 101.5t31 157t-31 157t-87 101.5t-134 35.5zM411 897h53l-83 -154h-41z" />
    <glyph glyph-name="uni1EDB" unicode="&#x1edb;" horiz-adv-x="585" 
d="M293 510q70 0 123.5 -31t84 -89.5t30.5 -139.5t-30.5 -139.5t-84 -89.5t-123.5 -31t-123.5 31t-84 89.5t-30.5 139.5t30.5 139.5t84 89.5t123.5 31zM293 467q-57 0 -99 -26t-65.5 -74.5t-23.5 -116.5q0 -67 23.5 -116t65.5 -75t99 -26t99 26t65.5 75t23.5 116
q0 68 -23.5 116.5t-65.5 74.5t-99 26zM366 462v38q48 0 73 28t25 85h44q0 -74 -37 -112.5t-105 -38.5zM344 739h55l-94 -158h-41z" />
    <glyph glyph-name="uni1EDC" unicode="&#x1edc;" horiz-adv-x="732" 
d="M630 768q0 -70 -44.5 -108.5t-124.5 -38.5l-15 39q74 0 105.5 28.5t31.5 79.5h47zM366 670q94 0 162 -41.5t105 -117.5t37 -181t-37 -181t-105 -117.5t-162 -41.5q-93 0 -161.5 41.5t-105.5 117.5t-37 181t37 181t105.5 117.5t161.5 41.5zM366 624q-77 0 -133.5 -35.5
t-87 -101.5t-30.5 -157t30.5 -157t87 -101.5t133.5 -35.5q78 0 134 35.5t87 101.5t31 157t-31 157t-87 101.5t-134 35.5zM322 897l70 -154h-41l-82 154h53z" />
    <glyph glyph-name="uni1EDD" unicode="&#x1edd;" horiz-adv-x="585" 
d="M293 510q70 0 123.5 -31t84 -89.5t30.5 -139.5t-30.5 -139.5t-84 -89.5t-123.5 -31t-123.5 31t-84 89.5t-30.5 139.5t30.5 139.5t84 89.5t123.5 31zM293 467q-57 0 -99 -26t-65.5 -74.5t-23.5 -116.5q0 -67 23.5 -116t65.5 -75t99 -26t99 26t65.5 75t23.5 116
q0 68 -23.5 116.5t-65.5 74.5t-99 26zM366 462v38q48 0 73 28t25 85h44q0 -74 -37 -112.5t-105 -38.5zM240 739l80 -158h-41l-93 158h54z" />
    <glyph glyph-name="uni1EDE" unicode="&#x1ede;" horiz-adv-x="732" 
d="M630 768q0 -70 -44.5 -108.5t-124.5 -38.5l-15 39q74 0 105.5 28.5t31.5 79.5h47zM366 670q94 0 162 -41.5t105 -117.5t37 -181t-37 -181t-105 -117.5t-162 -41.5q-93 0 -161.5 41.5t-105.5 117.5t-37 181t37 181t105.5 117.5t161.5 41.5zM366 624q-77 0 -133.5 -35.5
t-87 -101.5t-30.5 -157t30.5 -157t87 -101.5t133.5 -35.5q78 0 134 35.5t87 101.5t31 157t-31 157t-87 101.5t-134 35.5zM367 715l-18 23q28 15 41 30.5t13 37.5q0 17 -12 28t-31 11q-18 0 -30 -9t-19 -24l-32 20q12 25 34.5 39t52.5 14q24 0 41 -9.5t27.5 -26t10.5 -36.5
q0 -22 -9 -40.5t-26.5 -32.5t-42.5 -25z" />
    <glyph glyph-name="uni1EDF" unicode="&#x1edf;" horiz-adv-x="585" 
d="M293 510q70 0 123.5 -31t84 -89.5t30.5 -139.5t-30.5 -139.5t-84 -89.5t-123.5 -31t-123.5 31t-84 89.5t-30.5 139.5t30.5 139.5t84 89.5t123.5 31zM293 467q-57 0 -99 -26t-65.5 -74.5t-23.5 -116.5q0 -67 23.5 -116t65.5 -75t99 -26t99 26t65.5 75t23.5 116
q0 68 -23.5 116.5t-65.5 74.5t-99 26zM366 462v38q48 0 73 28t25 85h44q0 -74 -37 -112.5t-105 -38.5zM287 558l-18 25q30 17 44 33.5t14 39.5q0 19 -11.5 31t-32.5 12q-18 0 -30.5 -10t-21.5 -26l-31 21q10 24 32.5 39.5t56.5 15.5q25 0 43 -9.5t28 -27t10 -39.5
q0 -23 -9.5 -42t-28 -34t-45.5 -29z" />
    <glyph glyph-name="uni1EE0" unicode="&#x1ee0;" horiz-adv-x="732" 
d="M630 768q0 -70 -44.5 -108.5t-124.5 -38.5l-15 39q74 0 105.5 28.5t31.5 79.5h47zM366 670q94 0 162 -41.5t105 -117.5t37 -181t-37 -181t-105 -117.5t-162 -41.5q-93 0 -161.5 41.5t-105.5 117.5t-37 181t37 181t105.5 117.5t161.5 41.5zM366 624q-77 0 -133.5 -35.5
t-87 -101.5t-30.5 -157t30.5 -157t87 -101.5t133.5 -35.5q78 0 134 35.5t87 101.5t31 157t-31 157t-87 101.5t-134 35.5zM524 861q-4 -36 -16.5 -61t-32.5 -37t-49 -12q-27 0 -46 10.5t-34 23.5t-29.5 23.5t-32.5 10.5q-26 0 -39.5 -18.5t-20.5 -50.5h-40q6 55 31.5 82.5
t69.5 27.5q25 0 44 -10.5t34 -23.5t29.5 -23.5t32.5 -10.5q27 0 40 18t19 51h40z" />
    <glyph glyph-name="uni1EE1" unicode="&#x1ee1;" horiz-adv-x="585" 
d="M293 510q70 0 123.5 -31t84 -89.5t30.5 -139.5t-30.5 -139.5t-84 -89.5t-123.5 -31t-123.5 31t-84 89.5t-30.5 139.5t30.5 139.5t84 89.5t123.5 31zM293 467q-57 0 -99 -26t-65.5 -74.5t-23.5 -116.5q0 -67 23.5 -116t65.5 -75t99 -26t99 26t65.5 75t23.5 116
q0 68 -23.5 116.5t-65.5 74.5t-99 26zM366 462v38q48 0 73 28t25 85h44q0 -74 -37 -112.5t-105 -38.5zM453 701q-4 -36 -16.5 -61t-32.5 -37t-49 -12q-27 0 -46 10.5t-34 23.5t-29.5 23.5t-32.5 10.5q-26 0 -39.5 -18.5t-20.5 -50.5h-40q6 55 31.5 82.5t69.5 27.5
q25 0 44 -10.5t34 -23.5t29.5 -23.5t32.5 -10.5q27 0 40 18t19 51h40z" />
    <glyph glyph-name="uni1EE2" unicode="&#x1ee2;" horiz-adv-x="732" 
d="M630 768q0 -70 -44.5 -108.5t-124.5 -38.5l-15 39q74 0 105.5 28.5t31.5 79.5h47zM366 670q94 0 162 -41.5t105 -117.5t37 -181t-37 -181t-105 -117.5t-162 -41.5q-93 0 -161.5 41.5t-105.5 117.5t-37 181t37 181t105.5 117.5t161.5 41.5zM366 624q-77 0 -133.5 -35.5
t-87 -101.5t-30.5 -157t30.5 -157t87 -101.5t133.5 -35.5q78 0 134 35.5t87 101.5t31 157t-31 157t-87 101.5t-134 35.5zM366 -161q-10 0 -16 6t-6 16t6 15.5t16 5.5t16 -5.5t6 -15.5t-6 -16t-16 -6z" />
    <glyph glyph-name="uni1EE3" unicode="&#x1ee3;" horiz-adv-x="585" 
d="M293 510q70 0 123.5 -31t84 -89.5t30.5 -139.5t-30.5 -139.5t-84 -89.5t-123.5 -31t-123.5 31t-84 89.5t-30.5 139.5t30.5 139.5t84 89.5t123.5 31zM293 467q-57 0 -99 -26t-65.5 -74.5t-23.5 -116.5q0 -67 23.5 -116t65.5 -75t99 -26t99 26t65.5 75t23.5 116
q0 68 -23.5 116.5t-65.5 74.5t-99 26zM366 462v38q48 0 73 28t25 85h44q0 -74 -37 -112.5t-105 -38.5zM293 -161q-10 0 -16 6t-6 16t6 15.5t16 5.5t16 -5.5t6 -15.5t-6 -16t-16 -6z" />
    </font>
</defs>
</svg>
