<?xml version="1.0" standalone="no"?>
<!DOCTYPE svg PUBLIC "-//W3C//DTD SVG 1.1//EN" "http://www.w3.org/Graphics/SVG/1.1/DTD/svg11.dtd" >
<svg xmlns="http://www.w3.org/2000/svg" xmlns:xlink="http://www.w3.org/1999/xlink" version="1.1">
<metadata>
Created by FontForge 20201107 at Wed Aug 11 21:25:12 2021
 By 
Copyright 2019 The Work Sans Project Authors (https://github.com/weiweihuanghuang/Work-Sans)
</metadata>
<defs>
<font id="WorkSans-ExtraBold" horiz-adv-x="604" >
  <font-face 
    font-family="Work Sans ExtraBold"
    font-weight="800"
    font-stretch="normal"
    units-per-em="1000"
    panose-1="0 0 0 0 0 0 0 0 0 0"
    ascent="800"
    descent="-200"
    x-height="500"
    cap-height="660"
    bbox="-275 -342 1368 1102"
    underline-thickness="50"
    underline-position="-125"
    unicode-range="U+000D-FB02"
  />
<missing-glyph horiz-adv-x="500" 
d="M130 80l128 233l112 267l-128 -233zM50 0l187 352l213 308l-187 -352z" />
    <glyph glyph-name="fi" unicode="fi" horiz-adv-x="723" 
d="M294 723q45 0 79.5 -9.5t49.5 -20.5l-16 -120q-10 6 -24 10t-36 4q-33 0 -54.5 -14t-21.5 -52v-62l13 -28v-431h-202v532q0 53 17.5 89.5t48 59t68.5 32.5t78 10zM417 500v-139h-409v139h409zM573 544q-60 0 -86.5 21t-26.5 68q0 48 26.5 69t86.5 21t86.5 -21t26.5 -69
q0 -47 -26.5 -68t-86.5 -21zM674 500v-500h-202v500h202z" />
    <glyph glyph-name="fl" unicode="fl" horiz-adv-x="758" 
d="M294 723q45 0 79.5 -9.5t49.5 -20.5l-16 -120q-10 6 -24 10t-36 4q-33 0 -54.5 -14t-21.5 -52v-62l13 -28v-431h-202v532q0 53 17.5 89.5t48 59t68.5 32.5t78 10zM417 500v-139h-409v139h409zM673 706v-520q0 -32 10 -46t35 -14q12 0 21.5 1.5t20.5 5.5l-11 -114
q-18 -13 -50.5 -21t-64.5 -8q-87 0 -125 38.5t-38 128.5v549h202z" />
    <glyph glyph-name="f_f" unicode="ff" horiz-adv-x="828" 
d="M294 723q45 0 79.5 -9.5t49.5 -20.5l-16 -120q-10 6 -24 10t-36 4q-33 0 -54.5 -14t-21.5 -52v-62l13 -28v-431h-202v532q0 53 17.5 89.5t48 59t68.5 32.5t78 10zM417 500v-139h-409v139h409zM699 723q45 0 79.5 -9.5t49.5 -20.5l-16 -120q-10 6 -24 10t-36 4
q-33 0 -54.5 -14t-21.5 -52v-62l13 -28v-431h-202v532q0 53 17.5 89.5t48 59t68.5 32.5t78 10zM822 500v-139h-409v139h409z" />
    <glyph glyph-name="f_f_i" unicode="ffi" horiz-adv-x="1128" 
d="M294 723q45 0 79.5 -9.5t49.5 -20.5l-16 -120q-10 6 -24 10t-36 4q-33 0 -54.5 -14t-21.5 -52v-62l13 -28v-431h-202v532q0 53 17.5 89.5t48 59t68.5 32.5t78 10zM417 500v-139h-409v139h409zM699 723q45 0 79.5 -9.5t49.5 -20.5l-16 -120q-10 6 -24 10t-36 4
q-33 0 -54.5 -14t-21.5 -52v-62l13 -28v-431h-202v532q0 53 17.5 89.5t48 59t68.5 32.5t78 10zM822 500v-139h-409v139h409zM978 544q-60 0 -86.5 21t-26.5 68q0 48 26.5 69t86.5 21t86.5 -21t26.5 -69q0 -47 -26.5 -68t-86.5 -21zM1079 500v-500h-202v500h202z" />
    <glyph glyph-name="f_f_l" unicode="ffl" horiz-adv-x="1163" 
d="M294 723q45 0 79.5 -9.5t49.5 -20.5l-16 -120q-10 6 -24 10t-36 4q-33 0 -54.5 -14t-21.5 -52v-62l13 -28v-431h-202v532q0 53 17.5 89.5t48 59t68.5 32.5t78 10zM417 500v-139h-409v139h409zM699 723q45 0 79.5 -9.5t49.5 -20.5l-16 -120q-10 6 -24 10t-36 4
q-33 0 -54.5 -14t-21.5 -52v-62l13 -28v-431h-202v532q0 53 17.5 89.5t48 59t68.5 32.5t78 10zM822 500v-139h-409v139h409zM1078 706v-520q0 -32 10 -46t35 -14q12 0 21.5 1.5t20.5 5.5l-11 -114q-18 -13 -50.5 -21t-64.5 -8q-87 0 -125 38.5t-38 128.5v549h202z" />
    <glyph glyph-name=".notdef" horiz-adv-x="500" 
d="M130 80l128 233l112 267l-128 -233zM50 0l187 352l213 308l-187 -352z" />
    <glyph glyph-name=".null" horiz-adv-x="0" 
 />
    <glyph glyph-name="nonmarkingreturn" horiz-adv-x="333" 
 />
    <glyph glyph-name="NULL" horiz-adv-x="0" 
 />
    <glyph glyph-name="NULL" horiz-adv-x="0" 
 />
    <glyph glyph-name="CR" unicode="&#xd;" horiz-adv-x="267" 
 />
    <glyph glyph-name="space" unicode=" " horiz-adv-x="267" 
 />
    <glyph glyph-name="exclam" unicode="!" horiz-adv-x="312" 
d="M261 660v-187l-22 -255h-167l-22 255v187h211zM156 173q50 0 78.5 -24t28.5 -66q0 -43 -28.5 -67t-78.5 -24q-51 0 -79.5 24t-28.5 67q0 42 28.5 66t79.5 24z" />
    <glyph glyph-name="quotedbl" unicode="&#x22;" horiz-adv-x="463" 
d="M426 674l-31 -288h-131v288h162zM218 674l-31 -288h-131v288h162z" />
    <glyph glyph-name="numbersign" unicode="#" horiz-adv-x="706" 
d="M589 660l-106 -660h-132l105 660h133zM635 266v-116h-607v116h607zM340 660l-105 -660h-133l105 660h133zM678 510v-116h-607v116h607z" />
    <glyph glyph-name="dollar" unicode="$" horiz-adv-x="647" 
d="M330 0q-62 0 -121.5 13t-109.5 36.5t-85 56.5l85 131q26 -32 68 -53t88.5 -31.5t86.5 -10.5q45 0 70 12t25 37q0 18 -17.5 28t-56.5 19l-129 31q-52 12 -96 34t-69.5 57t-25.5 86q0 63 34 111.5t99 75.5t157 27q90 0 161.5 -25t124.5 -74l-82 -120q-44 37 -96 58.5
t-118 21.5q-35 0 -57.5 -6t-33 -17t-10.5 -26q0 -12 7 -21.5t28 -17.5t62 -17l99 -22q97 -22 144.5 -61.5t47.5 -113.5q0 -73 -37 -122t-100 -73t-143 -24zM273 -84v828h119v-828h-119z" />
    <glyph glyph-name="percent" unicode="%" horiz-adv-x="967" 
d="M173 0l473 661h150l-474 -661h-149zM223 670q58 0 102 -23.5t68.5 -66.5t24.5 -100q0 -58 -24.5 -100.5t-68.5 -66t-102 -23.5q-59 0 -103 23.5t-68.5 66.5t-24.5 100t24.5 100t68.5 66.5t103 23.5zM222 538q-15 0 -26 -6.5t-17 -20t-6 -31.5t6 -31.5t17 -20t26 -6.5
q17 0 27.5 6.5t16.5 20t6 31.5t-6 31.5t-16.5 20t-27.5 6.5zM744 370q59 0 103 -23.5t68.5 -66.5t24.5 -100t-24.5 -100t-68.5 -66.5t-103 -23.5t-103 23.5t-68.5 66.5t-24.5 100q0 58 24.5 100.5t68.5 66t103 23.5zM744 238q-16 0 -27 -6.5t-17 -19.5t-6 -32q0 -18 6 -31.5
t17 -20t27 -6.5t27 6.5t17 20t6 31.5q0 19 -6 32t-17 19.5t-27 6.5z" />
    <glyph glyph-name="ampersand" unicode="&#x26;" horiz-adv-x="655" 
d="M257 -10q-70 0 -124.5 20t-84.5 61t-31 103q0 25 8 55t30 57.5t61.5 47.5t101.5 26l27 5q44 28 67 48.5t31.5 39.5t8.5 41q0 23 -13.5 36t-36.5 13q-24 0 -38.5 -15t-14.5 -42q0 -14 6 -28.5t22 -35t46 -53t79 -83.5q47 -48 80 -81t58.5 -51t50 -23t56.5 0l-13 -141
q-45 0 -79.5 6t-68.5 24t-75.5 53.5t-101.5 94.5q-74 73 -120 121t-69.5 82t-32 62t-8.5 61q0 43 23 83.5t71.5 66.5t124.5 26q77 0 123 -24t67 -61.5t21 -77.5q0 -48 -24 -88.5t-72.5 -68.5t-122.5 -42l-30 -18q-29 -19 -44.5 -34t-21.5 -31t-6 -37t12 -37t34 -24.5
t52 -8.5q43 0 77 13t67 33l15 23q16 29 26.5 63.5t9.5 82.5l131 -1q-2 -64 -23.5 -117.5t-62.5 -90.5l-35 -25q-31 -50 -90.5 -79.5t-143.5 -29.5z" />
    <glyph glyph-name="quotesingle" unicode="'" horiz-adv-x="255" 
d="M218 674l-31 -288h-131v288h162z" />
    <glyph glyph-name="parenleft" unicode="(" horiz-adv-x="405" 
d="M310 731l92 -90q-53 -47 -87.5 -100.5t-50.5 -119.5t-16 -151q0 -86 16 -152t50.5 -119t87.5 -101l-92 -90q-117 72 -179 186.5t-62 275.5q0 159 62 274t179 187z" />
    <glyph glyph-name="parenright" unicode=")" horiz-adv-x="405" 
d="M95 -192l-92 90q54 48 88 101t50 119t16 151t-16 151.5t-50 120t-88 100.5l92 90q118 -72 179.5 -187t61.5 -275t-61.5 -275t-179.5 -186z" />
    <glyph glyph-name="asterisk" unicode="*" horiz-adv-x="594" 
d="M329 500l87 -76l87 -112l-114 -83l-80 118l-45 104l33 24zM264 500l33 -25l32 -24l-45 -104l-80 -118l-114 83l88 112zM77 622l134 -49l98 -58l-12 -40l-13 -38l-114 11l-137 39zM367 730l-5 -142l-24 -113h-41h-41l-25 113l-5 142h141zM517 622l43 -135l-137 -39
l-114 -11l-12 38l-13 40l98 58z" />
    <glyph glyph-name="plus" unicode="+" 
d="M381 598v-541h-157v541h157zM556 397v-138h-508v138h508z" />
    <glyph glyph-name="comma" unicode="," horiz-adv-x="299" 
d="M145 190q42 0 68.5 -18.5t39 -48.5t12.5 -64q0 -50 -22 -95t-56.5 -78t-71.5 -48l-78 55q27 12 52 29t44.5 37t29.5 41l-5 4q-6 -4 -14.5 -6.5t-22.5 -2.5q-20 0 -40 10t-34 29.5t-14 49.5q0 37 16 60t42 34.5t54 11.5z" />
    <glyph glyph-name="hyphen" unicode="-" horiz-adv-x="534" 
d="M457 349v-158h-379v158h379z" />
    <glyph glyph-name="period" unicode="." horiz-adv-x="299" 
d="M149 190q54 0 83 -26t29 -73t-29 -73t-83 -26q-52 0 -82 26t-30 73t30 73t82 26z" />
    <glyph glyph-name="slash" unicode="/" horiz-adv-x="478" 
d="M468 706l-271 -776h-187l271 776h187z" />
    <glyph glyph-name="zero" unicode="0" horiz-adv-x="651" 
d="M326 -10q-143 0 -214 85.5t-71 254.5t71 254.5t214 85.5t213.5 -85.5t70.5 -254.5t-70.5 -254.5t-213.5 -85.5zM326 146q31 0 49 17t26 57.5t8 109.5t-8 109.5t-26 57.5t-49 17t-49.5 -17t-26.5 -57.5t-8 -109.5t8 -109.5t26.5 -57.5t49.5 -17z" />
    <glyph glyph-name="one" unicode="1" horiz-adv-x="446" 
d="M185 0v342v60.5t1 61.5q-33 -29 -71.5 -50t-80.5 -28l-14 166q28 2 58.5 13t58.5 26.5t50.5 33t33.5 35.5h161v-660h-197z" />
    <glyph glyph-name="two" unicode="2" horiz-adv-x="601" 
d="M55 0v126q80 46 137.5 89t94.5 82.5t55 75t18 67.5q0 31 -17 52.5t-53 21.5q-41 0 -61.5 -31t-20.5 -95l-175 47q1 79 36 131t96.5 78t137.5 26q71 0 120.5 -19.5t80 -51t44.5 -69t14 -74.5q0 -65 -34 -119t-94 -100.5t-139 -88.5v-2q19 2 43 3t51 1.5t52 0.5h127v-151
h-513z" />
    <glyph glyph-name="three" unicode="3" horiz-adv-x="597" 
d="M305 -10q-112 0 -183.5 41.5t-99.5 124.5l186 77q1 -35 12 -55t30.5 -27.5t41.5 -7.5t38.5 7.5t25.5 22.5t9 35q0 23 -9.5 36t-25.5 18.5t-37 5.5q-14 0 -24.5 -1t-24.5 -3v124q8 -1 16 -1.5t20 -0.5q37 0 54 16t17 52q0 30 -16.5 46.5t-45.5 16.5q-31 0 -52.5 -18.5
t-24.5 -67.5l-177 57q8 60 45.5 100t95 61t127.5 21q79 0 133.5 -22t83 -63t28.5 -100q0 -45 -14.5 -74t-36.5 -46t-42 -24.5t-31 -7.5v-4q12 0 34.5 -5t46 -19t40 -41.5t16.5 -72.5q0 -62 -34 -107.5t-92 -69.5t-130 -24z" />
    <glyph glyph-name="four" unicode="4" horiz-adv-x="659" 
d="M365 0v135h-322v125q12 22 31.5 53t46.5 72l184 275h238v-390h94v-135h-94v-135h-178zM199 270h169v184q0 17 0.5 36.5t1.5 40.5h-2q-10 -19 -21 -38.5t-22 -35.5l-98 -146q-6 -10 -13 -20t-15 -21z" />
    <glyph glyph-name="five" unicode="5" horiz-adv-x="583" 
d="M285 -10q-85 0 -151.5 31.5t-115.5 108.5l177 87q10 -35 31.5 -56.5t63.5 -21.5q26 0 44.5 9t28.5 27t10 44q0 24 -9.5 40t-28 25t-47.5 9q-21 0 -37.5 -4t-29.5 -10.5t-24 -16.5l-151 28l43 370h431v-153h-286l-14 -106l-4 -18h1q19 22 54 33t77 11q66 0 111.5 -25.5
t70 -69.5t24.5 -101q0 -64 -22 -110t-60 -74.5t-86 -42.5t-101 -14z" />
    <glyph glyph-name="six" unicode="6" horiz-adv-x="619" 
d="M348 670q54 0 101 -14t83 -46.5t53 -88.5l-164 -77q-9 32 -30 50t-55 18q-24 0 -44 -10.5t-34 -30.5t-22 -51t-8 -71v-6.5v-8.5l1 -9q12 26 36.5 44.5t56 28.5t62.5 10q60 0 107 -23t74.5 -66.5t27.5 -105.5q0 -68 -32 -118.5t-89 -77.5t-134 -27q-86 0 -153 35.5
t-105.5 108.5t-38.5 188q0 120 41 196.5t110.5 114t155.5 37.5zM334 279q-21 0 -38 -8.5t-28 -24.5t-11 -38q0 -21 11 -37.5t28.5 -25t37.5 -8.5q37 0 56.5 18.5t19.5 52.5q0 23 -9 38.5t-25.5 24t-41.5 8.5z" />
    <glyph glyph-name="seven" unicode="7" horiz-adv-x="625" 
d="M30 660h564v-139q-82 -78 -127.5 -161t-64 -172.5t-18.5 -187.5h-200q0 109 27.5 204.5t87 182.5t155.5 170l45 -53h-469v156z" />
    <glyph glyph-name="eight" unicode="8" horiz-adv-x="631" 
d="M315 667q79 0 137 -22t90 -63t32 -98q0 -54 -26.5 -92t-80.5 -58v-1q61 -19 94 -56t33 -97q0 -58 -33.5 -100t-95.5 -66t-150 -24q-87 0 -149 24t-95.5 66t-33.5 100q0 60 33 97t94 56v1q-53 20 -80 58t-27 92q0 57 32 98t90.5 63t135.5 22zM316 525q-34 0 -54 -17.5
t-20 -48.5q0 -30 20 -47.5t54 -17.5t53.5 17.5t19.5 47.5q0 31 -19.5 48.5t-53.5 17.5zM316 133q26 0 44 7.5t27.5 23.5t9.5 37t-9.5 36.5t-28 23.5t-43.5 8t-44 -8t-29 -23.5t-10 -36.5t9.5 -37t28.5 -23.5t45 -7.5z" />
    <glyph glyph-name="nine" unicode="9" horiz-adv-x="616" 
d="M291 670q94 0 157 -37t95 -111.5t32 -188.5q0 -123 -37.5 -198.5t-102 -110t-144.5 -34.5q-87 0 -152 33.5t-98 108.5l181 68q6 -29 23.5 -44.5t48.5 -15.5q24 0 42.5 9.5t31.5 28t19.5 46.5t6.5 65v9v10h-4q-10 -24 -33 -40.5t-53 -25t-63 -8.5q-61 0 -108.5 25.5
t-75 72t-27.5 108.5q0 72 33 123t92 79t136 28zM291 518q-34 0 -55 -19t-21 -54q0 -33 21.5 -51t54.5 -18q22 0 39 8.5t27.5 24.5t10.5 38t-10.5 38t-27.5 24.5t-39 8.5z" />
    <glyph glyph-name="colon" unicode=":" horiz-adv-x="304" 
d="M152 510q54 0 83 -26t29 -73t-29 -73t-83 -26q-52 0 -82 26t-30 73t30 73t82 26zM152 190q54 0 83 -26t29 -73t-29 -73t-83 -26q-52 0 -82 26t-30 73t30 73t82 26z" />
    <glyph glyph-name="semicolon" unicode=";" horiz-adv-x="304" 
d="M148 190q42 0 68.5 -18.5t39 -48.5t12.5 -64q0 -50 -22 -95t-56.5 -78t-71.5 -48l-78 55q27 12 52 29t44.5 37t29.5 41l-5 4q-6 -4 -14.5 -6.5t-22.5 -2.5q-20 0 -40 10t-34 29.5t-14 49.5q0 37 16 60t42 34.5t54 11.5zM152 509q54 0 83 -26t29 -73t-29 -73t-83 -26
q-52 0 -82 26t-30 73t30 73t82 26z" />
    <glyph glyph-name="less" unicode="&#x3c;" 
d="M555 -3l-495 215v167l495 215v-189l-339 -109l339 -110v-189z" />
    <glyph glyph-name="equal" unicode="=" 
d="M539 498v-132h-474v132h474zM539 276v-132h-474v132h474z" />
    <glyph glyph-name="greater" unicode="&#x3e;" 
d="M49 594l495 -215v-167l-495 -215v189l339 109l-339 110v189z" />
    <glyph glyph-name="question" unicode="?" horiz-adv-x="631" 
d="M320 670q78 0 139 -20.5t96.5 -63t35.5 -106.5q0 -63 -26 -102t-69 -58t-96 -25l-14 -79h-173l1 153q60 4 94.5 15t49 28.5t14.5 39.5q0 19 -7 32t-21 19.5t-37 6.5q-35 0 -54.5 -22t-25.5 -66l-197 62q13 52 46 94.5t92.5 67t151.5 24.5zM303 173q51 0 79.5 -24
t28.5 -66q0 -43 -28.5 -67t-79.5 -24q-50 0 -78 24t-28 67q0 42 28 66t78 24z" />
    <glyph glyph-name="at" unicode="@" horiz-adv-x="921" 
d="M460 -182q-92 0 -170 26.5t-135.5 78.5t-89.5 129.5t-32 178.5q0 96 33 176t94 138.5t143 90t179 31.5q87 0 160 -26.5t126.5 -76.5t83.5 -121t30 -159q0 -83 -21.5 -139t-56 -89t-74 -47.5t-76.5 -14.5q-74 0 -113.5 37t-36.5 96q-22 -54 -63.5 -85t-92.5 -31
q-40 0 -72.5 22t-51.5 64t-19 101q0 50 14 97t41.5 86t67 62t89.5 23q26 0 51 -9.5t44 -30.5t25 -58l21 89h173l-62 -270q-3 -14 -5 -25t-2 -22q0 -26 12 -38.5t35 -12.5q24 0 44.5 19t33.5 60.5t13 107.5q0 74 -23.5 132t-66 98t-101 61t-126.5 21q-80 0 -145 -25t-113 -72
t-73.5 -113t-25.5 -147q0 -85 27 -148t74.5 -104t109.5 -61.5t132 -20.5q66 0 110 16.5t80 37.5l36 -67q-28 -18 -61.5 -33t-75.5 -24t-98 -9zM431 137q25 0 43 23t27.5 56t9.5 62q0 20 -5.5 33.5t-16.5 20.5t-27 7q-22 0 -37.5 -14t-26.5 -35t-16 -44t-5 -42q0 -21 6 -36
t18 -23t30 -8z" />
    <glyph glyph-name="A" unicode="A" horiz-adv-x="684" 
d="M687 0h-210l-37 137h-201l-38 -137h-204l222 660h245zM273 269h134l-67 246z" />
    <glyph glyph-name="B" unicode="B" horiz-adv-x="694" 
d="M61 0v660h351q124 -1 183.5 -45.5t59.5 -131.5q0 -57 -34.5 -98t-107.5 -52v-1q81 -10 120 -52t39 -104q0 -86 -59.5 -131t-179.5 -45h-372zM257 138h129q39 0 58 15.5t19 44.5t-19 44t-58 15h-129v-119zM257 398h114q75 0 75 59t-75 59h-114v-118z" />
    <glyph glyph-name="C" unicode="C" horiz-adv-x="679" 
d="M664 196q-18 -73 -60.5 -119t-103 -66.5t-133.5 -20.5q-102 0 -176.5 40.5t-114.5 116.5t-40 183t40 183t114.5 116.5t175.5 40.5q72 0 132.5 -20t102.5 -62t57 -109l-177 -71q-11 64 -38.5 85t-70.5 21q-40 0 -68.5 -20.5t-43 -61t-14.5 -102.5q0 -61 13.5 -102
t42 -61.5t74.5 -20.5q41 0 69 24t37 75z" />
    <glyph glyph-name="D" unicode="D" horiz-adv-x="717" 
d="M364 660q155 0 236 -86t81 -244q0 -157 -81 -243.5t-236 -86.5h-303v660h303zM339 149q74 0 103 44.5t29 136.5t-29 136.5t-103 44.5h-74v-362h74z" />
    <glyph glyph-name="E" unicode="E" horiz-adv-x="628" 
d="M61 0v660h532v-153h-328v-107h262v-142h-262v-105h341v-153h-545z" />
    <glyph glyph-name="F" unicode="F" horiz-adv-x="613" 
d="M592 507h-327v-115h262v-153h-262v-239h-204v660h531v-153z" />
    <glyph glyph-name="G" unicode="G" horiz-adv-x="722" 
d="M337 -10q-87 0 -155 38t-107 114t-39 186q0 108 40.5 184.5t116.5 117t180 40.5q117 0 188.5 -42t110.5 -133l-190 -71q-10 49 -38 69.5t-70 20.5q-43 0 -71.5 -20.5t-42.5 -61.5t-14 -102q0 -66 15.5 -108t47.5 -61.5t79 -19.5q24 0 44 5.5t35.5 16.5t23.5 27.5t8 38.5
v5h-130v131h302v-365h-137l-16 167l32 -32q-18 -70 -72 -107.5t-141 -37.5z" />
    <glyph glyph-name="H" unicode="H" horiz-adv-x="745" 
d="M684 660v-660h-205v660h205zM265 660v-660h-204v660h204zM591 409v-153h-431v153h431z" />
    <glyph glyph-name="I" unicode="I" horiz-adv-x="326" 
d="M265 660v-660h-204v660h204z" />
    <glyph glyph-name="J" unicode="J" horiz-adv-x="637" 
d="M589 660v-397q0 -129 -76 -201t-218 -72q-104 0 -167.5 37t-86.5 102t-10 148l201 34q-12 -92 6.5 -128.5t65.5 -36.5q43 0 62 32.5t19 102.5v379h204z" />
    <glyph glyph-name="K" unicode="K" horiz-adv-x="706" 
d="M688 660l-317 -397l-10 39l-151 -195l-44 151l301 402h221zM265 660v-660h-204v660h204zM444 451l260 -451h-231l-180 338z" />
    <glyph glyph-name="L" unicode="L" 
d="M265 153h314v-153h-518v660h204v-507z" />
    <glyph glyph-name="M" unicode="M" horiz-adv-x="930" 
d="M870 660v-660h-180v264l4 213h-2l-145 -477h-164l-143 477h-3l4 -213v-264h-180v660h288l89 -313l33 -131h2l33 131l89 313h275z" />
    <glyph glyph-name="N" unicode="N" horiz-adv-x="744" 
d="M683 660v-660h-224l-180 327l-42 89h-2l4 -130v-286h-178v660h223l180 -327l43 -89h1l-4 130v286h179z" />
    <glyph glyph-name="O" unicode="O" horiz-adv-x="733" 
d="M367 670q103 0 176.5 -40.5t113 -116.5t39.5 -183t-39.5 -183t-113 -116.5t-176.5 -40.5q-102 0 -176.5 40.5t-114.5 116.5t-40 183t40 183t114.5 116.5t176.5 40.5zM367 514q-41 0 -67.5 -20.5t-40 -60.5t-13.5 -103q0 -62 13.5 -102.5t40 -61t67.5 -20.5q40 0 67 20.5
t40 61t13 102.5q0 63 -13 103t-40 60.5t-67 20.5z" />
    <glyph glyph-name="P" unicode="P" horiz-adv-x="688" 
d="M389 660q85 0 144.5 -26.5t91 -77t31.5 -123.5t-31.5 -123.5t-91 -77t-144.5 -26.5h-124v-206h-204v660h328zM356 354q45 0 70 19.5t25 59.5t-25 59.5t-70 19.5h-91v-158h91z" />
    <glyph glyph-name="Q" unicode="Q" horiz-adv-x="733" 
d="M536 -206q-71 0 -123 23t-79.5 64t-27.5 96q0 24 7.5 50t22.5 52l111 31q-14 -26 -20.5 -47.5t-6.5 -38.5q0 -34 15.5 -53t42 -27t60.5 -8q45 0 73.5 9t48.5 24l25 -135q-27 -19 -67 -29.5t-82 -10.5zM367 670q103 0 176.5 -40.5t113 -116.5t39.5 -183t-39.5 -183
t-113 -116.5t-176.5 -40.5q-102 0 -176.5 40.5t-114.5 116.5t-40 183t40 183t114.5 116.5t176.5 40.5zM367 514q-41 0 -67.5 -20.5t-40 -60.5t-13.5 -103q0 -62 13.5 -102.5t40 -61t67.5 -20.5q40 0 67 20.5t40 61t13 102.5q0 63 -13 103t-40 60.5t-67 20.5z" />
    <glyph glyph-name="R" unicode="R" horiz-adv-x="698" 
d="M399 660q123 0 190.5 -56.5t67.5 -150.5q0 -105 -66 -159t-190 -54l-20 -11h-120v-229h-200v660h338zM366 368q43 0 64.5 16.5t21.5 54.5t-21.5 55t-64.5 17h-105v-143h105zM487 325l208 -325h-223l-161 289z" />
    <glyph glyph-name="S" unicode="S" horiz-adv-x="647" 
d="M335 670q94 0 167 -25.5t128 -77.5l-89 -131q-45 38 -95.5 59.5t-111.5 21.5q-31 0 -50 -6t-27.5 -16.5t-8.5 -23.5q0 -16 19.5 -26t54.5 -18l100 -23q100 -23 149 -67.5t49 -121.5q0 -75 -37.5 -125t-102.5 -75t-147 -25q-65 0 -126.5 13t-112.5 37.5t-88 58.5l88 135
q27 -26 66 -46.5t83 -32.5t85 -12q29 0 47.5 5.5t26.5 15.5t8 24q0 17 -13 27.5t-49 18.5l-110 25q-54 12 -100 33t-73.5 58.5t-27.5 98.5q0 65 35 115t102 78t161 28z" />
    <glyph glyph-name="T" unicode="T" horiz-adv-x="671" 
d="M648 660v-153h-210v-507h-204v507h-212v153h626z" />
    <glyph glyph-name="U" unicode="U" horiz-adv-x="711" 
d="M663 660v-383q0 -144 -77 -215.5t-230 -71.5q-154 0 -231 71.5t-77 215.5v383h205v-394q0 -60 26 -90t77 -30t77 30t26 90v394h204z" />
    <glyph glyph-name="V" unicode="V" horiz-adv-x="696" 
d="M697 660l-228 -660h-242l-228 660h213l106 -379l34 -129l32 127l107 381h206z" />
    <glyph glyph-name="W" unicode="W" horiz-adv-x="1010" 
d="M189 0l-189 660h220l93 -498l104 498h180l109 -495l91 495h212l-189 -660h-220l-64 282l-27 165h-3l-27 -165l-64 -282h-226z" />
    <glyph glyph-name="X" unicode="X" horiz-adv-x="685" 
d="M686 0h-246l-104 190l-98 -190h-232l222 330l-211 330h241l94 -182l95 182h222l-210 -324z" />
    <glyph glyph-name="Y" unicode="Y" horiz-adv-x="687" 
d="M677 660l-231 -426v-234h-205v234l-232 426h207l80 -165l49 -115l48 115l81 165h203z" />
    <glyph glyph-name="Z" unicode="Z" horiz-adv-x="636" 
d="M187 81l-36 68h462v-149h-582v143l416 436l35 -68h-446v149h566v-143z" />
    <glyph glyph-name="bracketleft" unicode="[" horiz-adv-x="407" 
d="M383 571h-126v-603h126v-136h-298v874h298v-135z" />
    <glyph glyph-name="backslash" unicode="\" horiz-adv-x="478" 
d="M10 706h187l271 -776h-187z" />
    <glyph glyph-name="bracketright" unicode="]" horiz-adv-x="407" 
d="M23 -32h126v603h-126v135h299v-874h-299v136z" />
    <glyph glyph-name="asciicircum" unicode="^" horiz-adv-x="631" 
d="M24 355l207 367h168l208 -367h-175l-116 239l-118 -239h-174z" />
    <glyph glyph-name="underscore" unicode="_" horiz-adv-x="539" 
d="M539 -55v-156h-539v156h539z" />
    <glyph glyph-name="grave" unicode="`" horiz-adv-x="500" 
d="M310 734l63 -175h-144l-102 175h183z" />
    <glyph glyph-name="a" unicode="a" horiz-adv-x="584" 
d="M324 315q0 28 -14.5 44.5t-42.5 16.5q-26 0 -44.5 -14t-23.5 -53l-171 31q10 78 73 124t180 46q80 0 134.5 -22.5t81.5 -65.5t27 -103v-168q0 -40 37 -40q15 0 23 4l-10 -109q-33 -16 -82 -16q-43 0 -76 13.5t-52 39.5t-19 68v8l20 3q0 -40 -24.5 -70t-64 -46t-87.5 -16
q-52 0 -89 16t-56.5 46t-19.5 73q0 55 33.5 90t101.5 48l181 38l-1 -85l-74 -17q-25 -5 -36.5 -16.5t-11.5 -31.5q0 -19 13 -29.5t32 -10.5q13 0 24 4t19.5 12t13.5 20t5 29v139z" />
    <glyph glyph-name="b" unicode="b" horiz-adv-x="627" 
d="M397 -10q-51 0 -89 24.5t-61 67t-28 96.5l18 24l-11 -202h-177v706h202v-379l-18 27q12 67 53.5 111.5t118.5 44.5q57 0 100 -31t66.5 -89.5t23.5 -141.5q0 -81 -23.5 -139t-68 -88.5t-106.5 -30.5zM320 134q34 0 53 26t19 90t-19 89.5t-53 25.5q-22 0 -37.5 -13.5
t-23.5 -39.5t-8 -62q0 -39 8.5 -64.5t24 -38.5t36.5 -13z" />
    <glyph glyph-name="c" unicode="c" horiz-adv-x="569" 
d="M298 510q84 0 138.5 -23.5t82.5 -61t32 -78.5l-187 -57q-3 41 -16.5 61t-42.5 20q-25 0 -42 -12t-25 -39t-8 -72q0 -46 9.5 -72t27 -36.5t39.5 -10.5q20 0 32.5 8.5t20.5 25t10 39.5l181 -57q-4 -43 -34.5 -78t-83.5 -56t-125 -21q-86 0 -149 30.5t-97 88.5t-34 141
t34 141t95 88.5t142 30.5z" />
    <glyph glyph-name="d" unicode="d" horiz-adv-x="627" 
d="M229 -10q-61 0 -105.5 30.5t-68 88.5t-23.5 139q0 83 24 141.5t69.5 89.5t106.5 31q71 0 111 -44.5t51 -113.5l-18 -25v379h202v-706h-182l-12 187l23 -23q-6 -51 -29.5 -90.5t-61 -61.5t-87.5 -22zM307 134q22 0 37 13t23.5 39t8.5 65q0 37 -7.5 62.5t-23 38.5t-38.5 13
q-33 0 -52.5 -25.5t-19.5 -89.5t19 -90t53 -26z" />
    <glyph glyph-name="e" unicode="e" horiz-adv-x="580" 
d="M305 -10q-86 0 -148.5 30.5t-96 88.5t-33.5 141t34 141t95 88.5t141 30.5q82 0 139.5 -30.5t88 -84.5t30.5 -126q0 -17 -1.5 -34t-3.5 -29h-393v88h305l-96 -37q0 57 -15.5 86.5t-53.5 29.5q-26 0 -43.5 -12t-26 -40t-8.5 -74t10.5 -72.5t29.5 -36.5t48 -10q32 0 50 13
t26 36l162 -48q-12 -46 -48.5 -77t-86.5 -46.5t-105 -15.5z" />
    <glyph glyph-name="f" unicode="f" horiz-adv-x="423" 
d="M294 723q45 0 79.5 -9.5t49.5 -20.5l-16 -120q-10 6 -24 10t-36 4q-33 0 -54.5 -14t-21.5 -52v-62l13 -28v-431h-202v532q0 53 17.5 89.5t48 59t68.5 32.5t78 10zM417 500v-139h-409v139h409z" />
    <glyph glyph-name="g" unicode="g" horiz-adv-x="569" 
d="M555 649l14 -129q-9 2 -16 2.5t-14 0.5q-43 0 -63 -21.5t-20 -50.5l-63 21q0 42 14 83t45.5 68t83.5 27h9t10 -1zM377 127q93 0 141.5 -37.5t48.5 -111.5q0 -66 -34.5 -109t-98.5 -63.5t-154 -20.5q-142 0 -202.5 32t-60.5 91q0 42 37 66.5t121 25.5l-3 -17
q-71 8 -103.5 38.5t-32.5 80.5q0 51 41 81t105 32l66 -30h-18q-36 -1 -50 -9t-14 -21q0 -14 11.5 -21t36.5 -7h163zM282 -89q45 0 74.5 4.5t44 13.5t14.5 21q0 10 -7 15.5t-27 5.5h-187q-14 0 -22 -7t-8 -18q0 -17 31.5 -26t86.5 -9zM292 510q83 0 139.5 -19.5t86 -57
t29.5 -94.5q0 -55 -29.5 -93t-86 -57t-139.5 -19q-125 0 -189.5 43t-64.5 126q0 57 29 94.5t86 57t139 19.5zM292 401q-26 0 -41.5 -15t-15.5 -46q0 -30 15.5 -45.5t41.5 -15.5t41.5 15.5t15.5 45.5q0 31 -15.5 46t-41.5 15z" />
    <glyph glyph-name="h" unicode="h" horiz-adv-x="620" 
d="M49 0v706h202v-303q21 52 61.5 79.5t95.5 27.5q51 0 87.5 -19.5t56.5 -58t20 -94.5v-338h-202v284q0 43 -13.5 59t-37.5 16q-20 0 -35.5 -10t-24 -31.5t-8.5 -54.5v-263h-202z" />
    <glyph glyph-name="i" unicode="i" horiz-adv-x="300" 
d="M150 544q-60 0 -86.5 21t-26.5 68q0 48 26.5 69t86.5 21t86.5 -21t26.5 -69q0 -47 -26.5 -68t-86.5 -21zM251 500v-500h-202v500h202z" />
    <glyph glyph-name="j" unicode="j" horiz-adv-x="300" 
d="M150 544q-60 0 -86.5 21t-26.5 68q0 48 26.5 69t86.5 21t86.5 -21t26.5 -69q0 -47 -26.5 -68t-86.5 -21zM251 500v-520q0 -69 -23 -112t-69 -63t-116 -20q-44 0 -79 8t-63 23l26 123q10 -7 24.5 -11t32.5 -4q30 0 47.5 16.5t17.5 57.5v502h202z" />
    <glyph glyph-name="k" unicode="k" horiz-adv-x="641" 
d="M638 500l-249 -270l-36 -6l-135 -158l-3 200l203 234h220zM251 706v-706h-202v706h202zM422 358l227 -358h-222l-131 239z" />
    <glyph glyph-name="l" unicode="l" horiz-adv-x="334" 
d="M250 706v-520q0 -32 10 -46t35 -14q12 0 21.5 1.5t20.5 5.5l-11 -114q-18 -13 -50.5 -21t-64.5 -8q-87 0 -125 38.5t-38 128.5v549h202z" />
    <glyph glyph-name="m" unicode="m" horiz-adv-x="937" 
d="M49 0v500h182l5 -103q22 55 66 84t105 29q56 0 95.5 -25.5t56.5 -74.5q16 33 40.5 55t57 33.5t69.5 11.5q50 0 86.5 -19.5t56.5 -58t20 -94.5v-338h-202v288q0 40 -13 55.5t-37 15.5q-20 0 -35.5 -10t-23.5 -31.5t-8 -53.5v-264h-202v288q0 40 -13 55.5t-37 15.5
q-19 0 -34.5 -10t-24 -31.5t-8.5 -54.5v-263h-202z" />
    <glyph glyph-name="n" unicode="n" horiz-adv-x="620" 
d="M49 0v500h182l9 -193l-21 22q8 58 33 98.5t64.5 61.5t91.5 21q51 0 87.5 -19.5t56.5 -58t20 -94.5v-338h-202v286q0 42 -13.5 57.5t-38.5 15.5q-19 0 -34.5 -9.5t-24 -30.5t-8.5 -55v-264h-202z" />
    <glyph glyph-name="o" unicode="o" horiz-adv-x="598" 
d="M299 510q82 0 143 -30.5t95 -88.5t34 -141q0 -82 -34 -140.5t-95 -89t-143 -30.5q-80 0 -141.5 30.5t-96 89t-34.5 140.5q0 83 34.5 141t96 88.5t141.5 30.5zM299 371q-22 0 -37.5 -11t-23.5 -38t-8 -72t8 -71.5t23.5 -38t37.5 -11.5q23 0 38 11.5t23 38t8 71.5t-8 72
t-23 38t-38 11z" />
    <glyph glyph-name="p" unicode="p" horiz-adv-x="627" 
d="M49 -210v710h183l10 -202l-23 24q5 55 28 97t61.5 66.5t89.5 24.5q62 0 106 -30.5t67.5 -88t23.5 -139.5t-24 -141t-68.5 -90t-105.5 -31q-71 0 -111.5 44.5t-52.5 111.5l18 27v-383h-202zM320 135q34 0 53 25.5t19 89.5t-19 90t-52 26q-21 0 -37 -13t-24.5 -38.5
t-8.5 -64.5q0 -37 7.5 -63t23.5 -39t38 -13z" />
    <glyph glyph-name="q" unicode="q" horiz-adv-x="627" 
d="M376 -210v388l19 -27q-6 -47 -27.5 -83t-55.5 -57t-82 -21q-61 0 -105.5 31t-68.5 90t-24 141q0 83 24 140t69 87.5t106 30.5q52 0 90 -24.5t60.5 -67t26.5 -98.5l-23 -21l10 201h183v-710h-202zM307 135q22 0 37.5 13t23.5 39.5t8 63.5q0 39 -8.5 64.5t-23.5 38
t-37 12.5q-33 0 -52.5 -26t-19.5 -90t19 -89.5t53 -25.5z" />
    <glyph glyph-name="r" unicode="r" horiz-adv-x="437" 
d="M49 0v500h181l6 -117q17 59 53.5 93t95.5 34q21 0 34 -3.5t19 -8.5l-18 -164q-10 4 -26 7t-37 3q-30 0 -54 -11t-38 -32.5t-14 -54.5v-246h-202z" />
    <glyph glyph-name="s" unicode="s" horiz-adv-x="536" 
d="M270 -10q-74 0 -140 22t-113 65l81 107q27 -27 69.5 -47t89.5 -20q24 0 40.5 6t16.5 21q0 10 -8.5 16.5t-35.5 11.5l-52 10q-102 20 -144.5 58.5t-42.5 101.5q0 41 25.5 79.5t81 63.5t143.5 25q77 0 137.5 -20.5t96.5 -58.5l-79 -104q-27 26 -68 41t-78 15q-19 0 -32 -3
t-19.5 -8.5t-6.5 -14.5q0 -10 11.5 -17.5t42.5 -13.5l80 -14q79 -14 115 -52t36 -93q0 -49 -26 -89t-80.5 -64t-140.5 -24z" />
    <glyph glyph-name="t" unicode="t" horiz-adv-x="443" 
d="M292 665v-473q0 -35 15.5 -50t46.5 -15q22 0 38 4t30 13l13 -118q-24 -17 -65 -26.5t-80 -9.5q-64 0 -108.5 17t-68 54t-23.5 99v449zM428 500v-139h-420v139h420z" />
    <glyph glyph-name="u" unicode="u" horiz-adv-x="619" 
d="M214 -10q-51 0 -88.5 17.5t-58 56t-20.5 100.5v336h202v-289q0 -38 14 -54t41 -16q14 0 26 5.5t20.5 16.5t13 29t4.5 42v266h202v-500h-181l-5 100q-23 -55 -66 -82.5t-104 -27.5z" />
    <glyph glyph-name="v" unicode="v" horiz-adv-x="575" 
d="M372 500h209l-170 -500h-247l-170 500h211l83 -367z" />
    <glyph glyph-name="w" unicode="w" horiz-adv-x="922" 
d="M714 500h210l-143 -500h-247l-74 274l-72 -274h-247l-143 500h210l70 -355l84 355h198l84 -355z" />
    <glyph glyph-name="x" unicode="x" horiz-adv-x="609" 
d="M231 500l113 -230l74 9l194 -279h-230l-115 232l-76 -4l-189 272h229zM608 500l-186 -271l-83 6l-116 -235h-227l195 280l77 -11l115 231h225z" />
    <glyph glyph-name="y" unicode="y" horiz-adv-x="579" 
d="M585 500l-163 -470q-30 -90 -67.5 -143.5t-88.5 -77.5t-124 -24q-45 0 -82 9t-64 24l38 131q17 -10 36.5 -15t52.5 -5q31 0 48 8t25 29l7 19l-60 142l-146 373h221l60 -271l21 -111l25 114l62 268h199z" />
    <glyph glyph-name="z" unicode="z" horiz-adv-x="510" 
d="M28 0v119l176 197l49 49l-75 -2h-150v137h449v-119l-174 -195l-51 -51l85 2h149v-137h-458z" />
    <glyph glyph-name="braceleft" unicode="{" horiz-adv-x="445" 
d="M425 -192q-96 0 -155 17.5t-85.5 58.5t-26.5 110v109q0 56 -25.5 80t-86.5 24v124q61 0 86.5 24t25.5 80v110q0 69 26.5 109.5t85.5 58.5t155 18v-124q-57 0 -83 -21.5t-26 -69.5v-127q0 -48 -23.5 -77t-68.5 -42q45 -15 68.5 -44t23.5 -77v-126q0 -49 26 -70.5t83 -21.5
v-123z" />
    <glyph glyph-name="bar" unicode="|" horiz-adv-x="348" 
d="M263 706v-874h-178v874h178z" />
    <glyph glyph-name="braceright" unicode="}" horiz-adv-x="445" 
d="M19 731q97 0 155.5 -18t85.5 -58.5t27 -110.5v-109q0 -56 25.5 -80t86.5 -24v-124q-61 0 -86.5 -24t-25.5 -80v-109q0 -70 -27 -110.5t-85.5 -58t-155.5 -17.5v123q57 0 83.5 21.5t26.5 70.5v126q0 48 23 77t69 43q-46 14 -69 43t-23 77v126q0 49 -26.5 70.5t-83.5 21.5
v124z" />
    <glyph glyph-name="asciitilde" unicode="~" horiz-adv-x="617" 
d="M574 439q-4 -102 -47 -156t-124 -54q-36 0 -60 9t-41.5 21.5t-32 21t-31.5 8.5q-19 0 -29 -12.5t-14 -40.5h-152q4 103 47 156.5t125 53.5q35 0 59 -9t42 -21t32.5 -21t30.5 -9q19 0 29 12.5t14 40.5h152z" />
    <glyph glyph-name="uni00A0" unicode="&#xa0;" horiz-adv-x="267" 
 />
    <glyph glyph-name="exclamdown" unicode="&#xa1;" horiz-adv-x="310" 
d="M50 -160v187l22 255h167l22 -255v-187h-211zM156 327q-51 0 -79.5 24t-28.5 66q0 43 28.5 67t79.5 24t79 -24t28 -67q0 -42 -28 -66t-79 -24z" />
    <glyph glyph-name="cent" unicode="&#xa2;" horiz-adv-x="578" 
d="M315 -10q-90 0 -152.5 30.5t-96 88.5t-33.5 141t33.5 141t95 88.5t145.5 30.5q83 0 135.5 -23t79.5 -60t35 -80l-146 -50q-5 45 -29.5 68.5t-63.5 23.5q-52 0 -81 -31t-29 -110q0 -53 14.5 -83t39.5 -42t56 -12q28 0 47.5 9.5t32 28.5t16.5 47l143 -50q-7 -46 -38.5 -81
t-83 -55t-120.5 -20zM251 -100v700h119v-700h-119z" />
    <glyph glyph-name="sterling" unicode="&#xa3;" horiz-adv-x="622" 
d="M42 267v83h446v-83h-446zM152 -10q-52 0 -88 24t-36 71q0 32 18 53.5t47.5 31.5t64.5 10q44 0 75.5 -5.5t54.5 -14t42.5 -17t40.5 -14.5t47 -6q32 0 47 19t12 58l124 -16q8 -56 -8.5 -100t-52 -69t-84.5 -25q-43 0 -76 12.5t-60.5 30.5t-53 37t-52.5 31t-59 12
q-19 0 -29 -7t-10 -20q0 -14 10.5 -21t26.5 -7q21 0 33 9.5t17.5 32.5t5.5 59q0 44 -15.5 80t-49.5 87q-20 33 -32 57t-17 46.5t-5 46.5q0 54 29 98t84.5 70t134.5 26q100 0 162 -45t80 -137l-162 -58q-11 53 -32.5 76t-56.5 23q-30 0 -50 -17t-20 -48q0 -12 4 -25
t13.5 -31.5t23.5 -46.5q19 -35 31.5 -74t12.5 -74q0 -43 -12.5 -82.5t-37 -71t-60.5 -50.5t-82 -19z" />
    <glyph glyph-name="currency" unicode="&#xa4;" horiz-adv-x="640" 
d="M321 537q63 0 111 -26.5t75 -72.5t27 -108t-27 -108.5t-75 -73t-111 -26.5q-64 0 -112.5 26.5t-75.5 73t-27 108.5t27 108t75.5 72.5t112.5 26.5zM321 399q-31 0 -49.5 -18.5t-18.5 -50.5t18.5 -51t49.5 -19q30 0 48 19t18 51t-18 50.5t-48 18.5zM139 624l135 -157
l-92 -92l-158 135zM181 284l93 -92l-135 -158l-115 115zM463 279l152 -130l-115 -115l-131 152zM500 624l115 -114l-151 -132l-95 94z" />
    <glyph glyph-name="yen" unicode="&#xa5;" horiz-adv-x="683" 
d="M242 0v127h-191v58h191v63h-191v60h114l66 -4l-217 356h206l78 -181l43 -103h2l42 104l79 180h205l-217 -356l66 4h114v-60h-192v-63h192v-58h-192v-127h-198z" />
    <glyph glyph-name="brokenbar" unicode="&#xa6;" horiz-adv-x="348" 
d="M263 706v-385h-178v385h178zM263 218v-386h-178v386h178z" />
    <glyph glyph-name="section" unicode="&#xa7;" horiz-adv-x="631" 
d="M424 85l-63 101q40 7 64 15.5t35.5 19t11.5 25.5q0 21 -18.5 31.5t-46.5 15.5l-183 35q-42 8 -74.5 30t-50.5 53.5t-18 67.5q0 58 30 100.5t85 66.5t129 24q86 0 140.5 -24.5t96.5 -72.5l-99 -91q-28 32 -66 48.5t-81 16.5q-47 0 -66 -13t-19 -31q0 -12 7.5 -21t29 -16.5
t61.5 -15.5l84 -15q68 -13 111 -34t63 -50.5t20 -71.5q0 -57 -23.5 -96t-64.5 -63t-95 -35zM312 -110q-83 0 -153.5 24.5t-110.5 72.5l100 93q25 -33 71.5 -51t93.5 -18q39 0 66.5 10t27.5 31q0 16 -17 23.5t-62 17.5l-146 30q-53 12 -89 32.5t-54.5 52.5t-18.5 78
q0 54 24 88.5t64.5 55.5t90.5 33l60 -100q-37 -9 -59.5 -17t-33 -18t-10.5 -25q0 -21 19 -30.5t57 -16.5l155 -30q81 -15 122 -51.5t41 -103.5q0 -58 -29 -98.5t-82 -61.5t-127 -21z" />
    <glyph glyph-name="dieresis" unicode="&#xa8;" horiz-adv-x="500" 
d="M134 716q46 0 71 -22t25 -63q0 -40 -25 -62.5t-71 -22.5q-44 0 -68.5 22.5t-24.5 62.5q0 41 24.5 63t68.5 22zM363 716q46 0 71 -22t25 -63q0 -40 -25 -62.5t-71 -22.5q-44 0 -68.5 22.5t-24.5 62.5q0 41 24.5 63t68.5 22z" />
    <glyph glyph-name="copyright" unicode="&#xa9;" horiz-adv-x="755" 
d="M377 -10q-99 0 -177.5 43t-123 119.5t-44.5 177.5q0 102 44.5 178t123 119t177.5 43q101 0 178.5 -43t122.5 -119t45 -178q0 -101 -45 -177.5t-122.5 -119.5t-178.5 -43zM377 80q76 0 132.5 31.5t88 88t31.5 130.5q0 75 -31.5 131t-88 87.5t-132.5 31.5
q-75 0 -131.5 -31.5t-88 -87.5t-31.5 -131q0 -74 31.5 -130.5t88 -88t131.5 -31.5zM383 136q-92 0 -143 53t-51 141t51 140.5t143 52.5q71 0 116.5 -31.5t62.5 -84.5l-113 -54q-10 20 -24 27t-35 7q-27 0 -43.5 -14.5t-16.5 -42.5t16.5 -43t44.5 -15q19 0 35 7t25 30
l108 -53q-25 -64 -66 -92t-110 -28z" />
    <glyph glyph-name="ordfeminine" unicode="&#xaa;" horiz-adv-x="458" 
d="M142 299q-57 0 -86.5 26t-29.5 66q0 44 28.5 66t89.5 35l107 22v-54l-48 -12q-19 -5 -28.5 -15t-9.5 -24t9 -21t22 -7q11 0 20.5 4.5t15.5 14t6 24.5v100q0 19 -10 30t-29 11q-18 0 -31.5 -10t-17.5 -38l-121 22q7 56 52 89t125 33q91 0 134.5 -35t43.5 -107v-105
q0 -15 7 -22.5t19 -7.5q13 0 19 3l-11 -75q-12 -7 -26 -10t-35 -3q-44 0 -71 22t-27 66v20l18 -2q-3 -29 -19.5 -53.5t-45.5 -38.5t-70 -14zM37 133v101h381v-101h-381z" />
    <glyph glyph-name="guillemotleft" unicode="&#xab;" horiz-adv-x="618" 
d="M323 461l-118 -196l118 -196h-169l-125 196l125 196h169zM589 461l-118 -196l118 -196h-169l-125 196l125 196h169z" />
    <glyph glyph-name="logicalnot" unicode="&#xac;" 
d="M544 312v-227h-157v227h157zM544 397v-138h-484v138h484z" />
    <glyph glyph-name="uni00AD" unicode="&#xad;" horiz-adv-x="534" 
d="M457 349v-158h-379v158h379z" />
    <glyph glyph-name="registered" unicode="&#xae;" horiz-adv-x="755" 
d="M377 -10q-99 0 -177.5 43t-123 119.5t-44.5 177.5q0 102 44.5 178t123 119t177.5 43q101 0 178.5 -43t122.5 -119t45 -178q0 -101 -45 -177.5t-122.5 -119.5t-178.5 -43zM410 154l-66 142l99 23l105 -165h-138zM377 80q76 0 132.5 31.5t88 88t31.5 130.5q0 75 -31.5 131
t-88 87.5t-132.5 31.5q-75 0 -131.5 -31.5t-88 -87.5t-31.5 -131q0 -74 31.5 -130.5t88 -88t131.5 -31.5zM228 154v362h183q37 0 65.5 -15.5t45.5 -42.5t17 -62q0 -58 -39 -89.5t-105 -31.5h-54v-121h-113zM341 352h38q20 0 32 7.5t12 26.5t-12 27t-32 8h-38v-69z" />
    <glyph glyph-name="macron" unicode="&#xaf;" horiz-adv-x="500" 
d="M438 678v-119h-376v119h376z" />
    <glyph glyph-name="degree" unicode="&#xb0;" horiz-adv-x="508" 
d="M254 283q-66 0 -113.5 23.5t-74 67t-26.5 103.5q0 59 26.5 102.5t74 67t113.5 23.5q67 0 114 -23.5t73.5 -67t26.5 -102.5q0 -60 -26.5 -103.5t-73.5 -67t-114 -23.5zM254 407q32 0 51.5 20t19.5 50q0 31 -19.5 50t-51.5 19q-31 0 -51 -19t-20 -50q0 -30 20 -50t51 -20z
" />
    <glyph glyph-name="plusminus" unicode="&#xb1;" 
d="M373 656v-460h-141v460h141zM556 493v-133h-508v133h508zM556 129v-128h-508v128h508z" />
    <glyph glyph-name="uni00B2" unicode="&#xb2;" horiz-adv-x="402" 
d="M25 333v88q25 12 46.5 23.5t41.5 23.5q41 25 66.5 47t37 41t11.5 36q0 16 -8.5 25.5t-27.5 9.5q-22 0 -32.5 -18t-9.5 -52l-139 25q1 70 50.5 111.5t133.5 41.5q68 0 108 -20t57.5 -50t17.5 -61q0 -24 -9.5 -45.5t-27 -40.5t-43.5 -36q-18 -13 -40 -22.5t-46 -17.5v-2
q18 2 46 3t56 1h68v-111h-357z" />
    <glyph glyph-name="uni00B3" unicode="&#xb3;" horiz-adv-x="386" 
d="M198 735q75 0 117 -29.5t42 -85.5q0 -25 -10 -44t-29 -30t-46 -13v-4q31 0 51.5 -10t31 -28t10.5 -44q0 -36 -24 -63t-65.5 -42t-94.5 -15q-76 0 -120.5 30t-56.5 81l130 36q3 -24 16 -35.5t35 -11.5q20 0 30 9.5t10 25.5q0 17 -11 23.5t-34 6.5h-8t-9 -1v70q4 -1 8 -1h7
q20 0 30.5 9t10.5 26t-9 25t-26 8q-18 0 -31 -11t-15 -35l-126 35q10 57 60.5 87.5t125.5 30.5z" />
    <glyph glyph-name="acute" unicode="&#xb4;" horiz-adv-x="519" 
d="M200 734h183l-103 -175h-143z" />
    <glyph glyph-name="uni00B5" unicode="&#xb5;" horiz-adv-x="621" 
d="M49 -210v710h202v-286q0 -40 13.5 -56.5t40.5 -16.5q20 0 34.5 10.5t22.5 32t8 55.5v261h202v-500h-180l-6 94q-19 -51 -54.5 -77t-82.5 -26q-16 0 -30 3t-26 10l58 83v-297h-202z" />
    <glyph glyph-name="paragraph" unicode="&#xb6;" horiz-adv-x="781" 
d="M298 -100v272q-75 1 -135.5 27.5t-95.5 80.5t-35 135q0 82 36.5 136.5t101.5 81.5t149 27h404v-760h-162v608h-100v-608h-163zM294 325v183q-34 0 -57 -11.5t-35.5 -32t-12.5 -48.5t12.5 -48.5t35.5 -31.5t57 -11z" />
    <glyph glyph-name="periodcentered" unicode="&#xb7;" horiz-adv-x="291" 
d="M145 452q54 0 83 -26t29 -73t-29 -73t-83 -26q-52 0 -82 26t-30 73t30 73t82 26z" />
    <glyph glyph-name="cedilla" unicode="&#xb8;" horiz-adv-x="500" 
d="M168 12l40 28q86 -9 127.5 -40t41.5 -87q0 -59 -39 -93.5t-109 -34.5q-41 0 -64 9t-41 20l30 90q12 -8 25.5 -12.5t32.5 -4.5q25 0 40.5 14t15.5 38q0 22 -21.5 39.5t-78.5 33.5z" />
    <glyph glyph-name="uni00B9" unicode="&#xb9;" horiz-adv-x="318" 
d="M160 730h120v-397h-141v204q0 11 0.5 27.5t1.5 34.5q-24 -17 -54 -29t-65 -17v116q23 3 51 12.5t52.5 22.5t34.5 26z" />
    <glyph glyph-name="ordmasculine" unicode="&#xba;" horiz-adv-x="445" 
d="M223 299q-88 0 -139.5 47.5t-51.5 133.5t51.5 133.5t139.5 47.5q87 0 138.5 -47.5t51.5 -133.5t-51.5 -133.5t-138.5 -47.5zM36 133v101h373v-101h-373zM223 390q24 0 33.5 20.5t9.5 69.5q0 48 -9.5 69t-33.5 21t-34.5 -21t-10.5 -69q0 -49 10.5 -69.5t34.5 -20.5z" />
    <glyph glyph-name="guillemotright" unicode="&#xbb;" horiz-adv-x="618" 
d="M295 69l118 196l-118 196h169l125 -196l-125 -196h-169zM29 69l118 196l-118 196h169l126 -196l-126 -196h-169z" />
    <glyph glyph-name="onequarter" unicode="&#xbc;" horiz-adv-x="902" 
d="M160 665h120v-397h-141v204q0 11 0.5 27.5t1.5 34.5q-24 -17 -54 -29t-65 -17v116q23 3 51 12.5t52.5 22.5t34.5 26zM139 0l476 661h134l-476 -661h-134zM890 169v-94h-57v-79h-124v79h-202v64l154 255h172v-225h57zM627 169h82v64q0 21 1 42t2 40h-3q-6 -15 -14 -31.5
t-16 -30.5z" />
    <glyph glyph-name="onehalf" unicode="&#xbd;" horiz-adv-x="971" 
d="M160 665h120v-397h-141v204q0 11 0.5 27.5t1.5 34.5q-24 -17 -54 -29t-65 -17v116q23 3 51 12.5t52.5 22.5t34.5 26zM139 0l476 661h134l-476 -661h-134zM595 -4v88q25 12 46.5 23.5t41.5 23.5q41 25 66.5 47t37 41t11.5 36q0 16 -8.5 25.5t-27.5 9.5q-22 0 -32.5 -18
t-9.5 -52l-139 25q1 70 50.5 111.5t133.5 41.5q68 0 108 -20t57.5 -50t17.5 -61q0 -24 -9.5 -45.5t-27 -40.5t-43.5 -36q-18 -13 -40 -22.5t-46 -17.5v-2q18 2 46 3t56 1h68v-111h-357z" />
    <glyph glyph-name="threequarters" unicode="&#xbe;" horiz-adv-x="970" 
d="M198 670q75 0 117 -29.5t42 -85.5q0 -25 -10 -44t-29 -30t-46 -13v-4q31 0 51.5 -10t31 -28t10.5 -44q0 -36 -24 -63t-65.5 -42t-94.5 -15q-76 0 -120.5 30t-56.5 81l130 36q3 -24 16 -35.5t35 -11.5q20 0 30 9.5t10 25.5q0 17 -11 23.5t-34 6.5h-8t-9 -1v70q4 -1 8 -1h7
q20 0 30.5 9t10.5 26t-9 25t-26 8q-18 0 -31 -11t-15 -35l-126 35q10 57 60.5 87.5t125.5 30.5zM207 0l476 661h134l-476 -661h-134zM958 169v-94h-57v-79h-124v79h-202v64l154 255h172v-225h57zM695 169h82v64q0 21 1 42t2 40h-3q-6 -15 -14 -31.5t-16 -30.5z" />
    <glyph glyph-name="questiondown" unicode="&#xbf;" horiz-adv-x="630" 
d="M310 -169q-77 0 -138.5 20.5t-97 63t-35.5 106.5q0 63 26 102t69.5 58.5t95.5 24.5l14 79h173l-1 -154q-60 -2 -94 -13.5t-49 -29t-15 -39.5q0 -19 7 -32t21.5 -19.5t36.5 -6.5q36 0 55.5 22t24.5 66l197 -62q-12 -53 -45.5 -95t-93 -66.5t-151.5 -24.5zM327 328
q-51 0 -79 23.5t-28 66.5t28 66.5t79 23.5q50 0 78.5 -23.5t28.5 -66.5t-28.5 -66.5t-78.5 -23.5z" />
    <glyph glyph-name="Agrave" unicode="&#xc0;" horiz-adv-x="684" 
d="M687 0h-210l-37 137h-201l-38 -137h-204l222 660h245zM273 269h134l-67 246zM363 881l59 -166h-144l-91 166h176z" />
    <glyph glyph-name="Aacute" unicode="&#xc1;" horiz-adv-x="684" 
d="M687 0h-210l-37 137h-201l-38 -137h-204l222 660h245zM273 269h134l-67 246zM318 881h176l-91 -166h-144z" />
    <glyph glyph-name="Acircumflex" unicode="&#xc2;" horiz-adv-x="684" 
d="M687 0h-210l-37 137h-201l-38 -137h-204l222 660h245zM273 269h134l-67 246zM535 715h-134l-60 87l-60 -87h-134l97 166h194z" />
    <glyph glyph-name="Atilde" unicode="&#xc3;" horiz-adv-x="684" 
d="M687 0h-210l-37 137h-201l-38 -137h-204l222 660h245zM273 269h134l-67 246zM545 879q-1 -57 -19 -94.5t-46.5 -56t-61.5 -18.5q-28 0 -48.5 8.5t-36 19t-28.5 18.5t-27 8q-15 0 -23 -12.5t-11 -39.5h-108q3 85 41.5 126.5t95.5 41.5q27 0 46 -8t32.5 -18.5t26 -18.5
t26.5 -8q16 0 23.5 12.5t10.5 39.5h107z" />
    <glyph glyph-name="Adieresis" unicode="&#xc4;" horiz-adv-x="684" 
d="M687 0h-210l-37 137h-201l-38 -137h-204l222 660h245zM273 269h134l-67 246zM225 876q46 0 71 -22t25 -63q0 -40 -25 -62.5t-71 -22.5q-44 0 -68.5 22.5t-24.5 62.5q0 41 24.5 63t68.5 22zM454 876q46 0 71 -22t25 -63q0 -40 -25 -62.5t-71 -22.5q-44 0 -68.5 22.5
t-24.5 62.5q0 41 24.5 63t68.5 22z" />
    <glyph glyph-name="Aring" unicode="&#xc5;" horiz-adv-x="684" 
d="M687 0h-210l-37 137h-201l-38 -137h-204l222 660h245zM273 269h134l-67 246zM341 841q66 0 105.5 -35t39.5 -94q0 -58 -39.5 -93t-105.5 -35q-65 0 -104.5 35t-39.5 93q0 59 39.5 94t104.5 35zM342 759q-22 0 -35 -12.5t-13 -33.5q0 -22 13 -34.5t35 -12.5q21 0 34 12.5
t13 34.5q0 21 -13 33.5t-34 12.5z" />
    <glyph glyph-name="AE" unicode="&#xc6;" horiz-adv-x="913" 
d="M599 145h292v-145h-481v190h-154l-60 -190h-203l246 660h639v-145h-279v-118h214v-135h-214v-117zM292 315h118v207h-49z" />
    <glyph glyph-name="Ccedilla" unicode="&#xc7;" horiz-adv-x="679" 
d="M664 196q-18 -73 -60.5 -119t-103 -66.5t-133.5 -20.5q-102 0 -176.5 40.5t-114.5 116.5t-40 183t40 183t114.5 116.5t175.5 40.5q72 0 132.5 -20t102.5 -62t57 -109l-177 -71q-11 64 -38.5 85t-70.5 21q-40 0 -68.5 -20.5t-43 -61t-14.5 -102.5q0 -61 13.5 -102
t42 -61.5t74.5 -20.5q41 0 69 24t37 75zM271 12l40 28q86 -9 127.5 -40t41.5 -87q0 -59 -39 -93.5t-109 -34.5q-41 0 -64 9t-41 20l30 90q12 -8 25.5 -12.5t32.5 -4.5q25 0 40.5 14t15.5 38q0 22 -21.5 39.5t-78.5 33.5z" />
    <glyph glyph-name="Egrave" unicode="&#xc8;" horiz-adv-x="628" 
d="M61 0v660h532v-153h-328v-107h262v-142h-262v-105h341v-153h-545zM350 881l59 -166h-144l-91 166h176z" />
    <glyph glyph-name="Eacute" unicode="&#xc9;" horiz-adv-x="628" 
d="M61 0v660h532v-153h-328v-107h262v-142h-262v-105h341v-153h-545zM295 881h176l-91 -166h-144z" />
    <glyph glyph-name="Ecircumflex" unicode="&#xca;" horiz-adv-x="628" 
d="M61 0v660h532v-153h-328v-107h262v-142h-262v-105h341v-153h-545zM521 715h-134l-60 87l-60 -87h-134l97 166h194z" />
    <glyph glyph-name="Edieresis" unicode="&#xcb;" horiz-adv-x="628" 
d="M61 0v660h532v-153h-328v-107h262v-142h-262v-105h341v-153h-545zM211 876q46 0 71 -22t25 -63q0 -40 -25 -62.5t-71 -22.5q-44 0 -68.5 22.5t-24.5 62.5q0 41 24.5 63t68.5 22zM440 876q46 0 71 -22t25 -63q0 -40 -25 -62.5t-71 -22.5q-44 0 -68.5 22.5t-24.5 62.5
q0 41 24.5 63t68.5 22z" />
    <glyph glyph-name="Igrave" unicode="&#xcc;" horiz-adv-x="326" 
d="M265 660v-660h-204v660h204zM184 881l59 -166h-144l-91 166h176z" />
    <glyph glyph-name="Iacute" unicode="&#xcd;" horiz-adv-x="326" 
d="M265 660v-660h-204v660h204zM142 881h176l-91 -166h-144z" />
    <glyph glyph-name="Icircumflex" unicode="&#xce;" horiz-adv-x="326" 
d="M265 660v-660h-204v660h204zM357 715h-134l-60 87l-60 -87h-134l97 166h194z" />
    <glyph glyph-name="Idieresis" unicode="&#xcf;" horiz-adv-x="326" 
d="M54 876q44 0 68.5 -22t24.5 -63q0 -40 -24.5 -62.5t-68.5 -22.5q-42 0 -66 22.5t-24 62.5q0 41 24 63t66 22zM269 876q44 0 69 -22t25 -63q0 -40 -25 -62.5t-69 -22.5q-42 0 -66 22.5t-24 62.5q0 41 24 63t66 22zM265 660v-660h-204v660h204z" />
    <glyph glyph-name="Eth" unicode="&#xd0;" horiz-adv-x="743" 
d="M8 261v136h390v-136h-390zM390 660q155 0 235.5 -86t80.5 -244q0 -157 -80.5 -243.5t-235.5 -86.5h-303v660h303zM365 149q73 0 102.5 44.5t29.5 136.5t-29.5 136.5t-102.5 44.5h-74v-362h74z" />
    <glyph glyph-name="Ntilde" unicode="&#xd1;" horiz-adv-x="744" 
d="M683 660v-660h-224l-180 327l-42 89h-2l4 -130v-286h-178v660h223l180 -327l43 -89h1l-4 130v286h179zM577 879q-1 -57 -19 -94.5t-46.5 -56t-61.5 -18.5q-28 0 -48.5 8.5t-36 19t-28.5 18.5t-27 8q-15 0 -23 -12.5t-11 -39.5h-108q3 85 41.5 126.5t95.5 41.5q27 0 46 -8
t32.5 -18.5t26 -18.5t26.5 -8q16 0 23.5 12.5t10.5 39.5h107z" />
    <glyph glyph-name="Ograve" unicode="&#xd2;" horiz-adv-x="733" 
d="M367 670q103 0 176.5 -40.5t113 -116.5t39.5 -183t-39.5 -183t-113 -116.5t-176.5 -40.5q-102 0 -176.5 40.5t-114.5 116.5t-40 183t40 183t114.5 116.5t176.5 40.5zM367 514q-41 0 -67.5 -20.5t-40 -60.5t-13.5 -103q0 -62 13.5 -102.5t40 -61t67.5 -20.5q40 0 67 20.5
t40 61t13 102.5q0 63 -13 103t-40 60.5t-67 20.5zM388 881l59 -166h-144l-91 166h176z" />
    <glyph glyph-name="Oacute" unicode="&#xd3;" horiz-adv-x="733" 
d="M367 670q103 0 176.5 -40.5t113 -116.5t39.5 -183t-39.5 -183t-113 -116.5t-176.5 -40.5q-102 0 -176.5 40.5t-114.5 116.5t-40 183t40 183t114.5 116.5t176.5 40.5zM367 514q-41 0 -67.5 -20.5t-40 -60.5t-13.5 -103q0 -62 13.5 -102.5t40 -61t67.5 -20.5q40 0 67 20.5
t40 61t13 102.5q0 63 -13 103t-40 60.5t-67 20.5zM344 881h176l-91 -166h-144z" />
    <glyph glyph-name="Ocircumflex" unicode="&#xd4;" horiz-adv-x="733" 
d="M367 670q103 0 176.5 -40.5t113 -116.5t39.5 -183t-39.5 -183t-113 -116.5t-176.5 -40.5q-102 0 -176.5 40.5t-114.5 116.5t-40 183t40 183t114.5 116.5t176.5 40.5zM367 514q-41 0 -67.5 -20.5t-40 -60.5t-13.5 -103q0 -62 13.5 -102.5t40 -61t67.5 -20.5q40 0 67 20.5
t40 61t13 102.5q0 63 -13 103t-40 60.5t-67 20.5zM561 715h-134l-60 87l-60 -87h-134l97 166h194z" />
    <glyph glyph-name="Otilde" unicode="&#xd5;" horiz-adv-x="733" 
d="M367 670q103 0 176.5 -40.5t113 -116.5t39.5 -183t-39.5 -183t-113 -116.5t-176.5 -40.5q-102 0 -176.5 40.5t-114.5 116.5t-40 183t40 183t114.5 116.5t176.5 40.5zM367 514q-41 0 -67.5 -20.5t-40 -60.5t-13.5 -103q0 -62 13.5 -102.5t40 -61t67.5 -20.5q40 0 67 20.5
t40 61t13 102.5q0 63 -13 103t-40 60.5t-67 20.5zM571 879q-1 -57 -19 -94.5t-46.5 -56t-61.5 -18.5q-28 0 -48.5 8.5t-36 19t-28.5 18.5t-27 8q-15 0 -23 -12.5t-11 -39.5h-108q3 85 41.5 126.5t95.5 41.5q27 0 46 -8t32.5 -18.5t26 -18.5t26.5 -8q16 0 23.5 12.5
t10.5 39.5h107z" />
    <glyph glyph-name="Odieresis" unicode="&#xd6;" horiz-adv-x="733" 
d="M367 670q103 0 176.5 -40.5t113 -116.5t39.5 -183t-39.5 -183t-113 -116.5t-176.5 -40.5q-102 0 -176.5 40.5t-114.5 116.5t-40 183t40 183t114.5 116.5t176.5 40.5zM367 514q-41 0 -67.5 -20.5t-40 -60.5t-13.5 -103q0 -62 13.5 -102.5t40 -61t67.5 -20.5q40 0 67 20.5
t40 61t13 102.5q0 63 -13 103t-40 60.5t-67 20.5zM251 876q46 0 71 -22t25 -63q0 -40 -25 -62.5t-71 -22.5q-44 0 -68.5 22.5t-24.5 62.5q0 41 24.5 63t68.5 22zM480 876q46 0 71 -22t25 -63q0 -40 -25 -62.5t-71 -22.5q-44 0 -68.5 22.5t-24.5 62.5q0 41 24.5 63t68.5 22z
" />
    <glyph glyph-name="multiply" unicode="&#xd7;" 
d="M454 72l105 106l-409 409l-106 -106zM150 72l409 409l-105 106l-410 -409z" />
    <glyph glyph-name="Oslash" unicode="&#xd8;" horiz-adv-x="733" 
d="M261 131l-50 42l244 331l53 -39zM53 -24l134 172l55 -42l-107 -130h-82zM542 504l-55 42l110 135h83zM367 670q103 0 176.5 -40.5t113 -116.5t39.5 -183t-39.5 -183t-113 -116.5t-176.5 -40.5q-102 0 -176.5 40.5t-114.5 116.5t-40 183t40 183t114.5 116.5t176.5 40.5z
M367 514q-41 0 -67.5 -20.5t-40 -60.5t-13.5 -103q0 -62 13.5 -102.5t40 -61t67.5 -20.5q40 0 67 20.5t40 61t13 102.5q0 63 -13 103t-40 60.5t-67 20.5z" />
    <glyph glyph-name="Ugrave" unicode="&#xd9;" horiz-adv-x="711" 
d="M663 660v-383q0 -144 -77 -215.5t-230 -71.5q-154 0 -231 71.5t-77 215.5v383h205v-394q0 -60 26 -90t77 -30t77 30t26 90v394h204zM379 876l59 -166h-144l-91 166h176z" />
    <glyph glyph-name="Uacute" unicode="&#xda;" horiz-adv-x="711" 
d="M663 660v-383q0 -144 -77 -215.5t-230 -71.5q-154 0 -231 71.5t-77 215.5v383h205v-394q0 -60 26 -90t77 -30t77 30t26 90v394h204zM333 876h176l-91 -166h-144z" />
    <glyph glyph-name="Ucircumflex" unicode="&#xdb;" horiz-adv-x="711" 
d="M663 660v-383q0 -144 -77 -215.5t-230 -71.5q-154 0 -231 71.5t-77 215.5v383h205v-394q0 -60 26 -90t77 -30t77 30t26 90v394h204zM550 710h-134l-60 87l-60 -87h-134l97 166h194z" />
    <glyph glyph-name="Udieresis" unicode="&#xdc;" horiz-adv-x="711" 
d="M663 660v-383q0 -144 -77 -215.5t-230 -71.5q-154 0 -231 71.5t-77 215.5v383h205v-394q0 -60 26 -90t77 -30t77 30t26 90v394h204zM240 871q46 0 71 -22t25 -63q0 -40 -25 -62.5t-71 -22.5q-44 0 -68.5 22.5t-24.5 62.5q0 41 24.5 63t68.5 22zM469 871q46 0 71 -22
t25 -63q0 -40 -25 -62.5t-71 -22.5q-44 0 -68.5 22.5t-24.5 62.5q0 41 24.5 63t68.5 22z" />
    <glyph glyph-name="Yacute" unicode="&#xdd;" horiz-adv-x="687" 
d="M677 660l-231 -426v-234h-205v234l-232 426h207l80 -165l49 -115l48 115l81 165h203zM320 877h176l-91 -166h-144z" />
    <glyph glyph-name="Thorn" unicode="&#xde;" horiz-adv-x="691" 
d="M391 566q127 0 197 -58t70 -171t-70 -171t-197 -58h-228v148h199q90 0 90 83q0 40 -23.5 59t-66.5 19h-199v149h228zM265 660v-660h-204v660h204z" />
    <glyph glyph-name="germandbls" unicode="&#xdf;" horiz-adv-x="657" 
d="M456 353q54 0 93 -21.5t61 -60t22 -91.5q0 -50 -22.5 -93.5t-70 -70t-122.5 -26.5q-44 0 -78.5 8.5t-56.5 23.5l29 127q12 -8 26.5 -13.5t35.5 -5.5q31 0 50 21t19 57q0 35 -22.5 54t-63.5 19h-53l22 137h23q38 0 57 22t19 57q0 36 -21.5 55t-57.5 19q-50 0 -72 -31
t-22 -101v-439h-202v448q0 84 30 142.5t96.5 89.5t175.5 31q87 0 146.5 -25t90.5 -68t31 -101q0 -42 -19.5 -79t-56 -59.5t-87.5 -23.5v-2z" />
    <glyph glyph-name="agrave" unicode="&#xe0;" horiz-adv-x="584" 
d="M324 315q0 28 -14.5 44.5t-42.5 16.5q-26 0 -44.5 -14t-23.5 -53l-171 31q10 78 73 124t180 46q80 0 134.5 -22.5t81.5 -65.5t27 -103v-168q0 -40 37 -40q15 0 23 4l-10 -109q-33 -16 -82 -16q-43 0 -76 13.5t-52 39.5t-19 68v8l20 3q0 -40 -24.5 -70t-64 -46t-87.5 -16
q-52 0 -89 16t-56.5 46t-19.5 73q0 55 33.5 90t101.5 48l181 38l-1 -85l-74 -17q-25 -5 -36.5 -16.5t-11.5 -31.5q0 -19 13 -29.5t32 -10.5q13 0 24 4t19.5 12t13.5 20t5 29v139zM289 734l63 -175h-144l-102 175h183z" />
    <glyph glyph-name="aacute" unicode="&#xe1;" horiz-adv-x="584" 
d="M324 315q0 28 -14.5 44.5t-42.5 16.5q-26 0 -44.5 -14t-23.5 -53l-171 31q10 78 73 124t180 46q80 0 134.5 -22.5t81.5 -65.5t27 -103v-168q0 -40 37 -40q15 0 23 4l-10 -109q-33 -16 -82 -16q-43 0 -76 13.5t-52 39.5t-19 68v8l20 3q0 -40 -24.5 -70t-64 -46t-87.5 -16
q-52 0 -89 16t-56.5 46t-19.5 73q0 55 33.5 90t101.5 48l181 38l-1 -85l-74 -17q-25 -5 -36.5 -16.5t-11.5 -31.5q0 -19 13 -29.5t32 -10.5q13 0 24 4t19.5 12t13.5 20t5 29v139zM254 734h183l-103 -175h-143z" />
    <glyph glyph-name="acircumflex" unicode="&#xe2;" horiz-adv-x="584" 
d="M324 315q0 28 -14.5 44.5t-42.5 16.5q-26 0 -44.5 -14t-23.5 -53l-171 31q10 78 73 124t180 46q80 0 134.5 -22.5t81.5 -65.5t27 -103v-168q0 -40 37 -40q15 0 23 4l-10 -109q-33 -16 -82 -16q-43 0 -76 13.5t-52 39.5t-19 68v8l20 3q0 -40 -24.5 -70t-64 -46t-87.5 -16
q-52 0 -89 16t-56.5 46t-19.5 73q0 55 33.5 90t101.5 48l181 38l-1 -85l-74 -17q-25 -5 -36.5 -16.5t-11.5 -31.5q0 -19 13 -29.5t32 -10.5q13 0 24 4t19.5 12t13.5 20t5 29v139zM480 552h-141l-62 80l-62 -80h-141l108 176h190z" />
    <glyph glyph-name="atilde" unicode="&#xe3;" horiz-adv-x="584" 
d="M324 315q0 28 -14.5 44.5t-42.5 16.5q-26 0 -44.5 -14t-23.5 -53l-171 31q10 78 73 124t180 46q80 0 134.5 -22.5t81.5 -65.5t27 -103v-168q0 -40 37 -40q15 0 23 4l-10 -109q-33 -16 -82 -16q-43 0 -76 13.5t-52 39.5t-19 68v8l20 3q0 -40 -24.5 -70t-64 -46t-87.5 -16
q-52 0 -89 16t-56.5 46t-19.5 73q0 55 33.5 90t101.5 48l181 38l-1 -85l-74 -17q-25 -5 -36.5 -16.5t-11.5 -31.5q0 -19 13 -29.5t32 -10.5q13 0 24 4t19.5 12t13.5 20t5 29v139zM481 719q-1 -57 -19 -94.5t-46.5 -56t-61.5 -18.5q-28 0 -48.5 8.5t-36 19t-28.5 18.5t-27 8
q-15 0 -23 -12.5t-11 -39.5h-108q3 85 41.5 126.5t95.5 41.5q27 0 46 -8t32.5 -18.5t26 -18.5t26.5 -8q16 0 23.5 12.5t10.5 39.5h107z" />
    <glyph glyph-name="adieresis" unicode="&#xe4;" horiz-adv-x="584" 
d="M324 315q0 28 -14.5 44.5t-42.5 16.5q-26 0 -44.5 -14t-23.5 -53l-171 31q10 78 73 124t180 46q80 0 134.5 -22.5t81.5 -65.5t27 -103v-168q0 -40 37 -40q15 0 23 4l-10 -109q-33 -16 -82 -16q-43 0 -76 13.5t-52 39.5t-19 68v8l20 3q0 -40 -24.5 -70t-64 -46t-87.5 -16
q-52 0 -89 16t-56.5 46t-19.5 73q0 55 33.5 90t101.5 48l181 38l-1 -85l-74 -17q-25 -5 -36.5 -16.5t-11.5 -31.5q0 -19 13 -29.5t32 -10.5q13 0 24 4t19.5 12t13.5 20t5 29v139zM161 716q46 0 71 -22t25 -63q0 -40 -25 -62.5t-71 -22.5q-44 0 -68.5 22.5t-24.5 62.5
q0 41 24.5 63t68.5 22zM390 716q46 0 71 -22t25 -63q0 -40 -25 -62.5t-71 -22.5q-44 0 -68.5 22.5t-24.5 62.5q0 41 24.5 63t68.5 22z" />
    <glyph glyph-name="aring" unicode="&#xe5;" horiz-adv-x="584" 
d="M324 315q0 28 -14.5 44.5t-42.5 16.5q-26 0 -44.5 -14t-23.5 -53l-171 31q10 78 73 124t180 46q80 0 134.5 -22.5t81.5 -65.5t27 -103v-168q0 -40 37 -40q15 0 23 4l-10 -109q-33 -16 -82 -16q-43 0 -76 13.5t-52 39.5t-19 68v8l20 3q0 -40 -24.5 -70t-64 -46t-87.5 -16
q-52 0 -89 16t-56.5 46t-19.5 73q0 55 33.5 90t101.5 48l181 38l-1 -85l-74 -17q-25 -5 -36.5 -16.5t-11.5 -31.5q0 -19 13 -29.5t32 -10.5q13 0 24 4t19.5 12t13.5 20t5 29v139zM276 799q66 0 105.5 -35t39.5 -94q0 -58 -39.5 -93t-105.5 -35q-65 0 -104.5 35t-39.5 93
q0 59 39.5 94t104.5 35zM277 717q-22 0 -35 -12.5t-13 -33.5q0 -22 13 -34.5t35 -12.5q21 0 34 12.5t13 34.5q0 21 -13 33.5t-34 12.5z" />
    <glyph glyph-name="ae" unicode="&#xe6;" horiz-adv-x="874" 
d="M202 -10q-58 0 -98 16t-60.5 47t-20.5 75q0 54 36.5 88.5t100.5 47.5l164 33v15q0 31 -15 47.5t-44 16.5q-24 0 -42 -14t-24 -53l-171 31q6 48 36 86t81.5 61t120.5 23q81 0 134 -27.5t72 -81.5l-65 -5q20 37 50 62t68 38.5t83 13.5q79 0 132.5 -30.5t81 -85t27.5 -125.5
q0 -16 -1.5 -33t-3.5 -29h-326v0q3 -43 30 -61.5t63 -18.5q30 0 44 13.5t22 36.5l163 -47q-13 -47 -46.5 -78t-80 -46.5t-100.5 -15.5q-91 0 -149 42t-77 122l40 -10q-7 -32 -23.5 -59.5t-43.5 -49t-66 -33.5t-92 -12zM262 111q12 0 23 3.5t20 12.5t14 21.5t5 29.5v36
l-59 -14q-25 -6 -36.5 -16.5t-11.5 -33.5q0 -17 12 -28t33 -11zM518 294h141q-2 26 -9.5 43.5t-21.5 26.5t-35 9q-32 0 -50.5 -18.5t-24.5 -60.5z" />
    <glyph glyph-name="ccedilla" unicode="&#xe7;" horiz-adv-x="569" 
d="M298 510q84 0 138.5 -23.5t82.5 -61t32 -78.5l-187 -57q-3 41 -16.5 61t-42.5 20q-25 0 -42 -12t-25 -39t-8 -72q0 -46 9.5 -72t27 -36.5t39.5 -10.5q20 0 32.5 8.5t20.5 25t10 39.5l181 -57q-4 -43 -34.5 -78t-83.5 -56t-125 -21q-86 0 -149 30.5t-97 88.5t-34 141
t34 141t95 88.5t142 30.5zM214 12l40 28q86 -9 127.5 -40t41.5 -87q0 -59 -39 -93.5t-109 -34.5q-41 0 -64 9t-41 20l30 90q12 -8 25.5 -12.5t32.5 -4.5q25 0 40.5 14t15.5 38q0 22 -21.5 39.5t-78.5 33.5z" />
    <glyph glyph-name="egrave" unicode="&#xe8;" horiz-adv-x="579" 
d="M305 -10q-86 0 -148.5 30.5t-96 88.5t-33.5 141t34 141t95 88.5t141 30.5q82 0 139.5 -30.5t88 -84.5t30.5 -126q0 -17 -1.5 -34t-3.5 -29h-393v88h305l-96 -37q0 57 -15.5 86.5t-53.5 29.5q-26 0 -43.5 -12t-26 -40t-8.5 -74t10.5 -72.5t29.5 -36.5t48 -10q32 0 50 13
t26 36l162 -48q-12 -46 -48.5 -77t-86.5 -46.5t-105 -15.5zM307 734l63 -175h-144l-102 175h183z" />
    <glyph glyph-name="eacute" unicode="&#xe9;" horiz-adv-x="579" 
d="M305 -10q-86 0 -148.5 30.5t-96 88.5t-33.5 141t34 141t95 88.5t141 30.5q82 0 139.5 -30.5t88 -84.5t30.5 -126q0 -17 -1.5 -34t-3.5 -29h-393v88h305l-96 -37q0 57 -15.5 86.5t-53.5 29.5q-26 0 -43.5 -12t-26 -40t-8.5 -74t10.5 -72.5t29.5 -36.5t48 -10q32 0 50 13
t26 36l162 -48q-12 -46 -48.5 -77t-86.5 -46.5t-105 -15.5zM272 734h183l-103 -175h-143z" />
    <glyph glyph-name="ecircumflex" unicode="&#xea;" horiz-adv-x="579" 
d="M305 -10q-86 0 -148.5 30.5t-96 88.5t-33.5 141t34 141t95 88.5t141 30.5q82 0 139.5 -30.5t88 -84.5t30.5 -126q0 -17 -1.5 -34t-3.5 -29h-393v88h305l-96 -37q0 57 -15.5 86.5t-53.5 29.5q-26 0 -43.5 -12t-26 -40t-8.5 -74t10.5 -72.5t29.5 -36.5t48 -10q32 0 50 13
t26 36l162 -48q-12 -46 -48.5 -77t-86.5 -46.5t-105 -15.5zM498 552h-141l-62 80l-62 -80h-141l108 176h190z" />
    <glyph glyph-name="edieresis" unicode="&#xeb;" horiz-adv-x="579" 
d="M305 -10q-86 0 -148.5 30.5t-96 88.5t-33.5 141t34 141t95 88.5t141 30.5q82 0 139.5 -30.5t88 -84.5t30.5 -126q0 -17 -1.5 -34t-3.5 -29h-393v88h305l-96 -37q0 57 -15.5 86.5t-53.5 29.5q-26 0 -43.5 -12t-26 -40t-8.5 -74t10.5 -72.5t29.5 -36.5t48 -10q32 0 50 13
t26 36l162 -48q-12 -46 -48.5 -77t-86.5 -46.5t-105 -15.5zM179 716q46 0 71 -22t25 -63q0 -40 -25 -62.5t-71 -22.5q-44 0 -68.5 22.5t-24.5 62.5q0 41 24.5 63t68.5 22zM408 716q46 0 71 -22t25 -63q0 -40 -25 -62.5t-71 -22.5q-44 0 -68.5 22.5t-24.5 62.5q0 41 24.5 63
t68.5 22z" />
    <glyph glyph-name="igrave" unicode="&#xec;" horiz-adv-x="300" 
d="M251 500v-500h-202v500h202zM162 734l63 -175h-144l-102 175h183z" />
    <glyph glyph-name="iacute" unicode="&#xed;" horiz-adv-x="300" 
d="M251 500v-500h-202v500h202zM127 734h183l-103 -175h-143z" />
    <glyph glyph-name="icircumflex" unicode="&#xee;" horiz-adv-x="300" 
d="M251 500v-500h-202v500h202zM353 552h-141l-62 80l-62 -80h-141l108 176h190z" />
    <glyph glyph-name="idieresis" unicode="&#xef;" horiz-adv-x="300" 
d="M252 544q-44 0 -66.5 22t-22.5 65t22.5 65t66.5 22t66.5 -22t22.5 -65t-22.5 -65t-66.5 -22zM48 544q-44 0 -66.5 22t-22.5 65t22.5 65t66.5 22t66.5 -22t22.5 -65t-22.5 -65t-66.5 -22zM251 500v-500h-202v500h202z" />
    <glyph glyph-name="eth" unicode="&#xf0;" horiz-adv-x="598" 
d="M298 -10q-83 0 -142.5 30t-90.5 87t-31 138t30.5 137.5t84.5 86.5t124 30q72 0 109 -34.5t48 -90.5l-8 -4q-6 62 -25 109t-50.5 86t-77 76.5t-104.5 77.5h171q40 -20 80.5 -55t74.5 -86t55 -118.5t21 -151.5q0 -105 -35 -175.5t-95.5 -106.5t-138.5 -36zM305 129
q26 0 42 12t23.5 38t7.5 66q0 46 -7.5 74t-23 40.5t-41.5 12.5q-24 0 -39 -12.5t-22.5 -40.5t-7.5 -74q0 -62 16 -89t52 -27zM187 541l-11 61l168 30l24 -56zM416 585l-19 55l164 31l13 -58z" />
    <glyph glyph-name="ntilde" unicode="&#xf1;" horiz-adv-x="620" 
d="M49 0v500h182l9 -193l-21 22q8 58 33 98.5t64.5 61.5t91.5 21q51 0 87.5 -19.5t56.5 -58t20 -94.5v-338h-202v286q0 42 -13.5 57.5t-38.5 15.5q-19 0 -34.5 -9.5t-24 -30.5t-8.5 -55v-264h-202zM515 719q-1 -57 -19 -94.5t-46.5 -56t-61.5 -18.5q-28 0 -48.5 8.5t-36 19
t-28.5 18.5t-27 8q-15 0 -23 -12.5t-11 -39.5h-108q3 85 41.5 126.5t95.5 41.5q27 0 46 -8t32.5 -18.5t26 -18.5t26.5 -8q16 0 23.5 12.5t10.5 39.5h107z" />
    <glyph glyph-name="ograve" unicode="&#xf2;" horiz-adv-x="598" 
d="M299 510q82 0 143 -30.5t95 -88.5t34 -141q0 -82 -34 -140.5t-95 -89t-143 -30.5q-80 0 -141.5 30.5t-96 89t-34.5 140.5q0 83 34.5 141t96 88.5t141.5 30.5zM299 371q-22 0 -37.5 -11t-23.5 -38t-8 -72t8 -71.5t23.5 -38t37.5 -11.5q23 0 38 11.5t23 38t8 71.5t-8 72
t-23 38t-38 11zM311 734l63 -175h-144l-102 175h183z" />
    <glyph glyph-name="oacute" unicode="&#xf3;" horiz-adv-x="598" 
d="M299 510q82 0 143 -30.5t95 -88.5t34 -141q0 -82 -34 -140.5t-95 -89t-143 -30.5q-80 0 -141.5 30.5t-96 89t-34.5 140.5q0 83 34.5 141t96 88.5t141.5 30.5zM299 371q-22 0 -37.5 -11t-23.5 -38t-8 -72t8 -71.5t23.5 -38t37.5 -11.5q23 0 38 11.5t23 38t8 71.5t-8 72
t-23 38t-38 11zM276 734h183l-103 -175h-143z" />
    <glyph glyph-name="ocircumflex" unicode="&#xf4;" horiz-adv-x="598" 
d="M299 510q82 0 143 -30.5t95 -88.5t34 -141q0 -82 -34 -140.5t-95 -89t-143 -30.5q-80 0 -141.5 30.5t-96 89t-34.5 140.5q0 83 34.5 141t96 88.5t141.5 30.5zM299 371q-22 0 -37.5 -11t-23.5 -38t-8 -72t8 -71.5t23.5 -38t37.5 -11.5q23 0 38 11.5t23 38t8 71.5t-8 72
t-23 38t-38 11zM502 552h-141l-62 80l-62 -80h-141l108 176h190z" />
    <glyph glyph-name="otilde" unicode="&#xf5;" horiz-adv-x="598" 
d="M299 510q82 0 143 -30.5t95 -88.5t34 -141q0 -82 -34 -140.5t-95 -89t-143 -30.5q-80 0 -141.5 30.5t-96 89t-34.5 140.5q0 83 34.5 141t96 88.5t141.5 30.5zM299 371q-22 0 -37.5 -11t-23.5 -38t-8 -72t8 -71.5t23.5 -38t37.5 -11.5q23 0 38 11.5t23 38t8 71.5t-8 72
t-23 38t-38 11zM503 719q-1 -57 -19 -94.5t-46.5 -56t-61.5 -18.5q-28 0 -48.5 8.5t-36 19t-28.5 18.5t-27 8q-15 0 -23 -12.5t-11 -39.5h-108q3 85 41.5 126.5t95.5 41.5q27 0 46 -8t32.5 -18.5t26 -18.5t26.5 -8q16 0 23.5 12.5t10.5 39.5h107z" />
    <glyph glyph-name="odieresis" unicode="&#xf6;" horiz-adv-x="598" 
d="M299 510q82 0 143 -30.5t95 -88.5t34 -141q0 -82 -34 -140.5t-95 -89t-143 -30.5q-80 0 -141.5 30.5t-96 89t-34.5 140.5q0 83 34.5 141t96 88.5t141.5 30.5zM299 371q-22 0 -37.5 -11t-23.5 -38t-8 -72t8 -71.5t23.5 -38t37.5 -11.5q23 0 38 11.5t23 38t8 71.5t-8 72
t-23 38t-38 11zM183 716q46 0 71 -22t25 -63q0 -40 -25 -62.5t-71 -22.5q-44 0 -68.5 22.5t-24.5 62.5q0 41 24.5 63t68.5 22zM412 716q46 0 71 -22t25 -63q0 -40 -25 -62.5t-71 -22.5q-44 0 -68.5 22.5t-24.5 62.5q0 41 24.5 63t68.5 22z" />
    <glyph glyph-name="divide" unicode="&#xf7;" horiz-adv-x="630" 
d="M570 397v-138h-510v138h510zM315 193q42 0 65.5 -23t23.5 -65q0 -41 -23.5 -64t-65.5 -23q-43 0 -66.5 23t-23.5 64q0 42 23.5 65t66.5 23zM315 637q42 0 65.5 -23.5t23.5 -64.5t-23.5 -64t-65.5 -23q-43 0 -66.5 23t-23.5 64t23.5 64.5t66.5 23.5z" />
    <glyph glyph-name="oslash" unicode="&#xf8;" horiz-adv-x="598" 
d="M299 510q82 0 143 -30.5t95 -88.5t34 -141q0 -82 -34 -140.5t-95 -89t-143 -30.5q-80 0 -141.5 30.5t-96 89t-34.5 140.5q0 83 34.5 141t96 88.5t141.5 30.5zM299 371q-22 0 -37.5 -11t-23.5 -38t-8 -72t8 -71.5t23.5 -38t37.5 -11.5q23 0 38 11.5t23 38t8 71.5t-8 72
t-23 38t-38 11zM41 -23l449 545h67l-449 -545h-67z" />
    <glyph glyph-name="ugrave" unicode="&#xf9;" horiz-adv-x="619" 
d="M214 -10q-51 0 -88.5 17.5t-58 56t-20.5 100.5v336h202v-289q0 -38 14 -54t41 -16q14 0 26 5.5t20.5 16.5t13 29t4.5 42v266h202v-500h-181l-5 100q-23 -55 -66 -82.5t-104 -27.5zM316 732l63 -175h-144l-102 175h183z" />
    <glyph glyph-name="uacute" unicode="&#xfa;" horiz-adv-x="619" 
d="M214 -10q-51 0 -88.5 17.5t-58 56t-20.5 100.5v336h202v-289q0 -38 14 -54t41 -16q14 0 26 5.5t20.5 16.5t13 29t4.5 42v266h202v-500h-181l-5 100q-23 -55 -66 -82.5t-104 -27.5zM281 732h183l-103 -175h-143z" />
    <glyph glyph-name="ucircumflex" unicode="&#xfb;" horiz-adv-x="619" 
d="M214 -10q-51 0 -88.5 17.5t-58 56t-20.5 100.5v336h202v-289q0 -38 14 -54t41 -16q14 0 26 5.5t20.5 16.5t13 29t4.5 42v266h202v-500h-181l-5 100q-23 -55 -66 -82.5t-104 -27.5zM507 550h-141l-62 80l-62 -80h-141l108 176h190z" />
    <glyph glyph-name="udieresis" unicode="&#xfc;" horiz-adv-x="619" 
d="M214 -10q-51 0 -88.5 17.5t-58 56t-20.5 100.5v336h202v-289q0 -38 14 -54t41 -16q14 0 26 5.5t20.5 16.5t13 29t4.5 42v266h202v-500h-181l-5 100q-23 -55 -66 -82.5t-104 -27.5zM188 714q46 0 71 -22t25 -63q0 -40 -25 -62.5t-71 -22.5q-44 0 -68.5 22.5t-24.5 62.5
q0 41 24.5 63t68.5 22zM417 714q46 0 71 -22t25 -63q0 -40 -25 -62.5t-71 -22.5q-44 0 -68.5 22.5t-24.5 62.5q0 41 24.5 63t68.5 22z" />
    <glyph glyph-name="yacute" unicode="&#xfd;" horiz-adv-x="579" 
d="M585 500l-163 -470q-30 -90 -67.5 -143.5t-88.5 -77.5t-124 -24q-45 0 -82 9t-64 24l38 131q17 -10 36.5 -15t52.5 -5q31 0 48 8t25 29l7 19l-60 142l-146 373h221l60 -271l21 -111l25 114l62 268h199zM288 732h183l-103 -175h-143z" />
    <glyph glyph-name="thorn" unicode="&#xfe;" horiz-adv-x="627" 
d="M49 -210v916h202v-351l-18 -1q12 67 53.5 111.5t118.5 44.5q57 0 100 -31t66.5 -89.5t23.5 -141.5q0 -81 -24 -139t-68.5 -88.5t-105.5 -30.5q-71 0 -111.5 44.5t-52.5 111.5l18 27v-383h-202zM320 135q34 0 53 25.5t19 89.5t-19 90t-52 26q-21 0 -37 -13t-24.5 -38.5
t-8.5 -64.5q0 -37 7.5 -63t23.5 -39t38 -13z" />
    <glyph glyph-name="ydieresis" unicode="&#xff;" horiz-adv-x="579" 
d="M585 500l-163 -470q-30 -90 -67.5 -143.5t-88.5 -77.5t-124 -24q-45 0 -82 9t-64 24l38 131q17 -10 36.5 -15t52.5 -5q31 0 48 8t25 29l7 19l-60 142l-146 373h221l60 -271l21 -111l25 114l62 268h199zM195 714q46 0 71 -22t25 -63q0 -40 -25 -62.5t-71 -22.5
q-44 0 -68.5 22.5t-24.5 62.5q0 41 24.5 63t68.5 22zM424 714q46 0 71 -22t25 -63q0 -40 -25 -62.5t-71 -22.5q-44 0 -68.5 22.5t-24.5 62.5q0 41 24.5 63t68.5 22z" />
    <glyph glyph-name="Amacron" unicode="&#x100;" horiz-adv-x="684" 
d="M687 0h-210l-37 137h-201l-38 -137h-204l222 660h245zM273 269h134l-67 246zM529 838v-119h-376v119h376z" />
    <glyph glyph-name="amacron" unicode="&#x101;" horiz-adv-x="584" 
d="M324 315q0 28 -14.5 44.5t-42.5 16.5q-26 0 -44.5 -14t-23.5 -53l-171 31q10 78 73 124t180 46q80 0 134.5 -22.5t81.5 -65.5t27 -103v-168q0 -40 37 -40q15 0 23 4l-10 -109q-33 -16 -82 -16q-43 0 -76 13.5t-52 39.5t-19 68v8l20 3q0 -40 -24.5 -70t-64 -46t-87.5 -16
q-52 0 -89 16t-56.5 46t-19.5 73q0 55 33.5 90t101.5 48l181 38l-1 -85l-74 -17q-25 -5 -36.5 -16.5t-11.5 -31.5q0 -19 13 -29.5t32 -10.5q13 0 24 4t19.5 12t13.5 20t5 29v139zM465 678v-119h-376v119h376z" />
    <glyph glyph-name="Abreve" unicode="&#x102;" horiz-adv-x="684" 
d="M687 0h-210l-37 137h-201l-38 -137h-204l222 660h245zM273 269h134l-67 246zM517 875q0 -79 -47 -123.5t-129 -44.5q-81 0 -128.5 44.5t-47.5 123.5h125q0 -28 13 -44.5t38 -16.5q26 0 38.5 16.5t12.5 44.5h125z" />
    <glyph glyph-name="abreve" unicode="&#x103;" horiz-adv-x="584" 
d="M324 315q0 28 -14.5 44.5t-42.5 16.5q-26 0 -44.5 -14t-23.5 -53l-171 31q10 78 73 124t180 46q80 0 134.5 -22.5t81.5 -65.5t27 -103v-168q0 -40 37 -40q15 0 23 4l-10 -109q-33 -16 -82 -16q-43 0 -76 13.5t-52 39.5t-19 68v8l20 3q0 -40 -24.5 -70t-64 -46t-87.5 -16
q-52 0 -89 16t-56.5 46t-19.5 73q0 55 33.5 90t101.5 48l181 38l-1 -85l-74 -17q-25 -5 -36.5 -16.5t-11.5 -31.5q0 -19 13 -29.5t32 -10.5q13 0 24 4t19.5 12t13.5 20t5 29v139zM453 715q0 -79 -47 -123.5t-129 -44.5q-81 0 -128.5 44.5t-47.5 123.5h125q0 -28 13 -44.5
t38 -16.5q26 0 38.5 16.5t12.5 44.5h125z" />
    <glyph glyph-name="Aogonek" unicode="&#x104;" horiz-adv-x="684" 
d="M580 -215q-40 0 -73.5 12.5t-53 38t-19.5 65.5q0 58 47 90.5t122 40.5l84 -32q-44 -5 -69 -14t-35.5 -22t-10.5 -29q0 -20 13.5 -30.5t38.5 -10.5q11 0 22.5 2t19.5 7l25 -93q-22 -15 -49 -20t-62 -5zM687 0h-210l-37 137h-201l-38 -137h-204l222 660h245zM273 269h134
l-67 246z" />
    <glyph glyph-name="aogonek" unicode="&#x105;" horiz-adv-x="584" 
d="M480 -219q-34 0 -66 12.5t-51.5 38t-19.5 65.5q0 58 45.5 91t121.5 42l65 -23q-43 -15 -64.5 -28.5t-29 -25.5t-7.5 -25q0 -17 11.5 -27.5t32.5 -10.5q10 0 22 2t19 7l18 -98q-18 -10 -42 -15t-55 -5zM324 314q0 29 -14 45.5t-42 16.5q-27 0 -45 -14t-23 -53l-170 30
q9 78 72 124.5t179 46.5q81 0 135 -23t81 -65t27 -99v-172q0 -40 39 -40q13 0 21 4l-9 -108q-34 -16 -82 -16q-44 0 -78 13t-53 39.5t-19 67.5v10h22q-3 -39 -27.5 -68t-63 -46t-85.5 -17q-52 0 -88.5 16t-56.5 46t-20 72q0 55 35.5 89.5t102.5 47.5l178 37l-1 -78l-74 -17
q-26 -6 -38 -18.5t-12 -32.5q0 -19 13 -30.5t36 -11.5q12 0 23 3.5t19.5 11.5t13 19t4.5 26v144z" />
    <glyph glyph-name="Cacute" unicode="&#x106;" horiz-adv-x="679" 
d="M664 196q-18 -73 -60.5 -119t-103 -66.5t-133.5 -20.5q-102 0 -176.5 40.5t-114.5 116.5t-40 183t40 183t114.5 116.5t175.5 40.5q72 0 132.5 -20t102.5 -62t57 -109l-177 -71q-11 64 -38.5 85t-70.5 21q-40 0 -68.5 -20.5t-43 -61t-14.5 -102.5q0 -61 13.5 -102
t42 -61.5t74.5 -20.5q41 0 69 24t37 75zM336 881h176l-91 -166h-144z" />
    <glyph glyph-name="cacute" unicode="&#x107;" horiz-adv-x="569" 
d="M298 510q84 0 138.5 -23.5t82.5 -61t32 -78.5l-187 -57q-3 41 -16.5 61t-42.5 20q-25 0 -42 -12t-25 -39t-8 -72q0 -46 9.5 -72t27 -36.5t39.5 -10.5q20 0 32.5 8.5t20.5 25t10 39.5l181 -57q-4 -43 -34.5 -78t-83.5 -56t-125 -21q-86 0 -149 30.5t-97 88.5t-34 141
t34 141t95 88.5t142 30.5zM273 734h183l-103 -175h-143z" />
    <glyph glyph-name="Ccircumflex" unicode="&#x108;" horiz-adv-x="679" 
d="M664 196q-18 -73 -60.5 -119t-103 -66.5t-133.5 -20.5q-102 0 -176.5 40.5t-114.5 116.5t-40 183t40 183t114.5 116.5t175.5 40.5q72 0 132.5 -20t102.5 -62t57 -109l-177 -71q-11 64 -38.5 85t-70.5 21q-40 0 -68.5 -20.5t-43 -61t-14.5 -102.5q0 -61 13.5 -102
t42 -61.5t74.5 -20.5q41 0 69 24t37 75zM553 715h-134l-60 87l-60 -87h-134l97 166h194z" />
    <glyph glyph-name="ccircumflex" unicode="&#x109;" horiz-adv-x="569" 
d="M298 510q84 0 138.5 -23.5t82.5 -61t32 -78.5l-187 -57q-3 41 -16.5 61t-42.5 20q-25 0 -42 -12t-25 -39t-8 -72q0 -46 9.5 -72t27 -36.5t39.5 -10.5q20 0 32.5 8.5t20.5 25t10 39.5l181 -57q-4 -43 -34.5 -78t-83.5 -56t-125 -21q-86 0 -149 30.5t-97 88.5t-34 141
t34 141t95 88.5t142 30.5zM499 552h-141l-62 80l-62 -80h-141l108 176h190z" />
    <glyph glyph-name="Cdotaccent" unicode="&#x10a;" horiz-adv-x="679" 
d="M664 196q-18 -73 -60.5 -119t-103 -66.5t-133.5 -20.5q-102 0 -176.5 40.5t-114.5 116.5t-40 183t40 183t114.5 116.5t175.5 40.5q72 0 132.5 -20t102.5 -62t57 -109l-177 -71q-11 64 -38.5 85t-70.5 21q-40 0 -68.5 -20.5t-43 -61t-14.5 -102.5q0 -61 13.5 -102
t42 -61.5t74.5 -20.5q41 0 69 24t37 75zM359 884q52 0 78.5 -22t26.5 -66q0 -43 -26.5 -65t-78.5 -22q-51 0 -76.5 22t-25.5 65q0 44 25.5 66t76.5 22z" />
    <glyph glyph-name="cdotaccent" unicode="&#x10b;" horiz-adv-x="569" 
d="M298 510q84 0 138.5 -23.5t82.5 -61t32 -78.5l-187 -57q-3 41 -16.5 61t-42.5 20q-25 0 -42 -12t-25 -39t-8 -72q0 -46 9.5 -72t27 -36.5t39.5 -10.5q20 0 32.5 8.5t20.5 25t10 39.5l181 -57q-4 -43 -34.5 -78t-83.5 -56t-125 -21q-86 0 -149 30.5t-97 88.5t-34 141
t34 141t95 88.5t142 30.5zM296 724q52 0 78.5 -22t26.5 -66q0 -43 -26.5 -65t-78.5 -22q-51 0 -76.5 22t-25.5 65q0 44 25.5 66t76.5 22z" />
    <glyph glyph-name="Ccaron" unicode="&#x10c;" horiz-adv-x="679" 
d="M664 196q-18 -73 -60.5 -119t-103 -66.5t-133.5 -20.5q-102 0 -176.5 40.5t-114.5 116.5t-40 183t40 183t114.5 116.5t175.5 40.5q72 0 132.5 -20t102.5 -62t57 -109l-177 -71q-11 64 -38.5 85t-70.5 21q-40 0 -68.5 -20.5t-43 -61t-14.5 -102.5q0 -61 13.5 -102
t42 -61.5t74.5 -20.5q41 0 69 24t37 75zM553 881l-97 -166h-194l-97 166h134l60 -87l60 87h134z" />
    <glyph glyph-name="ccaron" unicode="&#x10d;" horiz-adv-x="569" 
d="M298 510q84 0 138.5 -23.5t82.5 -61t32 -78.5l-187 -57q-3 41 -16.5 61t-42.5 20q-25 0 -42 -12t-25 -39t-8 -72q0 -46 9.5 -72t27 -36.5t39.5 -10.5q20 0 32.5 8.5t20.5 25t10 39.5l181 -57q-4 -43 -34.5 -78t-83.5 -56t-125 -21q-86 0 -149 30.5t-97 88.5t-34 141
t34 141t95 88.5t142 30.5zM494 734l-107 -175h-191l-108 175h141l62 -79l63 79h140z" />
    <glyph glyph-name="Dcaron" unicode="&#x10e;" horiz-adv-x="717" 
d="M364 660q155 0 236 -86t81 -244q0 -157 -81 -243.5t-236 -86.5h-303v660h303zM339 149q74 0 103 44.5t29 136.5t-29 136.5t-103 44.5h-74v-362h74zM531 881l-97 -166h-194l-97 166h134l60 -87l60 87h134z" />
    <glyph glyph-name="dcaron" unicode="&#x10f;" horiz-adv-x="721" 
d="M785 706l-57 -254h-113l22 254h148zM229 -10q-61 0 -105.5 30.5t-68 88.5t-23.5 139q0 83 24 141.5t69.5 89.5t106.5 31q71 0 111 -44.5t51 -113.5l-18 -25v379h202v-706h-182l-12 187l23 -23q-6 -51 -29.5 -90.5t-61 -61.5t-87.5 -22zM307 134q22 0 37 13t23.5 39
t8.5 65q0 37 -7.5 62.5t-23 38.5t-38.5 13q-33 0 -52.5 -25.5t-19.5 -89.5t19 -90t53 -26z" />
    <glyph glyph-name="Dcroat" unicode="&#x110;" horiz-adv-x="743" 
d="M8 261v136h390v-136h-390zM390 660q155 0 235.5 -86t80.5 -244q0 -157 -80.5 -243.5t-235.5 -86.5h-303v660h303zM365 149q73 0 102.5 44.5t29.5 136.5t-29.5 136.5t-102.5 44.5h-74v-362h74z" />
    <glyph glyph-name="dcroat" unicode="&#x111;" horiz-adv-x="627" 
d="M256 528v110h399v-110h-399zM229 -10q-61 0 -105.5 30.5t-68 88.5t-23.5 139q0 83 24 141.5t69.5 89.5t106.5 31q71 0 111 -44.5t51 -113.5l-18 -25v379h202v-706h-182l-12 187l23 -23q-6 -51 -29.5 -90.5t-61 -61.5t-87.5 -22zM307 134q22 0 37 13t23.5 39t8.5 65
q0 37 -7.5 62.5t-23 38.5t-38.5 13q-33 0 -52.5 -25.5t-19.5 -89.5t19 -90t53 -26z" />
    <glyph glyph-name="Emacron" unicode="&#x112;" horiz-adv-x="628" 
d="M61 0v660h532v-153h-328v-107h262v-142h-262v-105h341v-153h-545zM515 838v-119h-376v119h376z" />
    <glyph glyph-name="emacron" unicode="&#x113;" horiz-adv-x="579" 
d="M305 -10q-86 0 -148.5 30.5t-96 88.5t-33.5 141t34 141t95 88.5t141 30.5q82 0 139.5 -30.5t88 -84.5t30.5 -126q0 -17 -1.5 -34t-3.5 -29h-393v88h305l-96 -37q0 57 -15.5 86.5t-53.5 29.5q-26 0 -43.5 -12t-26 -40t-8.5 -74t10.5 -72.5t29.5 -36.5t48 -10q32 0 50 13
t26 36l162 -48q-12 -46 -48.5 -77t-86.5 -46.5t-105 -15.5zM483 678v-119h-376v119h376z" />
    <glyph glyph-name="Ebreve" unicode="&#x114;" horiz-adv-x="628" 
d="M61 0v660h532v-153h-328v-107h262v-142h-262v-105h341v-153h-545zM503 875q0 -79 -47 -123.5t-129 -44.5q-81 0 -128.5 44.5t-47.5 123.5h125q0 -28 13 -44.5t38 -16.5q26 0 38.5 16.5t12.5 44.5h125z" />
    <glyph glyph-name="ebreve" unicode="&#x115;" horiz-adv-x="579" 
d="M305 -10q-86 0 -148.5 30.5t-96 88.5t-33.5 141t34 141t95 88.5t141 30.5q82 0 139.5 -30.5t88 -84.5t30.5 -126q0 -17 -1.5 -34t-3.5 -29h-393v88h305l-96 -37q0 57 -15.5 86.5t-53.5 29.5q-26 0 -43.5 -12t-26 -40t-8.5 -74t10.5 -72.5t29.5 -36.5t48 -10q32 0 50 13
t26 36l162 -48q-12 -46 -48.5 -77t-86.5 -46.5t-105 -15.5zM471 715q0 -79 -47 -123.5t-129 -44.5q-81 0 -128.5 44.5t-47.5 123.5h125q0 -28 13 -44.5t38 -16.5q26 0 38.5 16.5t12.5 44.5h125z" />
    <glyph glyph-name="Edotaccent" unicode="&#x116;" horiz-adv-x="628" 
d="M61 0v660h532v-153h-328v-107h262v-142h-262v-105h341v-153h-545zM327 884q52 0 78.5 -22t26.5 -66q0 -43 -26.5 -65t-78.5 -22q-51 0 -76.5 22t-25.5 65q0 44 25.5 66t76.5 22z" />
    <glyph glyph-name="edotaccent" unicode="&#x117;" horiz-adv-x="579" 
d="M305 -10q-86 0 -148.5 30.5t-96 88.5t-33.5 141t34 141t95 88.5t141 30.5q82 0 139.5 -30.5t88 -84.5t30.5 -126q0 -17 -1.5 -34t-3.5 -29h-393v88h305l-96 -37q0 57 -15.5 86.5t-53.5 29.5q-26 0 -43.5 -12t-26 -40t-8.5 -74t10.5 -72.5t29.5 -36.5t48 -10q32 0 50 13
t26 36l162 -48q-12 -46 -48.5 -77t-86.5 -46.5t-105 -15.5zM295 724q52 0 78.5 -22t26.5 -66q0 -43 -26.5 -65t-78.5 -22q-51 0 -76.5 22t-25.5 65q0 44 25.5 66t76.5 22z" />
    <glyph glyph-name="Eogonek" unicode="&#x118;" horiz-adv-x="628" 
d="M498 -218q-40 0 -73.5 12.5t-53 38t-19.5 64.5q0 59 56.5 92t146.5 42l51 -31q-66 -9 -91.5 -26.5t-25.5 -41.5q0 -19 14 -30t38 -11q12 0 23.5 2t19.5 7l25 -93q-22 -14 -49 -19.5t-62 -5.5zM61 0v660h532v-153h-328v-107h262v-142h-262v-105h341v-153h-545z" />
    <glyph glyph-name="eogonek" unicode="&#x119;" horiz-adv-x="579" 
d="M305 -10q-86 0 -148.5 30.5t-96 88.5t-33.5 141t34 141t95 88.5t141 30.5q82 0 139.5 -30.5t88 -84.5t30.5 -126q0 -17 -1.5 -34t-3.5 -29h-393v88h305l-96 -37q0 57 -15.5 86.5t-53.5 29.5q-26 0 -43.5 -12t-26 -40t-8.5 -74t10.5 -72.5t29.5 -36.5t48 -10q32 0 50 13
t26 36l162 -48q-12 -46 -48.5 -77t-86.5 -46.5t-105 -15.5zM319 -219q-66 0 -103 30.5t-37 83.5q0 60 44 93t116 41l75 -22q-36 -11 -60 -21.5t-35.5 -23t-11.5 -31.5t13.5 -30t37.5 -11q12 0 23.5 2.5t19.5 6.5l19 -97q-21 -12 -44.5 -16.5t-56.5 -4.5z" />
    <glyph glyph-name="Ecaron" unicode="&#x11a;" horiz-adv-x="628" 
d="M61 0v660h532v-153h-328v-107h262v-142h-262v-105h341v-153h-545zM521 881l-97 -166h-194l-97 166h134l60 -87l60 87h134z" />
    <glyph glyph-name="ecaron" unicode="&#x11b;" horiz-adv-x="579" 
d="M305 -10q-86 0 -148.5 30.5t-96 88.5t-33.5 141t34 141t95 88.5t141 30.5q82 0 139.5 -30.5t88 -84.5t30.5 -126q0 -17 -1.5 -34t-3.5 -29h-393v88h305l-96 -37q0 57 -15.5 86.5t-53.5 29.5q-26 0 -43.5 -12t-26 -40t-8.5 -74t10.5 -72.5t29.5 -36.5t48 -10q32 0 50 13
t26 36l162 -48q-12 -46 -48.5 -77t-86.5 -46.5t-105 -15.5zM493 734l-107 -175h-191l-108 175h141l62 -79l63 79h140z" />
    <glyph glyph-name="Gcircumflex" unicode="&#x11c;" horiz-adv-x="722" 
d="M337 -10q-87 0 -155 38t-107 114t-39 186q0 108 40.5 184.5t116.5 117t180 40.5q117 0 188.5 -42t110.5 -133l-190 -71q-10 49 -38 69.5t-70 20.5q-43 0 -71.5 -20.5t-42.5 -61.5t-14 -102q0 -66 15.5 -108t47.5 -61.5t79 -19.5q24 0 44 5.5t35.5 16.5t23.5 27.5t8 38.5
v5h-130v131h302v-365h-137l-16 167l32 -32q-18 -70 -72 -107.5t-141 -37.5zM560 715h-134l-60 87l-60 -87h-134l97 166h194z" />
    <glyph glyph-name="gcircumflex" unicode="&#x11d;" horiz-adv-x="569" 
d="M95 552l71 176h166l71 -176h-108l-46 90l-46 -90h-108zM566 649l19 -129q-4 1 -7 1h-8q-38 0 -63.5 -21t-25.5 -65l-61 39q1 50 20 89t51 62.5t73 23.5h1h1zM377 127q93 0 141.5 -37.5t48.5 -111.5q0 -66 -34.5 -109t-98.5 -63.5t-154 -20.5q-142 0 -202.5 32t-60.5 91
q0 42 37 66.5t121 25.5l-3 -17q-71 8 -103.5 38.5t-32.5 80.5q0 51 41 81t105 32l66 -30h-18q-36 -1 -50 -9t-14 -21q0 -14 11.5 -21t36.5 -7h163zM282 -89q45 0 74.5 4.5t44 13.5t14.5 21q0 10 -7 15.5t-27 5.5h-187q-14 0 -22 -7t-8 -18q0 -17 31.5 -26t86.5 -9zM292 510
q83 0 139.5 -19.5t86 -57t29.5 -94.5q0 -55 -29.5 -93t-86 -57t-139.5 -19q-125 0 -189.5 43t-64.5 126q0 57 29 94.5t86 57t139 19.5zM292 401q-26 0 -41.5 -15t-15.5 -46q0 -30 15.5 -45.5t41.5 -15.5t41.5 15.5t15.5 45.5q0 31 -15.5 46t-41.5 15z" />
    <glyph glyph-name="Gbreve" unicode="&#x11e;" horiz-adv-x="722" 
d="M337 -10q-87 0 -155 38t-107 114t-39 186q0 108 40.5 184.5t116.5 117t180 40.5q117 0 188.5 -42t110.5 -133l-190 -71q-10 49 -38 69.5t-70 20.5q-43 0 -71.5 -20.5t-42.5 -61.5t-14 -102q0 -66 15.5 -108t47.5 -61.5t79 -19.5q24 0 44 5.5t35.5 16.5t23.5 27.5t8 38.5
v5h-130v131h302v-365h-137l-16 167l32 -32q-18 -70 -72 -107.5t-141 -37.5zM542 875q0 -79 -47 -123.5t-129 -44.5q-81 0 -128.5 44.5t-47.5 123.5h125q0 -28 13 -44.5t38 -16.5q26 0 38.5 16.5t12.5 44.5h125z" />
    <glyph glyph-name="gbreve" unicode="&#x11f;" horiz-adv-x="569" 
d="M566 649l19 -129q-4 1 -7 1h-8q-38 0 -63.5 -21t-25.5 -65l-61 39q1 50 20 89t51 62.5t73 23.5h1h1zM377 127q93 0 141.5 -37.5t48.5 -111.5q0 -66 -34.5 -109t-98.5 -63.5t-154 -20.5q-142 0 -202.5 32t-60.5 91q0 42 37 66.5t121 25.5l-3 -17q-71 8 -103.5 38.5
t-32.5 80.5q0 51 41 81t105 32l66 -30h-18q-36 -1 -50 -9t-14 -21q0 -14 11.5 -21t36.5 -7h163zM282 -89q45 0 74.5 4.5t44 13.5t14.5 21q0 10 -7 15.5t-27 5.5h-187q-14 0 -22 -7t-8 -18q0 -17 31.5 -26t86.5 -9zM292 510q83 0 139.5 -19.5t86 -57t29.5 -94.5
q0 -55 -29.5 -93t-86 -57t-139.5 -19q-125 0 -189.5 43t-64.5 126q0 57 29 94.5t86 57t139 19.5zM292 401q-26 0 -41.5 -15t-15.5 -46q0 -30 15.5 -45.5t41.5 -15.5t41.5 15.5t15.5 45.5q0 31 -15.5 46t-41.5 15zM463 715q0 -79 -47 -123.5t-129 -44.5t-129.5 44.5
t-47.5 123.5h125q1 -28 13.5 -44.5t38.5 -16.5t38.5 16.5t12.5 44.5h125z" />
    <glyph glyph-name="Gdotaccent" unicode="&#x120;" horiz-adv-x="722" 
d="M337 -10q-87 0 -155 38t-107 114t-39 186q0 108 40.5 184.5t116.5 117t180 40.5q117 0 188.5 -42t110.5 -133l-190 -71q-10 49 -38 69.5t-70 20.5q-43 0 -71.5 -20.5t-42.5 -61.5t-14 -102q0 -66 15.5 -108t47.5 -61.5t79 -19.5q24 0 44 5.5t35.5 16.5t23.5 27.5t8 38.5
v5h-130v131h302v-365h-137l-16 167l32 -32q-18 -70 -72 -107.5t-141 -37.5zM366 884q52 0 78.5 -22t26.5 -66q0 -43 -26.5 -65t-78.5 -22q-51 0 -76.5 22t-25.5 65q0 44 25.5 66t76.5 22z" />
    <glyph glyph-name="gdotaccent" unicode="&#x121;" horiz-adv-x="569" 
d="M555 649l14 -129q-9 2 -16 2.5t-14 0.5q-43 0 -63 -21.5t-20 -50.5l-63 21q0 42 14 83t45.5 68t83.5 27h9t10 -1zM377 127q93 0 141.5 -37.5t48.5 -111.5q0 -66 -34.5 -109t-98.5 -63.5t-154 -20.5q-142 0 -202.5 32t-60.5 91q0 42 37 66.5t121 25.5l-3 -17
q-71 8 -103.5 38.5t-32.5 80.5q0 51 41 81t105 32l66 -30h-18q-36 -1 -50 -9t-14 -21q0 -14 11.5 -21t36.5 -7h163zM282 -89q45 0 74.5 4.5t44 13.5t14.5 21q0 10 -7 15.5t-27 5.5h-187q-14 0 -22 -7t-8 -18q0 -17 31.5 -26t86.5 -9zM292 510q83 0 139.5 -19.5t86 -57
t29.5 -94.5q0 -55 -29.5 -93t-86 -57t-139.5 -19q-125 0 -189.5 43t-64.5 126q0 57 29 94.5t86 57t139 19.5zM292 401q-26 0 -41.5 -15t-15.5 -46q0 -30 15.5 -45.5t41.5 -15.5t41.5 15.5t15.5 45.5q0 31 -15.5 46t-41.5 15zM257 724q52 0 78.5 -22t26.5 -66
q0 -43 -26.5 -65t-78.5 -22q-51 0 -76.5 22t-25.5 65q0 44 25.5 66t76.5 22z" />
    <glyph glyph-name="uni0122" unicode="&#x122;" horiz-adv-x="722" 
d="M337 -10q-87 0 -155 38t-107 114t-39 186q0 108 40.5 184.5t116.5 117t180 40.5q117 0 188.5 -42t110.5 -133l-190 -71q-10 49 -38 69.5t-70 20.5q-43 0 -71.5 -20.5t-42.5 -61.5t-14 -102q0 -66 15.5 -108t47.5 -61.5t79 -19.5q24 0 44 5.5t35.5 16.5t23.5 27.5t8 38.5
v5h-130v131h302v-365h-137l-16 167l32 -32q-18 -70 -72 -107.5t-141 -37.5zM488 -55l-73 -187h-128l28 187h173z" />
    <glyph glyph-name="uni0123" unicode="&#x123;" horiz-adv-x="569" 
d="M555 649l14 -129q-9 2 -16 2.5t-14 0.5q-43 0 -63 -21.5t-20 -50.5l-63 21q0 42 14 83t45.5 68t83.5 27h9t10 -1zM377 127q93 0 141.5 -37.5t48.5 -111.5q0 -66 -34.5 -109t-98.5 -63.5t-154 -20.5q-142 0 -202.5 32t-60.5 91q0 42 37 66.5t121 25.5l-3 -17
q-71 8 -103.5 38.5t-32.5 80.5q0 51 41 81t105 32l66 -30h-18q-36 -1 -50 -9t-14 -21q0 -14 11.5 -21t36.5 -7h163zM282 -89q45 0 74.5 4.5t44 13.5t14.5 21q0 10 -7 15.5t-27 5.5h-187q-14 0 -22 -7t-8 -18q0 -17 31.5 -26t86.5 -9zM292 510q83 0 139.5 -19.5t86 -57
t29.5 -94.5q0 -55 -29.5 -93t-86 -57t-139.5 -19q-125 0 -189.5 43t-64.5 126q0 57 29 94.5t86 57t139 19.5zM292 401q-26 0 -41.5 -15t-15.5 -46q0 -30 15.5 -45.5t41.5 -15.5t41.5 15.5t15.5 45.5q0 31 -15.5 46t-41.5 15zM393 770l-34 -216h-161l71 216h124z" />
    <glyph glyph-name="Hcircumflex" unicode="&#x124;" horiz-adv-x="745" 
d="M684 660v-660h-205v660h205zM265 660v-660h-204v660h204zM591 409v-153h-431v153h431zM567 715h-134l-60 87l-60 -87h-134l97 166h194z" />
    <glyph glyph-name="hcircumflex" unicode="&#x125;" horiz-adv-x="620" 
d="M49 0v706h202v-303q21 52 61.5 79.5t95.5 27.5q51 0 87.5 -19.5t56.5 -58t20 -94.5v-338h-202v284q0 43 -13.5 59t-37.5 16q-20 0 -35.5 -10t-24 -31.5t-8.5 -54.5v-263h-202zM344 757h-134l-60 87l-60 -87h-134l97 166h194z" />
    <glyph glyph-name="Hbar" unicode="&#x126;" horiz-adv-x="745" 
d="M684 660v-660h-205v660h205zM265 660v-660h-204v660h204zM591 409v-153h-431v153h431zM753 584v-105h-761v105h761z" />
    <glyph glyph-name="hbar" unicode="&#x127;" horiz-adv-x="620" 
d="M-27 638h398v-110h-398v110zM49 0v706h202v-303q21 52 61.5 79.5t95.5 27.5q51 0 87.5 -19.5t56.5 -58t20 -94.5v-338h-202v284q0 43 -13.5 59t-37.5 16q-20 0 -35.5 -10t-24 -31.5t-8.5 -54.5v-263h-202z" />
    <glyph glyph-name="Itilde" unicode="&#x128;" horiz-adv-x="326" 
d="M265 660v-660h-204v660h204zM367 879q-1 -57 -19 -94.5t-46.5 -56t-61.5 -18.5q-28 0 -48.5 8.5t-36 19t-28.5 18.5t-27 8q-15 0 -23 -12.5t-11 -39.5h-108q3 85 41.5 126.5t95.5 41.5q27 0 46 -8t32.5 -18.5t26 -18.5t26.5 -8q16 0 23.5 12.5t10.5 39.5h107z" />
    <glyph glyph-name="itilde" unicode="&#x129;" horiz-adv-x="300" 
d="M251 500v-500h-202v500h202zM354 719q-1 -57 -19 -94.5t-46.5 -56t-61.5 -18.5q-28 0 -48.5 8.5t-36 19t-28.5 18.5t-27 8q-15 0 -23 -12.5t-11 -39.5h-108q3 85 41.5 126.5t95.5 41.5q27 0 46 -8t32.5 -18.5t26 -18.5t26.5 -8q16 0 23.5 12.5t10.5 39.5h107z" />
    <glyph glyph-name="Imacron" unicode="&#x12a;" horiz-adv-x="326" 
d="M316 838v-119h-308v119h308zM265 660v-660h-204v660h204z" />
    <glyph glyph-name="imacron" unicode="&#x12b;" horiz-adv-x="300" 
d="M296 678v-119h-292v119h292zM251 500v-500h-202v500h202z" />
    <glyph glyph-name="Ibreve" unicode="&#x12c;" horiz-adv-x="326" 
d="M265 660v-660h-204v660h204zM339 875q0 -79 -47 -123.5t-129 -44.5q-81 0 -128.5 44.5t-47.5 123.5h125q0 -28 13 -44.5t38 -16.5q26 0 38.5 16.5t12.5 44.5h125z" />
    <glyph glyph-name="ibreve" unicode="&#x12d;" horiz-adv-x="300" 
d="M251 500v-500h-202v500h202zM326 715q0 -79 -47 -123.5t-129 -44.5q-81 0 -128.5 44.5t-47.5 123.5h125q0 -28 13 -44.5t38 -16.5q26 0 38.5 16.5t12.5 44.5h125z" />
    <glyph glyph-name="Iogonek" unicode="&#x12e;" horiz-adv-x="326" 
d="M169 -226q-39 0 -75 12t-58 39t-22 73q0 49 24 79.5t64 46.5t89 23l74 -47q-50 -17 -76.5 -33.5t-26.5 -42.5q0 -19 13 -30t37 -11q11 0 22.5 2t19.5 6l25 -93q-22 -13 -48.5 -18.5t-61.5 -5.5zM265 660v-660h-204v660h204z" />
    <glyph glyph-name="iogonek" unicode="&#x12f;" horiz-adv-x="300" 
d="M154 -226q-39 0 -74.5 12t-57.5 39t-22 73q0 49 24 79.5t64 46.5t88 23l75 -47q-50 -17 -77 -33.5t-27 -42.5q0 -19 13.5 -30t37.5 -11q11 0 22.5 2t19.5 6l24 -93q-21 -13 -47.5 -18.5t-62.5 -5.5zM150 544q-60 0 -86.5 21t-26.5 68q0 48 26.5 69t86.5 21t86.5 -21
t26.5 -69q0 -47 -26.5 -68t-86.5 -21zM251 500v-500h-202v500h202z" />
    <glyph glyph-name="Idotaccent" unicode="&#x130;" horiz-adv-x="326" 
d="M265 660v-660h-204v660h204zM163 884q52 0 78.5 -22t26.5 -66q0 -43 -26.5 -65t-78.5 -22q-51 0 -76.5 22t-25.5 65q0 44 25.5 66t76.5 22z" />
    <glyph glyph-name="dotlessi" unicode="&#x131;" horiz-adv-x="300" 
d="M251 500v-500h-202v500h202z" />
    <glyph glyph-name="IJ" unicode="&#x132;" horiz-adv-x="963" 
d="M265 660v-660h-204v660h204zM915 660v-397q0 -129 -76 -201t-218 -72q-104 0 -167.5 37t-86.5 102t-10 148l201 34q-12 -92 6.5 -128.5t65.5 -36.5q43 0 62 32.5t19 102.5v379h204z" />
    <glyph glyph-name="ij" unicode="&#x133;" horiz-adv-x="600" 
d="M150 544q-60 0 -86.5 21t-26.5 68q0 48 26.5 69t86.5 21t86.5 -21t26.5 -69q0 -47 -26.5 -68t-86.5 -21zM251 500v-500h-202v500h202zM450 544q-60 0 -86.5 21t-26.5 68q0 48 26.5 69t86.5 21t86.5 -21t26.5 -69q0 -47 -26.5 -68t-86.5 -21zM551 500v-520q0 -69 -23 -112
t-69 -63t-116 -20q-44 0 -79 8t-63 23l26 123q10 -7 24.5 -11t32.5 -4q30 0 47.5 16.5t17.5 57.5v502h202z" />
    <glyph glyph-name="Jcircumflex" unicode="&#x134;" horiz-adv-x="637" 
d="M589 660v-397q0 -129 -76 -201t-218 -72q-104 0 -167.5 37t-86.5 102t-10 148l201 34q-12 -92 6.5 -128.5t65.5 -36.5q43 0 62 32.5t19 102.5v379h204zM682 715h-134l-60 87l-60 -87h-134l97 166h194z" />
    <glyph glyph-name="jcircumflex" unicode="&#x135;" horiz-adv-x="300" 
d="M251 500v-520q0 -69 -23 -112t-69 -63t-116 -20q-44 0 -79 8t-63 23l26 123q10 -7 24.5 -11t32.5 -4q30 0 47.5 16.5t17.5 57.5v502h202zM353 552h-141l-62 80l-62 -80h-141l108 176h190z" />
    <glyph glyph-name="uni0136" unicode="&#x136;" horiz-adv-x="706" 
d="M688 660l-317 -397l-10 39l-151 -195l-44 151l301 402h221zM265 660v-660h-204v660h204zM444 451l260 -451h-231l-180 338zM463 -55l-73 -187h-128l28 187h173z" />
    <glyph glyph-name="uni0137" unicode="&#x137;" horiz-adv-x="641" 
d="M638 500l-249 -270l-36 -6l-135 -158l-3 200l203 234h220zM251 706v-706h-202v706h202zM422 358l227 -358h-222l-131 239zM437 -55l-73 -187h-128l28 187h173z" />
    <glyph glyph-name="kgreenlandic" unicode="&#x138;" horiz-adv-x="641" 
d="M638 500l-249 -270l-36 -6l-135 -158l-3 200l203 234h220zM251 500v-500h-202v500h202zM422 358l227 -358h-222l-131 239z" />
    <glyph glyph-name="Lacute" unicode="&#x139;" 
d="M265 153h314v-153h-518v660h204v-507zM140 881h176l-91 -166h-144z" />
    <glyph glyph-name="lacute" unicode="&#x13a;" horiz-adv-x="334" 
d="M250 706v-520q0 -32 10 -46t35 -14q12 0 21.5 1.5t20.5 5.5l-11 -114q-18 -13 -50.5 -21t-64.5 -8q-87 0 -125 38.5t-38 128.5v549h202zM55 756l56 160h175l-87 -160h-144z" />
    <glyph glyph-name="uni013B" unicode="&#x13b;" 
d="M265 153h314v-153h-518v660h204v-507zM430 -55l-73 -187h-128l28 187h173z" />
    <glyph glyph-name="uni013C" unicode="&#x13c;" horiz-adv-x="334" 
d="M250 706v-520q0 -32 10 -46t35 -14q12 0 21.5 1.5t20.5 5.5l-11 -114q-18 -13 -50.5 -21t-64.5 -8q-87 0 -125 38.5t-38 128.5v549h202zM297 -55l-73 -187h-128l28 187h173z" />
    <glyph glyph-name="Lcaron" unicode="&#x13d;" 
d="M579 660l-67 -254h-133l25 254h175zM265 153h314v-153h-518v660h204v-507z" />
    <glyph glyph-name="lcaron" unicode="&#x13e;" horiz-adv-x="417" 
d="M452 706l-57 -254h-113l22 254h148zM250 706v-520q0 -32 10 -46t35 -14q12 0 21.5 1.5t20.5 5.5l-11 -114q-18 -13 -50.5 -21t-64.5 -8q-87 0 -125 38.5t-38 128.5v549h202z" />
    <glyph glyph-name="Ldot" unicode="&#x13f;" horiz-adv-x="653" 
d="M265 153h314v-153h-518v660h204v-507zM493 483q54 0 83 -26t29 -73t-29 -73t-83 -26q-52 0 -82 26t-30 73t30 73t82 26z" />
    <glyph glyph-name="ldot" unicode="&#x140;" horiz-adv-x="529" 
d="M250 706v-520q0 -32 10 -46t35 -14q12 0 21.5 1.5t20.5 5.5l-11 -114q-18 -13 -50.5 -21t-64.5 -8q-87 0 -125 38.5t-38 128.5v549h202zM415 454q54 0 83 -26t29 -73t-29 -73t-83 -26q-52 0 -82 26t-30 73t30 73t82 26z" />
    <glyph glyph-name="Lslash" unicode="&#x141;" horiz-adv-x="682" 
d="M512 517v-140l-485 -222v140zM344 153h314v-153h-518v660h204v-507z" />
    <glyph glyph-name="lslash" unicode="&#x142;" horiz-adv-x="420" 
d="M399 512v-132l-131 -79l-78 -32l-175 -101v132l144 81l76 26zM300 706v-520q0 -32 10 -46t35 -14q12 0 21.5 1.5t20.5 5.5l-11 -114q-18 -13 -50.5 -21t-63.5 -8q-88 0 -126 38.5t-38 128.5v549h202z" />
    <glyph glyph-name="Nacute" unicode="&#x143;" horiz-adv-x="744" 
d="M683 660v-660h-224l-180 327l-42 89h-2l4 -130v-286h-178v660h223l180 -327l43 -89h1l-4 130v286h179zM350 881h176l-91 -166h-144z" />
    <glyph glyph-name="nacute" unicode="&#x144;" horiz-adv-x="620" 
d="M49 0v500h182l9 -193l-21 22q8 58 33 98.5t64.5 61.5t91.5 21q51 0 87.5 -19.5t56.5 -58t20 -94.5v-338h-202v286q0 42 -13.5 57.5t-38.5 15.5q-19 0 -34.5 -9.5t-24 -30.5t-8.5 -55v-264h-202zM288 734h183l-103 -175h-143z" />
    <glyph glyph-name="uni0145" unicode="&#x145;" horiz-adv-x="744" 
d="M683 660v-660h-224l-180 327l-42 89h-2l4 -130v-286h-178v660h223l180 -327l43 -89h1l-4 130v286h179zM482 -55l-73 -187h-128l28 187h173z" />
    <glyph glyph-name="uni0146" unicode="&#x146;" horiz-adv-x="620" 
d="M49 0v500h182l9 -193l-21 22q8 58 33 98.5t64.5 61.5t91.5 21q51 0 87.5 -19.5t56.5 -58t20 -94.5v-338h-202v286q0 42 -13.5 57.5t-38.5 15.5q-19 0 -34.5 -9.5t-24 -30.5t-8.5 -55v-264h-202zM414 -55l-73 -187h-128l28 187h173z" />
    <glyph glyph-name="Ncaron" unicode="&#x147;" horiz-adv-x="744" 
d="M683 660v-660h-224l-180 327l-42 89h-2l4 -130v-286h-178v660h223l180 -327l43 -89h1l-4 130v286h179zM567 881l-97 -166h-194l-97 166h134l60 -87l60 87h134z" />
    <glyph glyph-name="ncaron" unicode="&#x148;" horiz-adv-x="620" 
d="M49 0v500h182l9 -193l-21 22q8 58 33 98.5t64.5 61.5t91.5 21q51 0 87.5 -19.5t56.5 -58t20 -94.5v-338h-202v286q0 42 -13.5 57.5t-38.5 15.5q-19 0 -34.5 -9.5t-24 -30.5t-8.5 -55v-264h-202zM509 734l-107 -175h-191l-108 175h141l62 -79l63 79h140z" />
    <glyph glyph-name="Eng" unicode="&#x14a;" horiz-adv-x="744" 
d="M494 -215q-42 0 -73.5 6t-58.5 19l22 134q12 -8 27.5 -13t37.5 -5q26 0 40.5 16.5t14.5 55.5v8l-221 330l-46 81h-2l4 -131v-286h-178v660h223l172 -271l48 -89h1l-1 360h179v-680q0 -69 -22 -112t-64 -63t-103 -20z" />
    <glyph glyph-name="eng" unicode="&#x14b;" horiz-adv-x="620" 
d="M572 182v-186q0 -77 -23 -123.5t-67.5 -67t-110.5 -20.5q-51 0 -86 8t-63 23l26 123q11 -7 25 -11t33 -4q29 0 46.5 16.5t17.5 57.5v184h202zM49 0v500h182l9 -193l-21 22q8 58 33 98.5t64.5 61.5t91.5 21q51 0 87.5 -19.5t56.5 -58t20 -94.5v-338h-202v286
q0 42 -13.5 57.5t-38.5 15.5q-19 0 -34.5 -9.5t-24 -30.5t-8.5 -55v-264h-202z" />
    <glyph glyph-name="Omacron" unicode="&#x14c;" horiz-adv-x="733" 
d="M367 670q103 0 176.5 -40.5t113 -116.5t39.5 -183t-39.5 -183t-113 -116.5t-176.5 -40.5q-102 0 -176.5 40.5t-114.5 116.5t-40 183t40 183t114.5 116.5t176.5 40.5zM367 514q-41 0 -67.5 -20.5t-40 -60.5t-13.5 -103q0 -62 13.5 -102.5t40 -61t67.5 -20.5q40 0 67 20.5
t40 61t13 102.5q0 63 -13 103t-40 60.5t-67 20.5zM555 838v-119h-376v119h376z" />
    <glyph glyph-name="omacron" unicode="&#x14d;" horiz-adv-x="598" 
d="M299 510q82 0 143 -30.5t95 -88.5t34 -141q0 -82 -34 -140.5t-95 -89t-143 -30.5q-80 0 -141.5 30.5t-96 89t-34.5 140.5q0 83 34.5 141t96 88.5t141.5 30.5zM299 371q-22 0 -37.5 -11t-23.5 -38t-8 -72t8 -71.5t23.5 -38t37.5 -11.5q23 0 38 11.5t23 38t8 71.5t-8 72
t-23 38t-38 11zM487 678v-119h-376v119h376z" />
    <glyph glyph-name="Obreve" unicode="&#x14e;" horiz-adv-x="733" 
d="M367 670q103 0 176.5 -40.5t113 -116.5t39.5 -183t-39.5 -183t-113 -116.5t-176.5 -40.5q-102 0 -176.5 40.5t-114.5 116.5t-40 183t40 183t114.5 116.5t176.5 40.5zM367 514q-41 0 -67.5 -20.5t-40 -60.5t-13.5 -103q0 -62 13.5 -102.5t40 -61t67.5 -20.5q40 0 67 20.5
t40 61t13 102.5q0 63 -13 103t-40 60.5t-67 20.5zM543 875q0 -79 -47 -123.5t-129 -44.5q-81 0 -128.5 44.5t-47.5 123.5h125q0 -28 13 -44.5t38 -16.5q26 0 38.5 16.5t12.5 44.5h125z" />
    <glyph glyph-name="obreve" unicode="&#x14f;" horiz-adv-x="598" 
d="M299 510q82 0 143 -30.5t95 -88.5t34 -141q0 -82 -34 -140.5t-95 -89t-143 -30.5q-80 0 -141.5 30.5t-96 89t-34.5 140.5q0 83 34.5 141t96 88.5t141.5 30.5zM299 371q-22 0 -37.5 -11t-23.5 -38t-8 -72t8 -71.5t23.5 -38t37.5 -11.5q23 0 38 11.5t23 38t8 71.5t-8 72
t-23 38t-38 11zM475 715q0 -79 -47 -123.5t-129 -44.5q-81 0 -128.5 44.5t-47.5 123.5h125q0 -28 13 -44.5t38 -16.5q26 0 38.5 16.5t12.5 44.5h125z" />
    <glyph glyph-name="Ohungarumlaut" unicode="&#x150;" horiz-adv-x="733" 
d="M367 670q103 0 176.5 -40.5t113 -116.5t39.5 -183t-39.5 -183t-113 -116.5t-176.5 -40.5q-102 0 -176.5 40.5t-114.5 116.5t-40 183t40 183t114.5 116.5t176.5 40.5zM367 514q-41 0 -67.5 -20.5t-40 -60.5t-13.5 -103q0 -62 13.5 -102.5t40 -61t67.5 -20.5q40 0 67 20.5
t40 61t13 102.5q0 63 -13 103t-40 60.5t-67 20.5zM466 881h176l-91 -166h-144zM226 881h176l-91 -166h-144z" />
    <glyph glyph-name="ohungarumlaut" unicode="&#x151;" horiz-adv-x="598" 
d="M299 510q82 0 143 -30.5t95 -88.5t34 -141q0 -82 -34 -140.5t-95 -89t-143 -30.5q-80 0 -141.5 30.5t-96 89t-34.5 140.5q0 83 34.5 141t96 88.5t141.5 30.5zM299 371q-22 0 -37.5 -11t-23.5 -38t-8 -72t8 -71.5t23.5 -38t37.5 -11.5q23 0 38 11.5t23 38t8 71.5t-8 72
t-23 38t-38 11zM332 559l67 175h164l-94 -175h-137zM108 559l67 175h163l-94 -175h-136z" />
    <glyph glyph-name="OE" unicode="&#x152;" horiz-adv-x="1037" 
d="M680 153h334v-153h-464v72q-36 -38 -86.5 -60t-115.5 -22q-95 0 -165 40.5t-108.5 116.5t-38.5 183t38.5 183t108.5 116.5t165 40.5q66 0 116 -22t86 -60v72h452v-153h-322v-107h256v-142h-256v-105zM359 146q39 0 65.5 20.5t39.5 61t13 102.5q0 63 -13 103t-39.5 60.5
t-65.5 20.5t-65.5 -20.5t-39.5 -60.5t-13 -103q0 -62 13 -102.5t39.5 -61t65.5 -20.5z" />
    <glyph glyph-name="oe" unicode="&#x153;" horiz-adv-x="929" 
d="M288 -10q-72 0 -131.5 30.5t-94.5 89t-35 140.5q0 83 35 141t94.5 88.5t131.5 30.5q78 0 133 -32t83 -94l-61 -1q27 62 80.5 94.5t131.5 32.5q76 0 132 -30.5t86.5 -85t30.5 -125.5q0 -16 -1.5 -32.5t-3.5 -26.5h-392v82h207q-3 40 -19 60.5t-48 20.5q-26 0 -43.5 -12
t-26.5 -40t-9 -74t10.5 -72.5t30 -36.5t48.5 -10q31 0 49.5 13t26.5 36l162 -48q-13 -46 -48.5 -77t-85 -46.5t-104.5 -15.5q-78 0 -132.5 32t-80.5 92l60 -1q-27 -60 -82.5 -91.5t-133.5 -31.5zM299 129q23 0 38 11.5t23 38t8 71.5t-8 72t-23 38t-38 11q-22 0 -37.5 -11
t-23.5 -38t-8 -72t8 -71.5t23.5 -38t37.5 -11.5z" />
    <glyph glyph-name="Racute" unicode="&#x154;" horiz-adv-x="698" 
d="M399 660q123 0 190.5 -56.5t67.5 -150.5q0 -105 -66 -159t-190 -54l-20 -11h-120v-229h-200v660h338zM366 368q43 0 64.5 16.5t21.5 54.5t-21.5 55t-64.5 17h-105v-143h105zM487 325l208 -325h-223l-161 289zM309 881h176l-91 -166h-144z" />
    <glyph glyph-name="racute" unicode="&#x155;" horiz-adv-x="437" 
d="M49 0v500h181l6 -117q17 59 53.5 93t95.5 34q21 0 34 -3.5t19 -8.5l-18 -164q-10 4 -26 7t-37 3q-30 0 -54 -11t-38 -32.5t-14 -54.5v-246h-202zM222 734h183l-103 -175h-143z" />
    <glyph glyph-name="uni0156" unicode="&#x156;" horiz-adv-x="698" 
d="M399 660q123 0 190.5 -56.5t67.5 -150.5q0 -105 -66 -159t-190 -54l-20 -11h-120v-229h-200v660h338zM366 368q43 0 64.5 16.5t21.5 54.5t-21.5 55t-64.5 17h-105v-143h105zM487 325l208 -325h-223l-161 289zM467 -55l-73 -187h-128l28 187h173z" />
    <glyph glyph-name="uni0157" unicode="&#x157;" horiz-adv-x="437" 
d="M49 0v500h181l6 -117q17 59 53.5 93t95.5 34q21 0 34 -3.5t19 -8.5l-18 -164q-10 4 -26 7t-37 3q-30 0 -54 -11t-38 -32.5t-14 -54.5v-246h-202zM254 -55l-73 -187h-128l28 187h173z" />
    <glyph glyph-name="Rcaron" unicode="&#x158;" horiz-adv-x="698" 
d="M399 660q123 0 190.5 -56.5t67.5 -150.5q0 -105 -66 -159t-190 -54l-20 -11h-120v-229h-200v660h338zM366 368q43 0 64.5 16.5t21.5 54.5t-21.5 55t-64.5 17h-105v-143h105zM487 325l208 -325h-223l-161 289zM526 881l-97 -166h-194l-97 166h134l60 -87l60 87h134z" />
    <glyph glyph-name="rcaron" unicode="&#x159;" horiz-adv-x="437" 
d="M49 0v500h181l6 -117q17 59 53.5 93t95.5 34q21 0 34 -3.5t19 -8.5l-18 -164q-10 4 -26 7t-37 3q-30 0 -54 -11t-38 -32.5t-14 -54.5v-246h-202zM443 734l-107 -175h-191l-108 175h141l62 -79l63 79h140z" />
    <glyph glyph-name="Sacute" unicode="&#x15a;" horiz-adv-x="647" 
d="M335 670q94 0 167 -25.5t128 -77.5l-89 -131q-45 38 -95.5 59.5t-111.5 21.5q-31 0 -50 -6t-27.5 -16.5t-8.5 -23.5q0 -16 19.5 -26t54.5 -18l100 -23q100 -23 149 -67.5t49 -121.5q0 -75 -37.5 -125t-102.5 -75t-147 -25q-65 0 -126.5 13t-112.5 37.5t-88 58.5l88 135
q27 -26 66 -46.5t83 -32.5t85 -12q29 0 47.5 5.5t26.5 15.5t8 24q0 17 -13 27.5t-49 18.5l-110 25q-54 12 -100 33t-73.5 58.5t-27.5 98.5q0 65 35 115t102 78t161 28zM307 881h176l-91 -166h-144z" />
    <glyph glyph-name="sacute" unicode="&#x15b;" horiz-adv-x="536" 
d="M270 -10q-74 0 -140 22t-113 65l81 107q27 -27 69.5 -47t89.5 -20q24 0 40.5 6t16.5 21q0 10 -8.5 16.5t-35.5 11.5l-52 10q-102 20 -144.5 58.5t-42.5 101.5q0 41 25.5 79.5t81 63.5t143.5 25q77 0 137.5 -20.5t96.5 -58.5l-79 -104q-27 26 -68 41t-78 15q-19 0 -32 -3
t-19.5 -8.5t-6.5 -14.5q0 -10 11.5 -17.5t42.5 -13.5l80 -14q79 -14 115 -52t36 -93q0 -49 -26 -89t-80.5 -64t-140.5 -24zM254 734h183l-103 -175h-143z" />
    <glyph glyph-name="Scircumflex" unicode="&#x15c;" horiz-adv-x="647" 
d="M335 670q94 0 167 -25.5t128 -77.5l-89 -131q-45 38 -95.5 59.5t-111.5 21.5q-31 0 -50 -6t-27.5 -16.5t-8.5 -23.5q0 -16 19.5 -26t54.5 -18l100 -23q100 -23 149 -67.5t49 -121.5q0 -75 -37.5 -125t-102.5 -75t-147 -25q-65 0 -126.5 13t-112.5 37.5t-88 58.5l88 135
q27 -26 66 -46.5t83 -32.5t85 -12q29 0 47.5 5.5t26.5 15.5t8 24q0 17 -13 27.5t-49 18.5l-110 25q-54 12 -100 33t-73.5 58.5t-27.5 98.5q0 65 35 115t102 78t161 28zM524 715h-134l-60 87l-60 -87h-134l97 166h194z" />
    <glyph glyph-name="scircumflex" unicode="&#x15d;" horiz-adv-x="536" 
d="M270 -10q-74 0 -140 22t-113 65l81 107q27 -27 69.5 -47t89.5 -20q24 0 40.5 6t16.5 21q0 10 -8.5 16.5t-35.5 11.5l-52 10q-102 20 -144.5 58.5t-42.5 101.5q0 41 25.5 79.5t81 63.5t143.5 25q77 0 137.5 -20.5t96.5 -58.5l-79 -104q-27 26 -68 41t-78 15q-19 0 -32 -3
t-19.5 -8.5t-6.5 -14.5q0 -10 11.5 -17.5t42.5 -13.5l80 -14q79 -14 115 -52t36 -93q0 -49 -26 -89t-80.5 -64t-140.5 -24zM480 552h-141l-62 80l-62 -80h-141l108 176h190z" />
    <glyph glyph-name="Scedilla" unicode="&#x15e;" horiz-adv-x="647" 
d="M335 670q94 0 167 -25.5t128 -77.5l-89 -131q-45 38 -95.5 59.5t-111.5 21.5q-31 0 -50 -6t-27.5 -16.5t-8.5 -23.5q0 -16 19.5 -26t54.5 -18l100 -23q100 -23 149 -67.5t49 -121.5q0 -75 -37.5 -125t-102.5 -75t-147 -25q-65 0 -126.5 13t-112.5 37.5t-88 58.5l88 135
q27 -26 66 -46.5t83 -32.5t85 -12q29 0 47.5 5.5t26.5 15.5t8 24q0 17 -13 27.5t-49 18.5l-110 25q-54 12 -100 33t-73.5 58.5t-27.5 98.5q0 65 35 115t102 78t161 28zM246 12l40 28q86 -9 127.5 -40t41.5 -87q0 -59 -39 -93.5t-109 -34.5q-41 0 -64 9t-41 20l30 90
q12 -8 25.5 -12.5t32.5 -4.5q25 0 40.5 14t15.5 38q0 22 -21.5 39.5t-78.5 33.5z" />
    <glyph glyph-name="scedilla" unicode="&#x15f;" horiz-adv-x="536" 
d="M270 -10q-74 0 -140 22t-113 65l81 107q27 -27 69.5 -47t89.5 -20q24 0 40.5 6t16.5 21q0 10 -8.5 16.5t-35.5 11.5l-52 10q-102 20 -144.5 58.5t-42.5 101.5q0 41 25.5 79.5t81 63.5t143.5 25q77 0 137.5 -20.5t96.5 -58.5l-79 -104q-27 26 -68 41t-78 15q-19 0 -32 -3
t-19.5 -8.5t-6.5 -14.5q0 -10 11.5 -17.5t42.5 -13.5l80 -14q79 -14 115 -52t36 -93q0 -49 -26 -89t-80.5 -64t-140.5 -24zM190 12l40 28q86 -9 127.5 -40t41.5 -87q0 -59 -39 -93.5t-109 -34.5q-41 0 -64 9t-41 20l30 90q12 -8 25.5 -12.5t32.5 -4.5q25 0 40.5 14t15.5 38
q0 22 -21.5 39.5t-78.5 33.5z" />
    <glyph glyph-name="Scaron" unicode="&#x160;" horiz-adv-x="647" 
d="M335 670q94 0 167 -25.5t128 -77.5l-89 -131q-45 38 -95.5 59.5t-111.5 21.5q-31 0 -50 -6t-27.5 -16.5t-8.5 -23.5q0 -16 19.5 -26t54.5 -18l100 -23q100 -23 149 -67.5t49 -121.5q0 -75 -37.5 -125t-102.5 -75t-147 -25q-65 0 -126.5 13t-112.5 37.5t-88 58.5l88 135
q27 -26 66 -46.5t83 -32.5t85 -12q29 0 47.5 5.5t26.5 15.5t8 24q0 17 -13 27.5t-49 18.5l-110 25q-54 12 -100 33t-73.5 58.5t-27.5 98.5q0 65 35 115t102 78t161 28zM524 881l-97 -166h-194l-97 166h134l60 -87l60 87h134z" />
    <glyph glyph-name="scaron" unicode="&#x161;" horiz-adv-x="536" 
d="M270 -10q-74 0 -140 22t-113 65l81 107q27 -27 69.5 -47t89.5 -20q24 0 40.5 6t16.5 21q0 10 -8.5 16.5t-35.5 11.5l-52 10q-102 20 -144.5 58.5t-42.5 101.5q0 41 25.5 79.5t81 63.5t143.5 25q77 0 137.5 -20.5t96.5 -58.5l-79 -104q-27 26 -68 41t-78 15q-19 0 -32 -3
t-19.5 -8.5t-6.5 -14.5q0 -10 11.5 -17.5t42.5 -13.5l80 -14q79 -14 115 -52t36 -93q0 -49 -26 -89t-80.5 -64t-140.5 -24zM475 734l-107 -175h-191l-108 175h141l62 -79l63 79h140z" />
    <glyph glyph-name="uni0162" unicode="&#x162;" horiz-adv-x="671" 
d="M256 11l38 29q86 -9 127 -40t41 -87q0 -59 -39 -93.5t-109 -34.5q-40 0 -63.5 9t-40.5 20l30 90q12 -8 25.5 -12.5t32.5 -4.5q25 0 40 14t15 38q0 22 -21 39.5t-76 32.5zM648 660v-153h-210v-507h-204v507h-212v153h626z" />
    <glyph glyph-name="uni0163" unicode="&#x163;" horiz-adv-x="443" 
d="M292 665v-473q0 -35 15.5 -50t46.5 -15q22 0 38 4t30 13l13 -118q-24 -17 -65 -26.5t-80 -9.5q-64 0 -108.5 17t-68 54t-23.5 99v449zM428 500v-139h-420v139h420zM172 12l40 28q86 -9 127.5 -40t41.5 -87q0 -59 -39 -93.5t-109 -34.5q-41 0 -64 9t-41 20l30 90
q12 -8 25.5 -12.5t32.5 -4.5q25 0 40.5 14t15.5 38q0 22 -21.5 39.5t-78.5 33.5z" />
    <glyph glyph-name="Tcaron" unicode="&#x164;" horiz-adv-x="671" 
d="M648 660v-153h-210v-507h-204v507h-212v153h626zM529 881l-97 -166h-194l-97 166h134l60 -87l60 87h134z" />
    <glyph glyph-name="tcaron" unicode="&#x165;" horiz-adv-x="443" 
d="M503 767l-57 -221h-113l22 221h148zM292 665v-473q0 -35 15.5 -50t46.5 -15q22 0 38 4t30 13l13 -118q-24 -17 -65 -26.5t-80 -9.5q-64 0 -108.5 17t-68 54t-23.5 99v449zM428 500v-139h-420v139h420z" />
    <glyph glyph-name="Tbar" unicode="&#x166;" horiz-adv-x="671" 
d="M648 660v-153h-210v-507h-204v507h-212v153h626zM584 371v-153h-496v153h496z" />
    <glyph glyph-name="tbar" unicode="&#x167;" horiz-adv-x="445" 
d="M429 316v-110h-421v110h421zM293 665v-473q0 -35 16 -50t47 -15q22 0 38 4t30 13l13 -118q-25 -17 -65.5 -26.5t-79.5 -9.5q-64 0 -109 17t-68.5 54t-23.5 99v449zM430 500v-139h-420v139h420z" />
    <glyph glyph-name="Utilde" unicode="&#x168;" horiz-adv-x="711" 
d="M663 660v-383q0 -144 -77 -215.5t-230 -71.5q-154 0 -231 71.5t-77 215.5v383h205v-394q0 -60 26 -90t77 -30t77 30t26 90v394h204zM560 874q-1 -57 -19 -94.5t-46.5 -56t-61.5 -18.5q-28 0 -48.5 8.5t-36 19t-28.5 18.5t-27 8q-15 0 -23 -12.5t-11 -39.5h-108
q3 85 41.5 126.5t95.5 41.5q27 0 46 -8t32.5 -18.5t26 -18.5t26.5 -8q16 0 23.5 12.5t10.5 39.5h107z" />
    <glyph glyph-name="utilde" unicode="&#x169;" horiz-adv-x="619" 
d="M214 -10q-51 0 -88.5 17.5t-58 56t-20.5 100.5v336h202v-289q0 -38 14 -54t41 -16q14 0 26 5.5t20.5 16.5t13 29t4.5 42v266h202v-500h-181l-5 100q-23 -55 -66 -82.5t-104 -27.5zM508 717q-1 -57 -19 -94.5t-46.5 -56t-61.5 -18.5q-28 0 -48.5 8.5t-36 19t-28.5 18.5
t-27 8q-15 0 -23 -12.5t-11 -39.5h-108q3 85 41.5 126.5t95.5 41.5q27 0 46 -8t32.5 -18.5t26 -18.5t26.5 -8q16 0 23.5 12.5t10.5 39.5h107z" />
    <glyph glyph-name="Umacron" unicode="&#x16a;" horiz-adv-x="711" 
d="M663 660v-383q0 -144 -77 -215.5t-230 -71.5q-154 0 -231 71.5t-77 215.5v383h205v-394q0 -60 26 -90t77 -30t77 30t26 90v394h204zM544 833v-119h-376v119h376z" />
    <glyph glyph-name="umacron" unicode="&#x16b;" horiz-adv-x="619" 
d="M214 -10q-51 0 -88.5 17.5t-58 56t-20.5 100.5v336h202v-289q0 -38 14 -54t41 -16q14 0 26 5.5t20.5 16.5t13 29t4.5 42v266h202v-500h-181l-5 100q-23 -55 -66 -82.5t-104 -27.5zM492 676v-119h-376v119h376z" />
    <glyph glyph-name="Ubreve" unicode="&#x16c;" horiz-adv-x="711" 
d="M663 660v-383q0 -144 -77 -215.5t-230 -71.5q-154 0 -231 71.5t-77 215.5v383h205v-394q0 -60 26 -90t77 -30t77 30t26 90v394h204zM532 870q0 -79 -47 -123.5t-129 -44.5q-81 0 -128.5 44.5t-47.5 123.5h125q0 -28 13 -44.5t38 -16.5q26 0 38.5 16.5t12.5 44.5h125z" />
    <glyph glyph-name="ubreve" unicode="&#x16d;" horiz-adv-x="619" 
d="M214 -10q-51 0 -88.5 17.5t-58 56t-20.5 100.5v336h202v-289q0 -38 14 -54t41 -16q14 0 26 5.5t20.5 16.5t13 29t4.5 42v266h202v-500h-181l-5 100q-23 -55 -66 -82.5t-104 -27.5zM480 713q0 -79 -47 -123.5t-129 -44.5q-81 0 -128.5 44.5t-47.5 123.5h125
q0 -28 13 -44.5t38 -16.5q26 0 38.5 16.5t12.5 44.5h125z" />
    <glyph glyph-name="Uring" unicode="&#x16e;" horiz-adv-x="711" 
d="M663 660v-383q0 -144 -77 -215.5t-230 -71.5q-154 0 -231 71.5t-77 215.5v383h205v-394q0 -60 26 -90t77 -30t77 30t26 90v394h204zM355 944q66 0 105.5 -35t39.5 -94q0 -58 -39.5 -93t-105.5 -35q-65 0 -104.5 35t-39.5 93q0 59 39.5 94t104.5 35zM356 862
q-22 0 -35 -12.5t-13 -33.5q0 -22 13 -34.5t35 -12.5q21 0 34 12.5t13 34.5q0 21 -13 33.5t-34 12.5z" />
    <glyph glyph-name="uring" unicode="&#x16f;" horiz-adv-x="619" 
d="M214 -10q-51 0 -88.5 17.5t-58 56t-20.5 100.5v336h202v-289q0 -38 14 -54t41 -16q14 0 26 5.5t20.5 16.5t13 29t4.5 42v266h202v-500h-181l-5 100q-23 -55 -66 -82.5t-104 -27.5zM303 797q66 0 105.5 -35t39.5 -94q0 -58 -39.5 -93t-105.5 -35q-65 0 -104.5 35t-39.5 93
q0 59 39.5 94t104.5 35zM304 715q-22 0 -35 -12.5t-13 -33.5q0 -22 13 -34.5t35 -12.5q21 0 34 12.5t13 34.5q0 21 -13 33.5t-34 12.5z" />
    <glyph glyph-name="Uhungarumlaut" unicode="&#x170;" horiz-adv-x="711" 
d="M663 660v-383q0 -144 -77 -215.5t-230 -71.5q-154 0 -231 71.5t-77 215.5v383h205v-394q0 -60 26 -90t77 -30t77 30t26 90v394h204zM455 876h176l-91 -166h-144zM215 876h176l-91 -166h-144z" />
    <glyph glyph-name="uhungarumlaut" unicode="&#x171;" horiz-adv-x="619" 
d="M214 -10q-51 0 -88.5 17.5t-58 56t-20.5 100.5v336h202v-289q0 -38 14 -54t41 -16q14 0 26 5.5t20.5 16.5t13 29t4.5 42v266h202v-500h-181l-5 100q-23 -55 -66 -82.5t-104 -27.5zM337 557l67 175h164l-94 -175h-137zM113 557l67 175h163l-94 -175h-136z" />
    <glyph glyph-name="Uogonek" unicode="&#x172;" horiz-adv-x="711" 
d="M663 660v-383q0 -144 -77 -215.5t-230 -71.5q-154 0 -231 71.5t-77 215.5v383h205v-394q0 -60 26 -90t77 -30t77 30t26 90v394h204zM396 -218q-66 0 -103 30.5t-37 83.5q0 60 44 93t116 41l75 -22q-36 -11 -60 -21.5t-35.5 -23t-11.5 -31.5t13.5 -30t37.5 -11
q12 0 23.5 2.5t19.5 6.5l19 -97q-21 -12 -44.5 -16.5t-56.5 -4.5z" />
    <glyph glyph-name="uogonek" unicode="&#x173;" horiz-adv-x="619" 
d="M474 -226q-39 0 -75 12t-58 39t-22 73q0 49 24 79.5t64 46.5t89 23l74 -47q-50 -17 -76.5 -33.5t-26.5 -42.5q0 -19 13 -30t37 -11q11 0 22.5 2t19.5 6l25 -93q-22 -13 -48.5 -18.5t-61.5 -5.5zM214 -10q-51 0 -88.5 17.5t-58 56t-20.5 100.5v336h202v-289q0 -38 14 -54
t41 -16q14 0 26 5.5t20.5 16.5t13 29t4.5 42v266h202v-500h-181l-5 100q-23 -55 -66 -82.5t-104 -27.5z" />
    <glyph glyph-name="Wcircumflex" unicode="&#x174;" horiz-adv-x="1010" 
d="M189 0l-189 660h220l93 -498l104 498h180l109 -495l91 495h212l-189 -660h-220l-64 282l-27 165h-3l-27 -165l-64 -282h-226zM699 715h-134l-60 87l-60 -87h-134l97 166h194z" />
    <glyph glyph-name="wcircumflex" unicode="&#x175;" horiz-adv-x="922" 
d="M714 500h210l-143 -500h-247l-74 274l-72 -274h-247l-143 500h210l70 -355l84 355h198l84 -355zM664 552h-141l-62 80l-62 -80h-141l108 176h190z" />
    <glyph glyph-name="Ycircumflex" unicode="&#x176;" horiz-adv-x="687" 
d="M677 660l-231 -426v-234h-205v234l-232 426h207l80 -165l49 -115l48 115l81 165h203zM537 711h-134l-60 87l-60 -87h-134l97 166h194z" />
    <glyph glyph-name="ycircumflex" unicode="&#x177;" horiz-adv-x="579" 
d="M585 500l-163 -470q-30 -90 -67.5 -143.5t-88.5 -77.5t-124 -24q-45 0 -82 9t-64 24l38 131q17 -10 36.5 -15t52.5 -5q31 0 48 8t25 29l7 19l-60 142l-146 373h221l60 -271l21 -111l25 114l62 268h199zM514 550h-141l-62 80l-62 -80h-141l108 176h190z" />
    <glyph glyph-name="Ydieresis" unicode="&#x178;" horiz-adv-x="687" 
d="M677 660l-231 -426v-234h-205v234l-232 426h207l80 -165l49 -115l48 115l81 165h203zM227 872q46 0 71 -22t25 -63q0 -40 -25 -62.5t-71 -22.5q-44 0 -68.5 22.5t-24.5 62.5q0 41 24.5 63t68.5 22zM456 872q46 0 71 -22t25 -63q0 -40 -25 -62.5t-71 -22.5
q-44 0 -68.5 22.5t-24.5 62.5q0 41 24.5 63t68.5 22z" />
    <glyph glyph-name="Zacute" unicode="&#x179;" horiz-adv-x="636" 
d="M187 81l-36 68h462v-149h-582v143l416 436l35 -68h-446v149h566v-143zM302 881h176l-91 -166h-144z" />
    <glyph glyph-name="zacute" unicode="&#x17a;" horiz-adv-x="510" 
d="M28 0v119l176 197l49 49l-75 -2h-150v137h449v-119l-174 -195l-51 -51l85 2h149v-137h-458zM228 734h183l-103 -175h-143z" />
    <glyph glyph-name="Zdotaccent" unicode="&#x17b;" horiz-adv-x="636" 
d="M187 81l-36 68h462v-149h-582v143l416 436l35 -68h-446v149h566v-143zM325 884q52 0 78.5 -22t26.5 -66q0 -43 -26.5 -65t-78.5 -22q-51 0 -76.5 22t-25.5 65q0 44 25.5 66t76.5 22z" />
    <glyph glyph-name="zdotaccent" unicode="&#x17c;" horiz-adv-x="510" 
d="M28 0v119l176 197l49 49l-75 -2h-150v137h449v-119l-174 -195l-51 -51l85 2h149v-137h-458zM251 724q52 0 78.5 -22t26.5 -66q0 -43 -26.5 -65t-78.5 -22q-51 0 -76.5 22t-25.5 65q0 44 25.5 66t76.5 22z" />
    <glyph glyph-name="Zcaron" unicode="&#x17d;" horiz-adv-x="636" 
d="M187 81l-36 68h462v-149h-582v143l416 436l35 -68h-446v149h566v-143zM519 881l-97 -166h-194l-97 166h134l60 -87l60 87h134z" />
    <glyph glyph-name="zcaron" unicode="&#x17e;" horiz-adv-x="510" 
d="M28 0v119l176 197l49 49l-75 -2h-150v137h449v-119l-174 -195l-51 -51l85 2h149v-137h-458zM449 734l-107 -175h-191l-108 175h141l62 -79l63 79h140z" />
    <glyph glyph-name="longs" unicode="&#x17f;" horiz-adv-x="349" 
d="M48 0v532q0 70 29.5 112t77.5 60.5t104 18.5q36 0 61 -6t43 -20l-8 -121q-9 7 -18.5 9t-23.5 2q-30 0 -49.5 -16t-19.5 -53v-518h-196z" />
    <glyph glyph-name="uni018E" unicode="&#x18e;" horiz-adv-x="628" 
d="M567 0h-544v153h340v105h-262v142h262v107h-328v153h532v-660z" />
    <glyph glyph-name="uni018F" unicode="&#x18f;" horiz-adv-x="706" 
d="M339 -10q-101 0 -169.5 40.5t-103.5 111t-35 159.5q0 14 1.5 28.5t2.5 29.5h519v-108h-424l104 63q-1 -9 -1.5 -17.5t-0.5 -16.5q0 -47 14.5 -76.5t40 -43.5t59.5 -14q41 0 67.5 21.5t38.5 65t12 110.5q0 57 -14 95t-41 57t-67 19q-52 0 -78.5 -24.5t-37.5 -69.5l-188 37
q19 74 63 121t106.5 69.5t135.5 22.5q103 0 176 -40.5t111.5 -116.5t38.5 -183t-39.5 -183t-113.5 -116.5t-177 -40.5z" />
    <glyph glyph-name="florin" unicode="&#x192;" horiz-adv-x="526" 
d="M424 724q40 0 64 -5.5t49 -22.5l-25 -119q-21 13 -49 13q-34 0 -56.5 -19t-28.5 -54l-80 -461q-16 -88 -71 -136t-143 -48q-40 0 -64 6t-49 22l25 119q20 -13 49 -13q34 0 56.5 19.5t28.5 53.5l80 461q16 89 71 136.5t143 47.5zM493 424v-137h-460v137h460z" />
    <glyph glyph-name="Ohorn" unicode="&#x1a0;" horiz-adv-x="733" 
d="M684 765q0 -102 -56 -157.5t-168 -55.5l-4 108q50 0 72 24.5t22 80.5h134zM367 670q103 0 176.5 -40.5t113 -116.5t39.5 -183t-39.5 -183t-113 -116.5t-176.5 -40.5q-102 0 -176.5 40.5t-114.5 116.5t-40 183t40 183t114.5 116.5t176.5 40.5zM367 514q-41 0 -67.5 -20.5
t-40 -60.5t-13.5 -103q0 -62 13.5 -102.5t40 -61t67.5 -20.5q40 0 67 20.5t40 61t13 102.5q0 63 -13 103t-40 60.5t-67 20.5z" />
    <glyph glyph-name="ohorn" unicode="&#x1a1;" horiz-adv-x="598" 
d="M299 510q82 0 143 -30.5t95 -88.5t34 -141q0 -82 -34 -140.5t-95 -89t-143 -30.5q-80 0 -141.5 30.5t-96 89t-34.5 140.5q0 83 34.5 141t96 88.5t141.5 30.5zM299 371q-22 0 -37.5 -11t-23.5 -38t-8 -72t8 -71.5t23.5 -38t37.5 -11.5q23 0 38 11.5t23 38t8 71.5t-8 72
t-23 38t-38 11zM385 400v100q27 0 42.5 24.5t15.5 82.5h132q0 -107 -50.5 -157t-139.5 -50z" />
    <glyph glyph-name="Uhorn" unicode="&#x1af;" horiz-adv-x="711" 
d="M663 660v-383q0 -144 -77 -215.5t-230 -71.5q-154 0 -231 71.5t-77 215.5v383h205v-394q0 -60 26 -90t77 -30t77 30t26 90v394h204zM780 765q0 -102 -53.5 -157.5t-160.5 -55.5l-3 108q44 0 64 24.5t20 80.5h133z" />
    <glyph glyph-name="uhorn" unicode="&#x1b0;" horiz-adv-x="637" 
d="M214 -10q-51 0 -88.5 17.5t-58 56t-20.5 100.5v336h202v-289q0 -38 14 -54t41 -16q14 0 26 5.5t20.5 16.5t13 29t4.5 42v266h202v-500h-181l-5 100q-23 -55 -66 -82.5t-104 -27.5zM491 400v100q27 0 42.5 24.5t15.5 82.5h132q0 -107 -50.5 -157t-139.5 -50z" />
    <glyph glyph-name="uni01C4" unicode="&#x1c4;" horiz-adv-x="1350" 
d="M364 660q155 0 236 -86t81 -244q0 -157 -81 -243.5t-236 -86.5h-303v660h303zM339 149q74 0 103 44.5t29 136.5t-29 136.5t-103 44.5h-74v-362h74zM902 81l-36 68h462v-149h-582v143l416 436l35 -68h-446v149h566v-143zM1233 881l-97 -166h-194l-97 166h134l60 -87l60 87
h134z" />
    <glyph glyph-name="uni01C5" unicode="&#x1c5;" horiz-adv-x="1225" 
d="M364 660q155 0 236 -86t81 -244q0 -157 -81 -243.5t-236 -86.5h-303v660h303zM339 149q74 0 103 44.5t29 136.5t-29 136.5t-103 44.5h-74v-362h74zM744 0v119l176 197l49 49l-75 -2h-150v137h449v-119l-174 -195l-51 -51l85 2h149v-137h-458zM1165 734l-107 -175h-191
l-108 175h141l62 -79l63 79h140z" />
    <glyph glyph-name="uni01C6" unicode="&#x1c6;" horiz-adv-x="1137" 
d="M229 -10q-61 0 -105.5 30.5t-68 88.5t-23.5 139q0 83 24 141.5t69.5 89.5t106.5 31q71 0 111 -44.5t51 -113.5l-18 -25v379h202v-706h-182l-12 187l23 -23q-6 -51 -29.5 -90.5t-61 -61.5t-87.5 -22zM307 134q22 0 37 13t23.5 39t8.5 65q0 37 -7.5 62.5t-23 38.5t-38.5 13
q-33 0 -52.5 -25.5t-19.5 -89.5t19 -90t53 -26zM655 0v119l176 197l49 49l-75 -2h-150v137h449v-119l-174 -195l-51 -51l85 2h149v-137h-458zM1076 734l-107 -175h-191l-108 175h141l62 -79l63 79h140z" />
    <glyph glyph-name="uni01C7" unicode="&#x1c7;" horiz-adv-x="1240" 
d="M265 153h314v-153h-518v660h204v-507zM1193 660v-397q0 -129 -76 -201t-218 -72q-104 0 -167.5 37t-86.5 102t-10 148l201 34q-12 -92 6.5 -128.5t65.5 -36.5q43 0 62 32.5t19 102.5v379h204z" />
    <glyph glyph-name="uni01C8" unicode="&#x1c8;" horiz-adv-x="904" 
d="M265 153h314v-153h-518v660h204v-507zM754 544q-60 0 -86.5 21t-26.5 68q0 48 26.5 69t86.5 21t86.5 -21t26.5 -69q0 -47 -26.5 -68t-86.5 -21zM855 500v-520q0 -69 -23 -112t-69 -63t-116 -20q-44 0 -79 8t-63 23l26 123q10 -7 24.5 -11t32.5 -4q30 0 47.5 16.5
t17.5 57.5v502h202z" />
    <glyph glyph-name="uni01C9" unicode="&#x1c9;" horiz-adv-x="635" 
d="M250 706v-520q0 -32 10 -46t35 -14q12 0 21.5 1.5t20.5 5.5l-11 -114q-18 -13 -50.5 -21t-64.5 -8q-87 0 -125 38.5t-38 128.5v549h202zM484 544q-60 0 -86.5 21t-26.5 68q0 48 26.5 69t86.5 21t86.5 -21t26.5 -69q0 -47 -26.5 -68t-86.5 -21zM585 500v-520
q0 -69 -23 -112t-69 -63t-116 -20q-44 0 -79 8t-63 23l26 123q10 -7 24.5 -11t32.5 -4q30 0 47.5 16.5t17.5 57.5v502h202z" />
    <glyph glyph-name="uni01CA" unicode="&#x1ca;" horiz-adv-x="1381" 
d="M683 660v-660h-224l-180 327l-42 89h-2l4 -130v-286h-178v660h223l180 -327l43 -89h1l-4 130v286h179zM1333 660v-397q0 -129 -76 -201t-218 -72q-104 0 -167.5 37t-86.5 102t-10 148l201 34q-12 -92 6.5 -128.5t65.5 -36.5q43 0 62 32.5t19 102.5v379h204z" />
    <glyph glyph-name="uni01CB" unicode="&#x1cb;" horiz-adv-x="1044" 
d="M683 660v-660h-224l-180 327l-42 89h-2l4 -130v-286h-178v660h223l180 -327l43 -89h1l-4 130v286h179zM894 544q-60 0 -86.5 21t-26.5 68q0 48 26.5 69t86.5 21t86.5 -21t26.5 -69q0 -47 -26.5 -68t-86.5 -21zM995 500v-520q0 -69 -23 -112t-69 -63t-116 -20q-44 0 -79 8
t-63 23l26 123q10 -7 24.5 -11t32.5 -4q30 0 47.5 16.5t17.5 57.5v502h202z" />
    <glyph glyph-name="uni01CC" unicode="&#x1cc;" horiz-adv-x="920" 
d="M49 0v500h182l9 -193l-21 22q8 58 33 98.5t64.5 61.5t91.5 21q51 0 87.5 -19.5t56.5 -58t20 -94.5v-338h-202v286q0 42 -13.5 57.5t-38.5 15.5q-19 0 -34.5 -9.5t-24 -30.5t-8.5 -55v-264h-202zM770 544q-60 0 -86.5 21t-26.5 68q0 48 26.5 69t86.5 21t86.5 -21t26.5 -69
q0 -47 -26.5 -68t-86.5 -21zM871 500v-520q0 -69 -23 -112t-69 -63t-116 -20q-44 0 -79 8t-63 23l26 123q10 -7 24.5 -11t32.5 -4q30 0 47.5 16.5t17.5 57.5v502h202z" />
    <glyph glyph-name="uni01DD" unicode="&#x1dd;" horiz-adv-x="579" 
d="M275 510q88 0 149.5 -30.5t94.5 -88.5t33 -141t-33.5 -141t-94 -88.5t-140.5 -30.5q-82 0 -140 32.5t-88.5 87t-30.5 121.5q0 17 1.5 33t3.5 26h392v-82h-304l96 36q0 -37 6.5 -63.5t22 -40t40.5 -13.5q27 0 44 12t25 40t8 74q0 47 -9 73t-29 36t-49 10q-31 0 -50 -13.5
t-27 -36.5l-162 47q16 42 52.5 73.5t85 49.5t103.5 18z" />
    <glyph glyph-name="Gcaron" unicode="&#x1e6;" horiz-adv-x="722" 
d="M337 -10q-87 0 -155 38t-107 114t-39 186q0 108 40.5 184.5t116.5 117t180 40.5q117 0 188.5 -42t110.5 -133l-190 -71q-10 49 -38 69.5t-70 20.5q-43 0 -71.5 -20.5t-42.5 -61.5t-14 -102q0 -66 15.5 -108t47.5 -61.5t79 -19.5q24 0 44 5.5t35.5 16.5t23.5 27.5t8 38.5
v5h-130v131h302v-365h-137l-16 167l32 -32q-18 -70 -72 -107.5t-141 -37.5zM560 881l-97 -166h-194l-97 166h134l60 -87l60 87h134z" />
    <glyph glyph-name="gcaron" unicode="&#x1e7;" horiz-adv-x="569" 
d="M555 649l14 -129q-9 2 -16 2.5t-14 0.5q-43 0 -63 -21.5t-20 -50.5l-63 21q0 42 14 83t45.5 68t83.5 27h9t10 -1zM377 127q93 0 141.5 -37.5t48.5 -111.5q0 -66 -34.5 -109t-98.5 -63.5t-154 -20.5q-142 0 -202.5 32t-60.5 91q0 42 37 66.5t121 25.5l-3 -17
q-71 8 -103.5 38.5t-32.5 80.5q0 51 41 81t105 32l66 -30h-18q-36 -1 -50 -9t-14 -21q0 -14 11.5 -21t36.5 -7h163zM282 -89q45 0 74.5 4.5t44 13.5t14.5 21q0 10 -7 15.5t-27 5.5h-187q-14 0 -22 -7t-8 -18q0 -17 31.5 -26t86.5 -9zM292 510q83 0 139.5 -19.5t86 -57
t29.5 -94.5q0 -55 -29.5 -93t-86 -57t-139.5 -19q-125 0 -189.5 43t-64.5 126q0 57 29 94.5t86 57t139 19.5zM292 401q-26 0 -41.5 -15t-15.5 -46q0 -30 15.5 -45.5t41.5 -15.5t41.5 15.5t15.5 45.5q0 31 -15.5 46t-41.5 15zM455 734l-107 -175h-191l-108 175h141l62 -79
l63 79h140z" />
    <glyph glyph-name="uni01EA" unicode="&#x1ea;" horiz-adv-x="733" 
d="M367 670q103 0 176.5 -40.5t113 -116.5t39.5 -183t-39.5 -183t-113 -116.5t-176.5 -40.5q-102 0 -176.5 40.5t-114.5 116.5t-40 183t40 183t114.5 116.5t176.5 40.5zM367 514q-41 0 -67.5 -20.5t-40 -60.5t-13.5 -103q0 -62 13.5 -102.5t40 -61t67.5 -20.5q40 0 67 20.5
t40 61t13 102.5q0 63 -13 103t-40 60.5t-67 20.5zM396 -218q-66 0 -103 30.5t-37 83.5q0 60 44 93t116 41l75 -22q-36 -11 -60 -21.5t-35.5 -23t-11.5 -31.5t13.5 -30t37.5 -11q12 0 23.5 2.5t19.5 6.5l19 -97q-21 -12 -44.5 -16.5t-56.5 -4.5z" />
    <glyph glyph-name="uni01EB" unicode="&#x1eb;" horiz-adv-x="598" 
d="M299 510q82 0 143 -30.5t95 -88.5t34 -141q0 -82 -34 -140.5t-95 -89t-143 -30.5q-80 0 -141.5 30.5t-96 89t-34.5 140.5q0 83 34.5 141t96 88.5t141.5 30.5zM299 371q-22 0 -37.5 -11t-23.5 -38t-8 -72t8 -71.5t23.5 -38t37.5 -11.5q23 0 38 11.5t23 38t8 71.5t-8 72
t-23 38t-38 11zM328 -214q-66 0 -103 30.5t-37 83.5q0 60 44 93t116 41l75 -22q-36 -11 -60 -21.5t-35.5 -23t-11.5 -31.5t13.5 -30t37.5 -11q12 0 23.5 2.5t19.5 6.5l19 -97q-21 -12 -44.5 -16.5t-56.5 -4.5z" />
    <glyph glyph-name="uni01F1" unicode="&#x1f1;" horiz-adv-x="1350" 
d="M364 660q155 0 236 -86t81 -244q0 -157 -81 -243.5t-236 -86.5h-303v660h303zM339 149q74 0 103 44.5t29 136.5t-29 136.5t-103 44.5h-74v-362h74zM902 81l-36 68h462v-149h-582v143l416 436l35 -68h-446v149h566v-143z" />
    <glyph glyph-name="uni01F2" unicode="&#x1f2;" horiz-adv-x="1225" 
d="M364 660q155 0 236 -86t81 -244q0 -157 -81 -243.5t-236 -86.5h-303v660h303zM339 149q74 0 103 44.5t29 136.5t-29 136.5t-103 44.5h-74v-362h74zM744 0v119l176 197l49 49l-75 -2h-150v137h449v-119l-174 -195l-51 -51l85 2h149v-137h-458z" />
    <glyph glyph-name="uni01F3" unicode="&#x1f3;" horiz-adv-x="1137" 
d="M229 -10q-61 0 -105.5 30.5t-68 88.5t-23.5 139q0 83 24 141.5t69.5 89.5t106.5 31q71 0 111 -44.5t51 -113.5l-18 -25v379h202v-706h-182l-12 187l23 -23q-6 -51 -29.5 -90.5t-61 -61.5t-87.5 -22zM307 134q22 0 37 13t23.5 39t8.5 65q0 37 -7.5 62.5t-23 38.5t-38.5 13
q-33 0 -52.5 -25.5t-19.5 -89.5t19 -90t53 -26zM655 0v119l176 197l49 49l-75 -2h-150v137h449v-119l-174 -195l-51 -51l85 2h149v-137h-458z" />
    <glyph glyph-name="Aringacute" unicode="&#x1fa;" horiz-adv-x="684" 
d="M687 0h-210l-37 137h-201l-38 -137h-204l222 660h245zM273 269h134l-67 246zM341 841q66 0 105.5 -35t39.5 -94q0 -58 -39.5 -93t-105.5 -35q-65 0 -104.5 35t-39.5 93q0 59 39.5 94t104.5 35zM342 759q-22 0 -35 -12.5t-13 -33.5q0 -22 13 -34.5t35 -12.5q21 0 34 12.5
t13 34.5q0 21 -13 33.5t-34 12.5zM332 1040h176l-91 -166h-144z" />
    <glyph glyph-name="aringacute" unicode="&#x1fb;" horiz-adv-x="584" 
d="M324 315q0 28 -14.5 44.5t-42.5 16.5q-26 0 -44.5 -14t-23.5 -53l-171 31q10 78 73 124t180 46q80 0 134.5 -22.5t81.5 -65.5t27 -103v-168q0 -40 37 -40q15 0 23 4l-10 -109q-33 -16 -82 -16q-43 0 -76 13.5t-52 39.5t-19 68v8l20 3q0 -40 -24.5 -70t-64 -46t-87.5 -16
q-52 0 -89 16t-56.5 46t-19.5 73q0 55 33.5 90t101.5 48l181 38l-1 -85l-74 -17q-25 -5 -36.5 -16.5t-11.5 -31.5q0 -19 13 -29.5t32 -10.5q13 0 24 4t19.5 12t13.5 20t5 29v139zM276 799q66 0 105.5 -35t39.5 -94q0 -58 -39.5 -93t-105.5 -35q-65 0 -104.5 35t-39.5 93
q0 59 39.5 94t104.5 35zM277 717q-22 0 -35 -12.5t-13 -33.5q0 -22 13 -34.5t35 -12.5q21 0 34 12.5t13 34.5q0 21 -13 33.5t-34 12.5zM208 832l56 160h175l-87 -160h-144z" />
    <glyph glyph-name="AEacute" unicode="&#x1fc;" horiz-adv-x="913" 
d="M599 145h292v-145h-481v190h-154l-60 -190h-203l246 660h639v-145h-279v-118h214v-135h-214v-117zM292 315h118v207h-49zM482 881h176l-91 -166h-144z" />
    <glyph glyph-name="aeacute" unicode="&#x1fd;" horiz-adv-x="875" 
d="M202 -10q-58 0 -98 16t-60.5 47t-20.5 75q0 54 36.5 88.5t100.5 47.5l164 33v15q0 31 -15 47.5t-44 16.5q-24 0 -42 -14t-24 -53l-171 31q6 48 36 86t81.5 61t120.5 23q81 0 134 -27.5t72 -81.5l-65 -5q20 37 50 62t68 38.5t83 13.5q79 0 132.5 -30.5t81 -85t27.5 -125.5
q0 -16 -1.5 -33t-3.5 -29h-326v0q3 -43 30 -61.5t63 -18.5q30 0 44 13.5t22 36.5l163 -47q-13 -47 -46.5 -78t-80 -46.5t-100.5 -15.5q-91 0 -149 42t-77 122l40 -10q-7 -32 -23.5 -59.5t-43.5 -49t-66 -33.5t-92 -12zM262 111q12 0 23 3.5t20 12.5t14 21.5t5 29.5v36
l-59 -14q-25 -6 -36.5 -16.5t-11.5 -33.5q0 -17 12 -28t33 -11zM518 294h141q-2 26 -9.5 43.5t-21.5 26.5t-35 9q-32 0 -50.5 -18.5t-24.5 -60.5zM402 734h183l-103 -175h-143z" />
    <glyph glyph-name="Oslashacute" unicode="&#x1fe;" horiz-adv-x="733" 
d="M261 131l-50 42l244 331l53 -39zM53 -24l134 172l55 -42l-107 -130h-82zM542 504l-55 42l110 135h83zM367 670q103 0 176.5 -40.5t113 -116.5t39.5 -183t-39.5 -183t-113 -116.5t-176.5 -40.5q-102 0 -176.5 40.5t-114.5 116.5t-40 183t40 183t114.5 116.5t176.5 40.5z
M367 514q-41 0 -67.5 -20.5t-40 -60.5t-13.5 -103q0 -62 13.5 -102.5t40 -61t67.5 -20.5q40 0 67 20.5t40 61t13 102.5q0 63 -13 103t-40 60.5t-67 20.5zM344 881h176l-91 -166h-144z" />
    <glyph glyph-name="oslashacute" unicode="&#x1ff;" horiz-adv-x="598" 
d="M299 510q82 0 143 -30.5t95 -88.5t34 -141q0 -82 -34 -140.5t-95 -89t-143 -30.5q-80 0 -141.5 30.5t-96 89t-34.5 140.5q0 83 34.5 141t96 88.5t141.5 30.5zM299 371q-22 0 -37.5 -11t-23.5 -38t-8 -72t8 -71.5t23.5 -38t37.5 -11.5q23 0 38 11.5t23 38t8 71.5t-8 72
t-23 38t-38 11zM41 -23l449 545h67l-449 -545h-67zM276 734h183l-103 -175h-143z" />
    <glyph glyph-name="uni0200" unicode="&#x200;" horiz-adv-x="684" 
d="M687 0h-210l-37 137h-201l-38 -137h-204l222 660h245zM273 269h134l-67 246zM241 881l59 -166h-144l-90 166h175zM481 881l60 -166h-145l-90 166h175z" />
    <glyph glyph-name="uni0201" unicode="&#x201;" horiz-adv-x="584" 
d="M324 315q0 28 -14.5 44.5t-42.5 16.5q-26 0 -44.5 -14t-23.5 -53l-171 31q10 78 73 124t180 46q80 0 134.5 -22.5t81.5 -65.5t27 -103v-168q0 -40 37 -40q15 0 23 4l-10 -109q-33 -16 -82 -16q-43 0 -76 13.5t-52 39.5t-19 68v8l20 3q0 -40 -24.5 -70t-64 -46t-87.5 -16
q-52 0 -89 16t-56.5 46t-19.5 73q0 55 33.5 90t101.5 48l181 38l-1 -85l-74 -17q-25 -5 -36.5 -16.5t-11.5 -31.5q0 -19 13 -29.5t32 -10.5q13 0 24 4t19.5 12t13.5 20t5 29v139zM242 559h-137l-94 175h164zM467 559h-137l-94 175h164z" />
    <glyph glyph-name="uni0202" unicode="&#x202;" horiz-adv-x="684" 
d="M687 0h-210l-37 137h-201l-38 -137h-204l222 660h245zM273 269h134l-67 246zM517 707h-125q0 28 -12.5 44.5t-38.5 16.5q-25 0 -38 -16.5t-13 -44.5h-125q0 80 47.5 124t128.5 44q82 0 129 -44t47 -124z" />
    <glyph glyph-name="uni0203" unicode="&#x203;" horiz-adv-x="584" 
d="M324 315q0 28 -14.5 44.5t-42.5 16.5q-26 0 -44.5 -14t-23.5 -53l-171 31q10 78 73 124t180 46q80 0 134.5 -22.5t81.5 -65.5t27 -103v-168q0 -40 37 -40q15 0 23 4l-10 -109q-33 -16 -82 -16q-43 0 -76 13.5t-52 39.5t-19 68v8l20 3q0 -40 -24.5 -70t-64 -46t-87.5 -16
q-52 0 -89 16t-56.5 46t-19.5 73q0 55 33.5 90t101.5 48l181 38l-1 -85l-74 -17q-25 -5 -36.5 -16.5t-11.5 -31.5q0 -19 13 -29.5t32 -10.5q13 0 24 4t19.5 12t13.5 20t5 29v139zM453 547h-125q0 28 -12.5 44.5t-38.5 16.5q-25 0 -38 -16.5t-13 -44.5h-125q0 80 47.5 124
t128.5 44q82 0 129 -44t47 -124z" />
    <glyph glyph-name="uni0204" unicode="&#x204;" horiz-adv-x="628" 
d="M61 0v660h532v-153h-328v-107h262v-142h-262v-105h341v-153h-545zM227 881l59 -166h-144l-90 166h175zM467 881l60 -166h-145l-90 166h175z" />
    <glyph glyph-name="uni0205" unicode="&#x205;" horiz-adv-x="579" 
d="M305 -10q-86 0 -148.5 30.5t-96 88.5t-33.5 141t34 141t95 88.5t141 30.5q82 0 139.5 -30.5t88 -84.5t30.5 -126q0 -17 -1.5 -34t-3.5 -29h-393v88h305l-96 -37q0 57 -15.5 86.5t-53.5 29.5q-26 0 -43.5 -12t-26 -40t-8.5 -74t10.5 -72.5t29.5 -36.5t48 -10q32 0 50 13
t26 36l162 -48q-12 -46 -48.5 -77t-86.5 -46.5t-105 -15.5zM260 559h-137l-94 175h164zM485 559h-137l-94 175h164z" />
    <glyph glyph-name="uni0206" unicode="&#x206;" horiz-adv-x="628" 
d="M61 0v660h532v-153h-328v-107h262v-142h-262v-105h341v-153h-545zM503 707h-125q0 28 -12.5 44.5t-38.5 16.5q-25 0 -38 -16.5t-13 -44.5h-125q0 80 47.5 124t128.5 44q82 0 129 -44t47 -124z" />
    <glyph glyph-name="uni0207" unicode="&#x207;" horiz-adv-x="579" 
d="M305 -10q-86 0 -148.5 30.5t-96 88.5t-33.5 141t34 141t95 88.5t141 30.5q82 0 139.5 -30.5t88 -84.5t30.5 -126q0 -17 -1.5 -34t-3.5 -29h-393v88h305l-96 -37q0 57 -15.5 86.5t-53.5 29.5q-26 0 -43.5 -12t-26 -40t-8.5 -74t10.5 -72.5t29.5 -36.5t48 -10q32 0 50 13
t26 36l162 -48q-12 -46 -48.5 -77t-86.5 -46.5t-105 -15.5zM471 547h-125q0 28 -12.5 44.5t-38.5 16.5q-25 0 -38 -16.5t-13 -44.5h-125q0 80 47.5 124t128.5 44q82 0 129 -44t47 -124z" />
    <glyph glyph-name="uni0208" unicode="&#x208;" horiz-adv-x="326" 
d="M265 660v-660h-204v660h204zM63 881l59 -166h-144l-90 166h175zM303 881l60 -166h-145l-90 166h175z" />
    <glyph glyph-name="uni0209" unicode="&#x209;" horiz-adv-x="300" 
d="M251 500v-500h-202v500h202zM115 559h-137l-94 175h164zM340 559h-137l-94 175h164z" />
    <glyph glyph-name="uni020A" unicode="&#x20a;" horiz-adv-x="326" 
d="M265 660v-660h-204v660h204zM339 707h-125q0 28 -12.5 44.5t-38.5 16.5q-25 0 -38 -16.5t-13 -44.5h-125q0 80 47.5 124t128.5 44q82 0 129 -44t47 -124z" />
    <glyph glyph-name="uni020B" unicode="&#x20b;" horiz-adv-x="300" 
d="M251 500v-500h-202v500h202zM326 547h-125q0 28 -12.5 44.5t-38.5 16.5q-25 0 -38 -16.5t-13 -44.5h-125q0 80 47.5 124t128.5 44q82 0 129 -44t47 -124z" />
    <glyph glyph-name="uni020C" unicode="&#x20c;" horiz-adv-x="733" 
d="M367 670q103 0 176.5 -40.5t113 -116.5t39.5 -183t-39.5 -183t-113 -116.5t-176.5 -40.5q-102 0 -176.5 40.5t-114.5 116.5t-40 183t40 183t114.5 116.5t176.5 40.5zM367 514q-41 0 -67.5 -20.5t-40 -60.5t-13.5 -103q0 -62 13.5 -102.5t40 -61t67.5 -20.5q40 0 67 20.5
t40 61t13 102.5q0 63 -13 103t-40 60.5t-67 20.5zM267 881l59 -166h-144l-90 166h175zM507 881l60 -166h-145l-90 166h175z" />
    <glyph glyph-name="uni020D" unicode="&#x20d;" horiz-adv-x="598" 
d="M299 510q82 0 143 -30.5t95 -88.5t34 -141q0 -82 -34 -140.5t-95 -89t-143 -30.5q-80 0 -141.5 30.5t-96 89t-34.5 140.5q0 83 34.5 141t96 88.5t141.5 30.5zM299 371q-22 0 -37.5 -11t-23.5 -38t-8 -72t8 -71.5t23.5 -38t37.5 -11.5q23 0 38 11.5t23 38t8 71.5t-8 72
t-23 38t-38 11zM264 559h-137l-94 175h164zM489 559h-137l-94 175h164z" />
    <glyph glyph-name="uni020E" unicode="&#x20e;" horiz-adv-x="733" 
d="M367 670q103 0 176.5 -40.5t113 -116.5t39.5 -183t-39.5 -183t-113 -116.5t-176.5 -40.5q-102 0 -176.5 40.5t-114.5 116.5t-40 183t40 183t114.5 116.5t176.5 40.5zM367 514q-41 0 -67.5 -20.5t-40 -60.5t-13.5 -103q0 -62 13.5 -102.5t40 -61t67.5 -20.5q40 0 67 20.5
t40 61t13 102.5q0 63 -13 103t-40 60.5t-67 20.5zM543 707h-125q0 28 -12.5 44.5t-38.5 16.5q-25 0 -38 -16.5t-13 -44.5h-125q0 80 47.5 124t128.5 44q82 0 129 -44t47 -124z" />
    <glyph glyph-name="uni020F" unicode="&#x20f;" horiz-adv-x="598" 
d="M299 510q82 0 143 -30.5t95 -88.5t34 -141q0 -82 -34 -140.5t-95 -89t-143 -30.5q-80 0 -141.5 30.5t-96 89t-34.5 140.5q0 83 34.5 141t96 88.5t141.5 30.5zM299 371q-22 0 -37.5 -11t-23.5 -38t-8 -72t8 -71.5t23.5 -38t37.5 -11.5q23 0 38 11.5t23 38t8 71.5t-8 72
t-23 38t-38 11zM475 547h-125q0 28 -12.5 44.5t-38.5 16.5q-25 0 -38 -16.5t-13 -44.5h-125q0 80 47.5 124t128.5 44q82 0 129 -44t47 -124z" />
    <glyph glyph-name="uni0210" unicode="&#x210;" horiz-adv-x="698" 
d="M399 660q123 0 190.5 -56.5t67.5 -150.5q0 -105 -66 -159t-190 -54l-20 -11h-120v-229h-200v660h338zM366 368q43 0 64.5 16.5t21.5 54.5t-21.5 55t-64.5 17h-105v-143h105zM487 325l208 -325h-223l-161 289zM232 881l59 -166h-144l-90 166h175zM472 881l60 -166h-145
l-90 166h175z" />
    <glyph glyph-name="uni0211" unicode="&#x211;" horiz-adv-x="437" 
d="M49 0v500h181l6 -117q17 59 53.5 93t95.5 34q21 0 34 -3.5t19 -8.5l-18 -164q-10 4 -26 7t-37 3q-30 0 -54 -11t-38 -32.5t-14 -54.5v-246h-202zM210 559h-137l-94 175h164zM435 559h-137l-94 175h164z" />
    <glyph glyph-name="uni0212" unicode="&#x212;" horiz-adv-x="698" 
d="M399 660q123 0 190.5 -56.5t67.5 -150.5q0 -105 -66 -159t-190 -54l-20 -11h-120v-229h-200v660h338zM366 368q43 0 64.5 16.5t21.5 54.5t-21.5 55t-64.5 17h-105v-143h105zM487 325l208 -325h-223l-161 289zM508 707h-125q0 28 -12.5 44.5t-38.5 16.5q-25 0 -38 -16.5
t-13 -44.5h-125q0 80 47.5 124t128.5 44q82 0 129 -44t47 -124z" />
    <glyph glyph-name="uni0213" unicode="&#x213;" horiz-adv-x="437" 
d="M49 0v500h181l6 -117q17 59 53.5 93t95.5 34q21 0 34 -3.5t19 -8.5l-18 -164q-10 4 -26 7t-37 3q-30 0 -54 -11t-38 -32.5t-14 -54.5v-246h-202zM421 547h-125q0 28 -12.5 44.5t-38.5 16.5q-25 0 -38 -16.5t-13 -44.5h-125q0 80 47.5 124t128.5 44q82 0 129 -44t47 -124z
" />
    <glyph glyph-name="uni0214" unicode="&#x214;" horiz-adv-x="711" 
d="M663 660v-383q0 -144 -77 -215.5t-230 -71.5q-154 0 -231 71.5t-77 215.5v383h205v-394q0 -60 26 -90t77 -30t77 30t26 90v394h204zM256 876l59 -166h-144l-90 166h175zM496 876l60 -166h-145l-90 166h175z" />
    <glyph glyph-name="uni0215" unicode="&#x215;" horiz-adv-x="619" 
d="M214 -10q-51 0 -88.5 17.5t-58 56t-20.5 100.5v336h202v-289q0 -38 14 -54t41 -16q14 0 26 5.5t20.5 16.5t13 29t4.5 42v266h202v-500h-181l-5 100q-23 -55 -66 -82.5t-104 -27.5zM269 557h-137l-94 175h164zM494 557h-137l-94 175h164z" />
    <glyph glyph-name="uni0216" unicode="&#x216;" horiz-adv-x="711" 
d="M663 660v-383q0 -144 -77 -215.5t-230 -71.5q-154 0 -231 71.5t-77 215.5v383h205v-394q0 -60 26 -90t77 -30t77 30t26 90v394h204zM532 702h-125q0 28 -12.5 44.5t-38.5 16.5q-25 0 -38 -16.5t-13 -44.5h-125q0 80 47.5 124t128.5 44q82 0 129 -44t47 -124z" />
    <glyph glyph-name="uni0217" unicode="&#x217;" horiz-adv-x="619" 
d="M214 -10q-51 0 -88.5 17.5t-58 56t-20.5 100.5v336h202v-289q0 -38 14 -54t41 -16q14 0 26 5.5t20.5 16.5t13 29t4.5 42v266h202v-500h-181l-5 100q-23 -55 -66 -82.5t-104 -27.5zM480 545h-125q0 28 -12.5 44.5t-38.5 16.5q-25 0 -38 -16.5t-13 -44.5h-125
q0 80 47.5 124t128.5 44q82 0 129 -44t47 -124z" />
    <glyph glyph-name="uni0218" unicode="&#x218;" horiz-adv-x="647" 
d="M335 670q94 0 167 -25.5t128 -77.5l-89 -131q-45 38 -95.5 59.5t-111.5 21.5q-31 0 -50 -6t-27.5 -16.5t-8.5 -23.5q0 -16 19.5 -26t54.5 -18l100 -23q100 -23 149 -67.5t49 -121.5q0 -75 -37.5 -125t-102.5 -75t-147 -25q-65 0 -126.5 13t-112.5 37.5t-88 58.5l88 135
q27 -26 66 -46.5t83 -32.5t85 -12q29 0 47.5 5.5t26.5 15.5t8 24q0 17 -13 27.5t-49 18.5l-110 25q-54 12 -100 33t-73.5 58.5t-27.5 98.5q0 65 35 115t102 78t161 28zM432 -55l-73 -187h-128l28 187h173z" />
    <glyph glyph-name="uni0219" unicode="&#x219;" horiz-adv-x="536" 
d="M270 -10q-74 0 -140 22t-113 65l81 107q27 -27 69.5 -47t89.5 -20q24 0 40.5 6t16.5 21q0 10 -8.5 16.5t-35.5 11.5l-52 10q-102 20 -144.5 58.5t-42.5 101.5q0 41 25.5 79.5t81 63.5t143.5 25q77 0 137.5 -20.5t96.5 -58.5l-79 -104q-27 26 -68 41t-78 15q-19 0 -32 -3
t-19.5 -8.5t-6.5 -14.5q0 -10 11.5 -17.5t42.5 -13.5l80 -14q79 -14 115 -52t36 -93q0 -49 -26 -89t-80.5 -64t-140.5 -24zM375 -55l-73 -187h-128l28 187h173z" />
    <glyph glyph-name="uni021A" unicode="&#x21a;" horiz-adv-x="671" 
d="M648 660v-153h-210v-507h-204v507h-212v153h626zM429 -55l-73 -187h-128l28 187h173z" />
    <glyph glyph-name="uni021B" unicode="&#x21b;" horiz-adv-x="443" 
d="M292 665v-473q0 -35 15.5 -50t46.5 -15q22 0 38 4t30 13l13 -118q-24 -17 -65 -26.5t-80 -9.5q-64 0 -108.5 17t-68 54t-23.5 99v449zM428 500v-139h-420v139h420zM358 -55l-73 -187h-128l28 187h173z" />
    <glyph glyph-name="uni022A" unicode="&#x22a;" horiz-adv-x="733" 
d="M367 670q103 0 176.5 -40.5t113 -116.5t39.5 -183t-39.5 -183t-113 -116.5t-176.5 -40.5q-102 0 -176.5 40.5t-114.5 116.5t-40 183t40 183t114.5 116.5t176.5 40.5zM367 514q-41 0 -67.5 -20.5t-40 -60.5t-13.5 -103q0 -62 13.5 -102.5t40 -61t67.5 -20.5q40 0 67 20.5
t40 61t13 102.5q0 63 -13 103t-40 60.5t-67 20.5zM251 876q46 0 71 -22t25 -63q0 -40 -25 -62.5t-71 -22.5q-44 0 -68.5 22.5t-24.5 62.5q0 41 24.5 63t68.5 22zM480 876q46 0 71 -22t25 -63q0 -40 -25 -62.5t-71 -22.5q-44 0 -68.5 22.5t-24.5 62.5q0 41 24.5 63t68.5 22z
M555 1035v-119h-376v119h376z" />
    <glyph glyph-name="uni022B" unicode="&#x22b;" horiz-adv-x="598" 
d="M299 510q82 0 143 -30.5t95 -88.5t34 -141q0 -82 -34 -140.5t-95 -89t-143 -30.5q-80 0 -141.5 30.5t-96 89t-34.5 140.5q0 83 34.5 141t96 88.5t141.5 30.5zM299 371q-22 0 -37.5 -11t-23.5 -38t-8 -72t8 -71.5t23.5 -38t37.5 -11.5q23 0 38 11.5t23 38t8 71.5t-8 72
t-23 38t-38 11zM183 716q46 0 71 -22t25 -63q0 -40 -25 -62.5t-71 -22.5q-44 0 -68.5 22.5t-24.5 62.5q0 41 24.5 63t68.5 22zM412 716q46 0 71 -22t25 -63q0 -40 -25 -62.5t-71 -22.5q-44 0 -68.5 22.5t-24.5 62.5q0 41 24.5 63t68.5 22zM487 875v-119h-376v119h376z" />
    <glyph glyph-name="uni022C" unicode="&#x22c;" horiz-adv-x="733" 
d="M367 670q103 0 176.5 -40.5t113 -116.5t39.5 -183t-39.5 -183t-113 -116.5t-176.5 -40.5q-102 0 -176.5 40.5t-114.5 116.5t-40 183t40 183t114.5 116.5t176.5 40.5zM367 514q-41 0 -67.5 -20.5t-40 -60.5t-13.5 -103q0 -62 13.5 -102.5t40 -61t67.5 -20.5q40 0 67 20.5
t40 61t13 102.5q0 63 -13 103t-40 60.5t-67 20.5zM571 879q-1 -57 -19 -94.5t-46.5 -56t-61.5 -18.5q-28 0 -48.5 8.5t-36 19t-28.5 18.5t-27 8q-15 0 -23 -12.5t-11 -39.5h-108q3 85 41.5 126.5t95.5 41.5q27 0 46 -8t32.5 -18.5t26 -18.5t26.5 -8q16 0 23.5 12.5
t10.5 39.5h107zM554 1047v-119h-376v119h376z" />
    <glyph glyph-name="uni022D" unicode="&#x22d;" horiz-adv-x="598" 
d="M299 510q82 0 143 -30.5t95 -88.5t34 -141q0 -82 -34 -140.5t-95 -89t-143 -30.5q-80 0 -141.5 30.5t-96 89t-34.5 140.5q0 83 34.5 141t96 88.5t141.5 30.5zM299 371q-22 0 -37.5 -11t-23.5 -38t-8 -72t8 -71.5t23.5 -38t37.5 -11.5q23 0 38 11.5t23 38t8 71.5t-8 72
t-23 38t-38 11zM503 719q-1 -57 -19 -94.5t-46.5 -56t-61.5 -18.5q-28 0 -48.5 8.5t-36 19t-28.5 18.5t-27 8q-15 0 -23 -12.5t-11 -39.5h-108q3 85 41.5 126.5t95.5 41.5q27 0 46 -8t32.5 -18.5t26 -18.5t26.5 -8q16 0 23.5 12.5t10.5 39.5h107zM487 887v-119h-376v119h376
z" />
    <glyph glyph-name="uni0230" unicode="&#x230;" horiz-adv-x="733" 
d="M367 670q103 0 176.5 -40.5t113 -116.5t39.5 -183t-39.5 -183t-113 -116.5t-176.5 -40.5q-102 0 -176.5 40.5t-114.5 116.5t-40 183t40 183t114.5 116.5t176.5 40.5zM367 514q-41 0 -67.5 -20.5t-40 -60.5t-13.5 -103q0 -62 13.5 -102.5t40 -61t67.5 -20.5q40 0 67 20.5
t40 61t13 102.5q0 63 -13 103t-40 60.5t-67 20.5zM367 884q52 0 78.5 -22t26.5 -66q0 -43 -26.5 -65t-78.5 -22q-51 0 -76.5 22t-25.5 65q0 44 25.5 66t76.5 22zM556 1039v-119h-376v119h376z" />
    <glyph glyph-name="uni0231" unicode="&#x231;" horiz-adv-x="598" 
d="M299 510q82 0 143 -30.5t95 -88.5t34 -141q0 -82 -34 -140.5t-95 -89t-143 -30.5q-80 0 -141.5 30.5t-96 89t-34.5 140.5q0 83 34.5 141t96 88.5t141.5 30.5zM299 371q-22 0 -37.5 -11t-23.5 -38t-8 -72t8 -71.5t23.5 -38t37.5 -11.5q23 0 38 11.5t23 38t8 71.5t-8 72
t-23 38t-38 11zM299 724q52 0 78.5 -22t26.5 -66q0 -43 -26.5 -65t-78.5 -22q-51 0 -76.5 22t-25.5 65q0 44 25.5 66t76.5 22zM489 879v-119h-376v119h376z" />
    <glyph glyph-name="uni0232" unicode="&#x232;" horiz-adv-x="687" 
d="M677 660l-231 -426v-234h-205v234l-232 426h207l80 -165l49 -115l48 115l81 165h203zM531 834v-119h-376v119h376z" />
    <glyph glyph-name="uni0233" unicode="&#x233;" horiz-adv-x="579" 
d="M585 500l-163 -470q-30 -90 -67.5 -143.5t-88.5 -77.5t-124 -24q-45 0 -82 9t-64 24l38 131q17 -10 36.5 -15t52.5 -5q31 0 48 8t25 29l7 19l-60 142l-146 373h221l60 -271l21 -111l25 114l62 268h199zM499 676v-119h-376v119h376z" />
    <glyph glyph-name="uni0237" unicode="&#x237;" horiz-adv-x="300" 
d="M251 500v-520q0 -69 -23 -112t-69 -63t-116 -20q-44 0 -79 8t-63 23l26 123q10 -7 24.5 -11t32.5 -4q30 0 47.5 16.5t17.5 57.5v502h202z" />
    <glyph glyph-name="uni0241" unicode="&#x241;" horiz-adv-x="632" 
d="M333 670q80 0 143 -26.5t99.5 -77.5t36.5 -125q0 -76 -27 -125.5t-72 -78.5t-102 -41v-196h-196l1 307q65 3 102.5 20.5t54 46.5t16.5 66q0 23 -9.5 38t-25.5 23.5t-37 8.5q-44 0 -69 -28.5t-33 -86.5l-197 62q14 60 49 108.5t99 76.5t167 28z" />
    <glyph glyph-name="uni0242" unicode="&#x242;" horiz-adv-x="577" 
d="M293 511q77 0 138 -20.5t97 -63t36 -106.5q0 -66 -26 -106.5t-68.5 -62.5t-93.5 -32v-120h-202v202q67 7 103.5 19t52 30.5t15.5 41.5q0 29 -16 43.5t-50 14.5q-35 0 -53.5 -22t-25.5 -65l-198 61q13 52 46 94t93 67t152 25z" />
    <glyph glyph-name="uni0259" unicode="&#x259;" horiz-adv-x="581" 
d="M285 -10q-83 0 -140 30.5t-87 85t-30 125.5q0 12 1 24t3 24h392v-82h-304l96 53q-1 -8 -1 -14.5v-12.5q0 -47 18 -71.5t55 -24.5q38 0 56 28t18 97q0 47 -9.5 73.5t-27.5 36.5t-46 10q-32 0 -49 -17t-25 -41l-168 45q17 48 52.5 81.5t85.5 51.5t110 18q87 0 147 -30.5
t91 -88.5t31 -141q0 -123 -70 -191.5t-199 -68.5z" />
    <glyph glyph-name="uni02B9" unicode="&#x2b9;" horiz-adv-x="600" 
d="M271 674l-95 -288h-139l64 288h170z" />
    <glyph glyph-name="uni02BA" unicode="&#x2ba;" horiz-adv-x="501" 
d="M490 674l-95 -288h-139l64 288h170zM271 674l-95 -288h-139l64 288h170z" />
    <glyph glyph-name="uni02BB" unicode="&#x2bb;" horiz-adv-x="600" 
d="M154 770l-34 -216h-161l71 216h124z" />
    <glyph glyph-name="uni02BC" unicode="&#x2bc;" horiz-adv-x="600" 
d="M157 686q42 0 68.5 -18.5t39 -48.5t12.5 -64q0 -50 -22 -95t-56.5 -78t-71.5 -48l-78 55q27 12 52 29t44.5 37t29.5 41l-5 4q-6 -4 -14.5 -6.5t-22.5 -2.5q-20 0 -40 10t-34 29.5t-14 49.5q0 37 16 60t42 34.5t54 11.5z" />
    <glyph glyph-name="uni02BE" unicode="&#x2be;" horiz-adv-x="393" 
d="M137 706q74 0 115.5 -39.5t41.5 -102.5t-41.5 -102.5t-115.5 -39.5h-35v86h39q26 0 42.5 15t16.5 41q0 25 -16.5 40t-42.5 15h-39v87h35z" />
    <glyph glyph-name="uni02BF" unicode="&#x2bf;" horiz-adv-x="393" 
d="M256 422q-74 0 -115.5 39.5t-41.5 102.5t41.5 102.5t115.5 39.5h34v-87h-38q-27 0 -43.5 -15t-16.5 -40q0 -26 16.5 -41t43.5 -15h38v-86h-34z" />
    <glyph glyph-name="circumflex" unicode="&#x2c6;" horiz-adv-x="500" 
d="M453 552h-141l-62 80l-62 -80h-141l108 176h190z" />
    <glyph glyph-name="caron" unicode="&#x2c7;" horiz-adv-x="500" 
d="M453 734l-107 -175h-191l-108 175h141l62 -79l63 79h140z" />
    <glyph glyph-name="uni02C8" unicode="&#x2c8;" horiz-adv-x="262" 
d="M65 706h132v-268h-132v268z" />
    <glyph glyph-name="uni02C9" unicode="&#x2c9;" horiz-adv-x="500" 
d="M438 678v-119h-376v119h376z" />
    <glyph glyph-name="uni02CA" unicode="&#x2ca;" horiz-adv-x="600" 
d="M240 734h183l-103 -175h-143z" />
    <glyph glyph-name="uni02CB" unicode="&#x2cb;" horiz-adv-x="581" 
d="M351 734l63 -175h-144l-102 175h183z" />
    <glyph glyph-name="uni02CC" unicode="&#x2cc;" horiz-adv-x="262" 
d="M65 60h132v-268h-132v268z" />
    <glyph glyph-name="breve" unicode="&#x2d8;" horiz-adv-x="500" 
d="M426 715q0 -79 -47 -123.5t-129 -44.5q-81 0 -128.5 44.5t-47.5 123.5h125q0 -28 13 -44.5t38 -16.5q26 0 38.5 16.5t12.5 44.5h125z" />
    <glyph glyph-name="dotaccent" unicode="&#x2d9;" horiz-adv-x="500" 
d="M249 724q52 0 78.5 -22t26.5 -66q0 -43 -26.5 -65t-78.5 -22q-51 0 -76.5 22t-25.5 65q0 44 25.5 66t76.5 22z" />
    <glyph glyph-name="ring" unicode="&#x2da;" horiz-adv-x="500" 
d="M250 799q66 0 105.5 -35t39.5 -94q0 -58 -39.5 -93t-105.5 -35q-65 0 -104.5 35t-39.5 93q0 59 39.5 94t104.5 35zM251 717q-22 0 -35 -12.5t-13 -33.5q0 -22 13 -34.5t35 -12.5q21 0 34 12.5t13 34.5q0 21 -13 33.5t-34 12.5z" />
    <glyph glyph-name="ogonek" unicode="&#x2db;" horiz-adv-x="500" 
d="M270 -215q-66 0 -103 30.5t-37 83.5q0 60 44 93t116 41l75 -22q-36 -11 -60 -21.5t-35.5 -23t-11.5 -31.5t13.5 -30t37.5 -11q12 0 23.5 2.5t19.5 6.5l19 -97q-21 -12 -44.5 -16.5t-56.5 -4.5z" />
    <glyph glyph-name="tilde" unicode="&#x2dc;" horiz-adv-x="500" 
d="M454 719q-1 -57 -19 -94.5t-46.5 -56t-61.5 -18.5q-28 0 -48.5 8.5t-36 19t-28.5 18.5t-27 8q-15 0 -23 -12.5t-11 -39.5h-108q3 85 41.5 126.5t95.5 41.5q27 0 46 -8t32.5 -18.5t26 -18.5t26.5 -8q16 0 23.5 12.5t10.5 39.5h107z" />
    <glyph glyph-name="hungarumlaut" unicode="&#x2dd;" horiz-adv-x="500" 
d="M247 559l67 175h164l-94 -175h-137zM23 559l67 175h163l-94 -175h-136z" />
    <glyph glyph-name="gravecomb" unicode="&#x300;" horiz-adv-x="0" 
d="M12 734l63 -175h-144l-102 175h183z" />
    <glyph glyph-name="acutecomb" unicode="&#x301;" horiz-adv-x="0" 
d="M-23 734h183l-103 -175h-143z" />
    <glyph glyph-name="uni0302" unicode="&#x302;" horiz-adv-x="0" 
d="M203 552h-141l-62 80l-62 -80h-141l108 176h190z" />
    <glyph glyph-name="tildecomb" unicode="&#x303;" horiz-adv-x="0" 
d="M204 719q-1 -57 -19 -94.5t-46.5 -56t-61.5 -18.5q-28 0 -48.5 8.5t-36 19t-28.5 18.5t-27 8q-15 0 -23 -12.5t-11 -39.5h-108q3 85 41.5 126.5t95.5 41.5q27 0 46 -8t32.5 -18.5t26 -18.5t26.5 -8q16 0 23.5 12.5t10.5 39.5h107z" />
    <glyph glyph-name="uni0304" unicode="&#x304;" horiz-adv-x="0" 
d="M188 678v-119h-376v119h376z" />
    <glyph glyph-name="uni0306" unicode="&#x306;" horiz-adv-x="0" 
d="M176 715q0 -79 -47 -123.5t-129 -44.5q-81 0 -128.5 44.5t-47.5 123.5h125q0 -28 13 -44.5t38 -16.5q26 0 38.5 16.5t12.5 44.5h125z" />
    <glyph glyph-name="uni0307" unicode="&#x307;" horiz-adv-x="0" 
d="M0 724q52 0 78.5 -22t26.5 -66q0 -43 -26.5 -65t-78.5 -22q-51 0 -76.5 22t-25.5 65q0 44 25.5 66t76.5 22z" />
    <glyph glyph-name="uni0308" unicode="&#x308;" horiz-adv-x="0" 
d="M-116 716q46 0 71 -22t25 -63q0 -40 -25 -62.5t-71 -22.5q-44 0 -68.5 22.5t-24.5 62.5q0 41 24.5 63t68.5 22zM113 716q46 0 71 -22t25 -63q0 -40 -25 -62.5t-71 -22.5q-44 0 -68.5 22.5t-24.5 62.5q0 41 24.5 63t68.5 22z" />
    <glyph glyph-name="hookabovecomb" unicode="&#x309;" horiz-adv-x="0" 
d="M283 542l-40 57q29 12 40.5 24.5t11.5 25.5t-8 22t-24 9q-14 0 -22 -7.5t-14 -20.5l-89 40q12 44 49 67t89 23q33 0 62.5 -12t48 -36t18.5 -60q0 -40 -19.5 -66.5t-48 -42t-54.5 -23.5z" />
    <glyph glyph-name="uni030A" unicode="&#x30a;" horiz-adv-x="0" 
d="M-1 799q66 0 105.5 -35t39.5 -94q0 -58 -39.5 -93t-105.5 -35q-65 0 -104.5 35t-39.5 93q0 59 39.5 94t104.5 35zM0 717q-22 0 -35 -12.5t-13 -33.5q0 -22 13 -34.5t35 -12.5q21 0 34 12.5t13 34.5q0 21 -13 33.5t-34 12.5z" />
    <glyph glyph-name="uni030B" unicode="&#x30b;" horiz-adv-x="0" 
d="M33 559l67 175h164l-94 -175h-137zM-191 559l67 175h163l-94 -175h-136z" />
    <glyph glyph-name="uni030C" unicode="&#x30c;" horiz-adv-x="0" 
d="M198 734l-107 -175h-191l-108 175h141l62 -79l63 79h140z" />
    <glyph glyph-name="uni030F" unicode="&#x30f;" horiz-adv-x="0" 
d="M-35 559h-137l-94 175h164zM190 559h-137l-94 175h164z" />
    <glyph glyph-name="uni0311" unicode="&#x311;" horiz-adv-x="0" 
d="M176 547h-125q0 28 -12.5 44.5t-38.5 16.5q-25 0 -38 -16.5t-13 -44.5h-125q0 80 47.5 124t128.5 44q82 0 129 -44t47 -124z" />
    <glyph glyph-name="uni0312" unicode="&#x312;" horiz-adv-x="0" 
d="M393 770l-34 -216h-161l71 216h124z" />
    <glyph glyph-name="uni031B" unicode="&#x31b;" horiz-adv-x="0" 
d="M276 400v100q27 0 42.5 24.5t15.5 82.5h132q0 -107 -50.5 -157t-139.5 -50z" />
    <glyph glyph-name="dotbelowcomb" unicode="&#x323;" horiz-adv-x="0" 
d="M0 -224q-51 0 -76.5 22t-25.5 66q0 43 25.5 65t76.5 22q52 0 78.5 -22t26.5 -65q0 -44 -26.5 -66t-78.5 -22z" />
    <glyph glyph-name="uni0324" unicode="&#x324;" horiz-adv-x="0" 
d="M-116 -46q46 0 71 -22t25 -63q0 -40 -25 -62.5t-71 -22.5q-44 0 -68.5 22.5t-24.5 62.5q0 41 24.5 63t68.5 22zM113 -46q46 0 71 -22t25 -63q0 -40 -25 -62.5t-71 -22.5q-44 0 -68.5 22.5t-24.5 62.5q0 41 24.5 63t68.5 22z" />
    <glyph glyph-name="uni0326" unicode="&#x326;" horiz-adv-x="0" 
d="M104 -55l-73 -187h-128l28 187h173z" />
    <glyph glyph-name="uni0327" unicode="&#x327;" horiz-adv-x="0" 
d="M-85 12l40 28q86 -9 127.5 -40t41.5 -87q0 -59 -39 -93.5t-109 -34.5q-41 0 -64 9t-41 20l30 90q12 -8 25.5 -12.5t32.5 -4.5q25 0 40.5 14t15.5 38q0 22 -21.5 39.5t-78.5 33.5z" />
    <glyph glyph-name="uni0328" unicode="&#x328;" horiz-adv-x="0" 
d="M-95 -215q-66 0 -103 30.5t-37 83.5q0 60 44 93t116 41l75 -22q-36 -11 -60 -21.5t-35.5 -23t-11.5 -31.5t13.5 -30t37.5 -11q12 0 23.5 2.5t19.5 6.5l19 -97q-21 -12 -44.5 -16.5t-56.5 -4.5z" />
    <glyph glyph-name="uni032E" unicode="&#x32e;" horiz-adv-x="0" 
d="M176 -47q0 -79 -47 -123.5t-129 -44.5q-81 0 -128.5 44.5t-47.5 123.5h125q0 -28 13 -44.5t38 -16.5q26 0 38.5 16.5t12.5 44.5h125z" />
    <glyph glyph-name="uni0331" unicode="&#x331;" horiz-adv-x="0" 
d="M188 -59v-119h-376v119h376z" />
    <glyph glyph-name="uni0335" unicode="&#x335;" horiz-adv-x="0" 
d="M248 385v-109h-496v109h496z" />
    <glyph glyph-name="uni0338" unicode="&#x338;" horiz-adv-x="0" 
d="M42 -23l449 545h67l-449 -545h-67z" />
    <glyph glyph-name="uni03A9" unicode="&#x3a9;" horiz-adv-x="774" 
d="M52 0v149h231l-23 -20q-103 23 -153 88.5t-50 161.5q0 87 39.5 152.5t114 102t176.5 36.5q103 0 177 -36.5t113.5 -102t39.5 -152.5q0 -96 -50 -161.5t-154 -88.5l-22 20h231v-149h-302v150q48 5 70.5 57t22.5 130q0 60 -14 100.5t-42 60.5t-70 20t-70 -20t-42 -60.5
t-14 -100.5q0 -52 9.5 -93t30 -65.5t53.5 -28.5v-150h-302z" />
    <glyph glyph-name="uni03BC" unicode="&#x3bc;" horiz-adv-x="621" 
d="M49 -210v710h202v-286q0 -40 13.5 -56.5t40.5 -16.5q20 0 34.5 10.5t22.5 32t8 55.5v261h202v-500h-180l-6 94q-19 -51 -54.5 -77t-82.5 -26q-16 0 -30 3t-26 10l58 83v-297h-202z" />
    <glyph glyph-name="pi" unicode="&#x3c0;" horiz-adv-x="808" 
d="M135 0v364h-117v136h762v-136h-125v-162q0 -26 9.5 -43.5t30 -25.5t52.5 -4l-16 -133q-109 -8 -170 8.5t-84.5 55t-23.5 98.5v206h-116v-364h-202z" />
    <glyph glyph-name="uni1E08" unicode="&#x1e08;" horiz-adv-x="679" 
d="M664 196q-18 -73 -60.5 -119t-103 -66.5t-133.5 -20.5q-102 0 -176.5 40.5t-114.5 116.5t-40 183t40 183t114.5 116.5t175.5 40.5q72 0 132.5 -20t102.5 -62t57 -109l-177 -71q-11 64 -38.5 85t-70.5 21q-40 0 -68.5 -20.5t-43 -61t-14.5 -102.5q0 -61 13.5 -102
t42 -61.5t74.5 -20.5q41 0 69 24t37 75zM271 12l40 28q86 -9 127.5 -40t41.5 -87q0 -59 -39 -93.5t-109 -34.5q-41 0 -64 9t-41 20l30 90q12 -8 25.5 -12.5t32.5 -4.5q25 0 40.5 14t15.5 38q0 22 -21.5 39.5t-78.5 33.5zM336 881h176l-91 -166h-144z" />
    <glyph glyph-name="uni1E09" unicode="&#x1e09;" horiz-adv-x="569" 
d="M298 510q84 0 138.5 -23.5t82.5 -61t32 -78.5l-187 -57q-3 41 -16.5 61t-42.5 20q-25 0 -42 -12t-25 -39t-8 -72q0 -46 9.5 -72t27 -36.5t39.5 -10.5q20 0 32.5 8.5t20.5 25t10 39.5l181 -57q-4 -43 -34.5 -78t-83.5 -56t-125 -21q-86 0 -149 30.5t-97 88.5t-34 141
t34 141t95 88.5t142 30.5zM214 12l40 28q86 -9 127.5 -40t41.5 -87q0 -59 -39 -93.5t-109 -34.5q-41 0 -64 9t-41 20l30 90q12 -8 25.5 -12.5t32.5 -4.5q25 0 40.5 14t15.5 38q0 22 -21.5 39.5t-78.5 33.5zM273 734h183l-103 -175h-143z" />
    <glyph glyph-name="uni1E0C" unicode="&#x1e0c;" horiz-adv-x="717" 
d="M364 660q155 0 236 -86t81 -244q0 -157 -81 -243.5t-236 -86.5h-303v660h303zM339 149q74 0 103 44.5t29 136.5t-29 136.5t-103 44.5h-74v-362h74zM334 -224q-51 0 -76.5 22t-25.5 66q0 43 25.5 65t76.5 22q52 0 78.5 -22t26.5 -65q0 -44 -26.5 -66t-78.5 -22z" />
    <glyph glyph-name="uni1E0D" unicode="&#x1e0d;" horiz-adv-x="627" 
d="M229 -10q-61 0 -105.5 30.5t-68 88.5t-23.5 139q0 83 24 141.5t69.5 89.5t106.5 31q71 0 111 -44.5t51 -113.5l-18 -25v379h202v-706h-182l-12 187l23 -23q-6 -51 -29.5 -90.5t-61 -61.5t-87.5 -22zM307 134q22 0 37 13t23.5 39t8.5 65q0 37 -7.5 62.5t-23 38.5t-38.5 13
q-33 0 -52.5 -25.5t-19.5 -89.5t19 -90t53 -26zM309 -224q-51 0 -76.5 22t-25.5 66q0 43 25.5 65t76.5 22q52 0 78.5 -22t26.5 -65q0 -44 -26.5 -66t-78.5 -22z" />
    <glyph glyph-name="uni1E0E" unicode="&#x1e0e;" horiz-adv-x="717" 
d="M364 660q155 0 236 -86t81 -244q0 -157 -81 -243.5t-236 -86.5h-303v660h303zM339 149q74 0 103 44.5t29 136.5t-29 136.5t-103 44.5h-74v-362h74zM522 -59v-119h-376v119h376z" />
    <glyph glyph-name="uni1E0F" unicode="&#x1e0f;" horiz-adv-x="627" 
d="M229 -10q-61 0 -105.5 30.5t-68 88.5t-23.5 139q0 83 24 141.5t69.5 89.5t106.5 31q71 0 111 -44.5t51 -113.5l-18 -25v379h202v-706h-182l-12 187l23 -23q-6 -51 -29.5 -90.5t-61 -61.5t-87.5 -22zM307 134q22 0 37 13t23.5 39t8.5 65q0 37 -7.5 62.5t-23 38.5t-38.5 13
q-33 0 -52.5 -25.5t-19.5 -89.5t19 -90t53 -26zM497 -59v-119h-376v119h376z" />
    <glyph glyph-name="uni1E14" unicode="&#x1e14;" horiz-adv-x="628" 
d="M61 0v660h532v-153h-328v-107h262v-142h-262v-105h341v-153h-545zM515 838v-119h-376v119h376zM350 1057l59 -166h-144l-91 166h176z" />
    <glyph glyph-name="uni1E15" unicode="&#x1e15;" horiz-adv-x="579" 
d="M305 -10q-86 0 -148.5 30.5t-96 88.5t-33.5 141t34 141t95 88.5t141 30.5q82 0 139.5 -30.5t88 -84.5t30.5 -126q0 -17 -1.5 -34t-3.5 -29h-393v88h305l-96 -37q0 57 -15.5 86.5t-53.5 29.5q-26 0 -43.5 -12t-26 -40t-8.5 -74t10.5 -72.5t29.5 -36.5t48 -10q32 0 50 13
t26 36l162 -48q-12 -46 -48.5 -77t-86.5 -46.5t-105 -15.5zM483 678v-119h-376v119h376zM318 897l59 -166h-144l-91 166h176z" />
    <glyph glyph-name="uni1E16" unicode="&#x1e16;" horiz-adv-x="628" 
d="M61 0v660h532v-153h-328v-107h262v-142h-262v-105h341v-153h-545zM515 838v-119h-376v119h376zM304 1057h176l-91 -166h-144z" />
    <glyph glyph-name="uni1E17" unicode="&#x1e17;" horiz-adv-x="579" 
d="M305 -10q-86 0 -148.5 30.5t-96 88.5t-33.5 141t34 141t95 88.5t141 30.5q82 0 139.5 -30.5t88 -84.5t30.5 -126q0 -17 -1.5 -34t-3.5 -29h-393v88h305l-96 -37q0 57 -15.5 86.5t-53.5 29.5q-26 0 -43.5 -12t-26 -40t-8.5 -74t10.5 -72.5t29.5 -36.5t48 -10q32 0 50 13
t26 36l162 -48q-12 -46 -48.5 -77t-86.5 -46.5t-105 -15.5zM483 678v-119h-376v119h376zM272 897h176l-91 -166h-144z" />
    <glyph glyph-name="uni1E1C" unicode="&#x1e1c;" horiz-adv-x="628" 
d="M61 0v660h532v-153h-328v-107h262v-142h-262v-105h341v-153h-545zM258 12l40 28q86 -9 127.5 -40t41.5 -87q0 -59 -39 -93.5t-109 -34.5q-41 0 -64 9t-41 20l30 90q12 -8 25.5 -12.5t32.5 -4.5q25 0 40.5 14t15.5 38q0 22 -21.5 39.5t-78.5 33.5zM503 875
q0 -79 -47 -123.5t-129 -44.5q-81 0 -128.5 44.5t-47.5 123.5h125q0 -28 13 -44.5t38 -16.5q26 0 38.5 16.5t12.5 44.5h125z" />
    <glyph glyph-name="uni1E1D" unicode="&#x1e1d;" horiz-adv-x="579" 
d="M305 -10q-86 0 -148.5 30.5t-96 88.5t-33.5 141t34 141t95 88.5t141 30.5q82 0 139.5 -30.5t88 -84.5t30.5 -126q0 -17 -1.5 -34t-3.5 -29h-393v88h305l-96 -37q0 57 -15.5 86.5t-53.5 29.5q-26 0 -43.5 -12t-26 -40t-8.5 -74t10.5 -72.5t29.5 -36.5t48 -10q32 0 50 13
t26 36l162 -48q-12 -46 -48.5 -77t-86.5 -46.5t-105 -15.5zM215 12l40 28q86 -9 127.5 -40t41.5 -87q0 -59 -39 -93.5t-109 -34.5q-41 0 -64 9t-41 20l30 90q12 -8 25.5 -12.5t32.5 -4.5q25 0 40.5 14t15.5 38q0 22 -21.5 39.5t-78.5 33.5zM471 715q0 -79 -47 -123.5
t-129 -44.5q-81 0 -128.5 44.5t-47.5 123.5h125q0 -28 13 -44.5t38 -16.5q26 0 38.5 16.5t12.5 44.5h125z" />
    <glyph glyph-name="uni1E20" unicode="&#x1e20;" horiz-adv-x="722" 
d="M337 -10q-87 0 -155 38t-107 114t-39 186q0 108 40.5 184.5t116.5 117t180 40.5q117 0 188.5 -42t110.5 -133l-190 -71q-10 49 -38 69.5t-70 20.5q-43 0 -71.5 -20.5t-42.5 -61.5t-14 -102q0 -66 15.5 -108t47.5 -61.5t79 -19.5q24 0 44 5.5t35.5 16.5t23.5 27.5t8 38.5
v5h-130v131h302v-365h-137l-16 167l32 -32q-18 -70 -72 -107.5t-141 -37.5zM554 838v-119h-376v119h376z" />
    <glyph glyph-name="uni1E21" unicode="&#x1e21;" horiz-adv-x="569" 
d="M383 678v-119h-252v119h252zM555 649l14 -129q-9 2 -16 2.5t-14 0.5q-43 0 -63 -21.5t-20 -50.5l-63 21q0 42 14 83t45.5 68t83.5 27h9t10 -1zM377 127q93 0 141.5 -37.5t48.5 -111.5q0 -66 -34.5 -109t-98.5 -63.5t-154 -20.5q-142 0 -202.5 32t-60.5 91q0 42 37 66.5
t121 25.5l-3 -17q-71 8 -103.5 38.5t-32.5 80.5q0 51 41 81t105 32l66 -30h-18q-36 -1 -50 -9t-14 -21q0 -14 11.5 -21t36.5 -7h163zM282 -89q45 0 74.5 4.5t44 13.5t14.5 21q0 10 -7 15.5t-27 5.5h-187q-14 0 -22 -7t-8 -18q0 -17 31.5 -26t86.5 -9zM292 510
q83 0 139.5 -19.5t86 -57t29.5 -94.5q0 -55 -29.5 -93t-86 -57t-139.5 -19q-125 0 -189.5 43t-64.5 126q0 57 29 94.5t86 57t139 19.5zM292 401q-26 0 -41.5 -15t-15.5 -46q0 -30 15.5 -45.5t41.5 -15.5t41.5 15.5t15.5 45.5q0 31 -15.5 46t-41.5 15z" />
    <glyph glyph-name="uni1E24" unicode="&#x1e24;" horiz-adv-x="745" 
d="M684 660v-660h-205v660h205zM265 660v-660h-204v660h204zM591 409v-153h-431v153h431zM373 -224q-51 0 -76.5 22t-25.5 66q0 43 25.5 65t76.5 22q52 0 78.5 -22t26.5 -65q0 -44 -26.5 -66t-78.5 -22z" />
    <glyph glyph-name="uni1E25" unicode="&#x1e25;" horiz-adv-x="620" 
d="M49 0v706h202v-303q21 52 61.5 79.5t95.5 27.5q51 0 87.5 -19.5t56.5 -58t20 -94.5v-338h-202v284q0 43 -13.5 59t-37.5 16q-20 0 -35.5 -10t-24 -31.5t-8.5 -54.5v-263h-202zM310 -224q-51 0 -76.5 22t-25.5 66q0 43 25.5 65t76.5 22q52 0 78.5 -22t26.5 -65
q0 -44 -26.5 -66t-78.5 -22z" />
    <glyph glyph-name="uni1E2A" unicode="&#x1e2a;" horiz-adv-x="745" 
d="M684 660v-660h-205v660h205zM265 660v-660h-204v660h204zM591 409v-153h-431v153h431zM549 -47q0 -79 -47 -123.5t-129 -44.5q-81 0 -128.5 44.5t-47.5 123.5h125q0 -28 13 -44.5t38 -16.5q26 0 38.5 16.5t12.5 44.5h125z" />
    <glyph glyph-name="uni1E2B" unicode="&#x1e2b;" horiz-adv-x="620" 
d="M49 0v706h202v-303q21 52 61.5 79.5t95.5 27.5q51 0 87.5 -19.5t56.5 -58t20 -94.5v-338h-202v284q0 43 -13.5 59t-37.5 16q-20 0 -35.5 -10t-24 -31.5t-8.5 -54.5v-263h-202zM486 -47q0 -79 -47 -123.5t-129 -44.5q-81 0 -128.5 44.5t-47.5 123.5h125q0 -28 13 -44.5
t38 -16.5q26 0 38.5 16.5t12.5 44.5h125z" />
    <glyph glyph-name="uni1E2E" unicode="&#x1e2e;" horiz-adv-x="326" 
d="M265 660v-660h-204v660h204zM47 876q46 0 71 -22t25 -63q0 -40 -25 -62.5t-71 -22.5q-44 0 -68.5 22.5t-24.5 62.5q0 41 24.5 63t68.5 22zM276 876q46 0 71 -22t25 -63q0 -40 -25 -62.5t-71 -22.5q-44 0 -68.5 22.5t-24.5 62.5q0 41 24.5 63t68.5 22zM140 1078h176
l-91 -166h-144z" />
    <glyph glyph-name="uni1E2F" unicode="&#x1e2f;" horiz-adv-x="300" 
d="M251 500v-500h-202v500h202zM34 716q46 0 71 -22t25 -63q0 -40 -25 -62.5t-71 -22.5q-44 0 -68.5 22.5t-24.5 62.5q0 41 24.5 63t68.5 22zM263 716q46 0 71 -22t25 -63q0 -40 -25 -62.5t-71 -22.5q-44 0 -68.5 22.5t-24.5 62.5q0 41 24.5 63t68.5 22zM127 918h176
l-91 -166h-144z" />
    <glyph glyph-name="uni1E36" unicode="&#x1e36;" 
d="M265 153h314v-153h-518v660h204v-507zM326 -224q-51 0 -76.5 22t-25.5 66q0 43 25.5 65t76.5 22q52 0 78.5 -22t26.5 -65q0 -44 -26.5 -66t-78.5 -22z" />
    <glyph glyph-name="uni1E37" unicode="&#x1e37;" horiz-adv-x="334" 
d="M250 706v-520q0 -32 10 -46t35 -14q12 0 21.5 1.5t20.5 5.5l-11 -114q-18 -13 -50.5 -21t-64.5 -8q-87 0 -125 38.5t-38 128.5v549h202zM193 -224q-51 0 -76.5 22t-25.5 66q0 43 25.5 65t76.5 22q52 0 78.5 -22t26.5 -65q0 -44 -26.5 -66t-78.5 -22z" />
    <glyph glyph-name="uni1E3A" unicode="&#x1e3a;" 
d="M265 153h314v-153h-518v660h204v-507zM514 -59v-119h-376v119h376z" />
    <glyph glyph-name="uni1E3B" unicode="&#x1e3b;" horiz-adv-x="334" 
d="M339 -59v-119h-292v119h292zM250 706v-520q0 -32 10 -46t35 -14q12 0 21.5 1.5t20.5 5.5l-11 -114q-18 -13 -50.5 -21t-64.5 -8q-87 0 -125 38.5t-38 128.5v549h202z" />
    <glyph glyph-name="uni1E42" unicode="&#x1e42;" horiz-adv-x="930" 
d="M870 660v-660h-180v264l4 213h-2l-145 -477h-164l-143 477h-3l4 -213v-264h-180v660h288l89 -313l33 -131h2l33 131l89 313h275zM465 -224q-51 0 -76.5 22t-25.5 66q0 43 25.5 65t76.5 22q52 0 78.5 -22t26.5 -65q0 -44 -26.5 -66t-78.5 -22z" />
    <glyph glyph-name="uni1E43" unicode="&#x1e43;" horiz-adv-x="937" 
d="M49 0v500h182l5 -103q22 55 66 84t105 29q56 0 95.5 -25.5t56.5 -74.5q16 33 40.5 55t57 33.5t69.5 11.5q50 0 86.5 -19.5t56.5 -58t20 -94.5v-338h-202v288q0 40 -13 55.5t-37 15.5q-20 0 -35.5 -10t-23.5 -31.5t-8 -53.5v-264h-202v288q0 40 -13 55.5t-37 15.5
q-19 0 -34.5 -10t-24 -31.5t-8.5 -54.5v-263h-202zM469 -224q-51 0 -76.5 22t-25.5 66q0 43 25.5 65t76.5 22q52 0 78.5 -22t26.5 -65q0 -44 -26.5 -66t-78.5 -22z" />
    <glyph glyph-name="uni1E44" unicode="&#x1e44;" horiz-adv-x="744" 
d="M683 660v-660h-224l-180 327l-42 89h-2l4 -130v-286h-178v660h223l180 -327l43 -89h1l-4 130v286h179zM373 884q52 0 78.5 -22t26.5 -66q0 -43 -26.5 -65t-78.5 -22q-51 0 -76.5 22t-25.5 65q0 44 25.5 66t76.5 22z" />
    <glyph glyph-name="uni1E45" unicode="&#x1e45;" horiz-adv-x="620" 
d="M49 0v500h182l9 -193l-21 22q8 58 33 98.5t64.5 61.5t91.5 21q51 0 87.5 -19.5t56.5 -58t20 -94.5v-338h-202v286q0 42 -13.5 57.5t-38.5 15.5q-19 0 -34.5 -9.5t-24 -30.5t-8.5 -55v-264h-202zM311 724q52 0 78.5 -22t26.5 -66q0 -43 -26.5 -65t-78.5 -22
q-51 0 -76.5 22t-25.5 65q0 44 25.5 66t76.5 22z" />
    <glyph glyph-name="uni1E46" unicode="&#x1e46;" horiz-adv-x="744" 
d="M683 660v-660h-224l-180 327l-42 89h-2l4 -130v-286h-178v660h223l180 -327l43 -89h1l-4 130v286h179zM378 -224q-51 0 -76.5 22t-25.5 66q0 43 25.5 65t76.5 22q52 0 78.5 -22t26.5 -65q0 -44 -26.5 -66t-78.5 -22z" />
    <glyph glyph-name="uni1E47" unicode="&#x1e47;" horiz-adv-x="620" 
d="M49 0v500h182l9 -193l-21 22q8 58 33 98.5t64.5 61.5t91.5 21q51 0 87.5 -19.5t56.5 -58t20 -94.5v-338h-202v286q0 42 -13.5 57.5t-38.5 15.5q-19 0 -34.5 -9.5t-24 -30.5t-8.5 -55v-264h-202zM310 -224q-51 0 -76.5 22t-25.5 66q0 43 25.5 65t76.5 22q52 0 78.5 -22
t26.5 -65q0 -44 -26.5 -66t-78.5 -22z" />
    <glyph glyph-name="uni1E48" unicode="&#x1e48;" horiz-adv-x="744" 
d="M683 660v-660h-224l-180 327l-42 89h-2l4 -130v-286h-178v660h223l180 -327l43 -89h1l-4 130v286h179zM566 -59v-119h-376v119h376z" />
    <glyph glyph-name="uni1E49" unicode="&#x1e49;" horiz-adv-x="620" 
d="M49 0v500h182l9 -193l-21 22q8 58 33 98.5t64.5 61.5t91.5 21q51 0 87.5 -19.5t56.5 -58t20 -94.5v-338h-202v286q0 42 -13.5 57.5t-38.5 15.5q-19 0 -34.5 -9.5t-24 -30.5t-8.5 -55v-264h-202zM498 -59v-119h-376v119h376z" />
    <glyph glyph-name="uni1E4C" unicode="&#x1e4c;" horiz-adv-x="733" 
d="M367 670q103 0 176.5 -40.5t113 -116.5t39.5 -183t-39.5 -183t-113 -116.5t-176.5 -40.5q-102 0 -176.5 40.5t-114.5 116.5t-40 183t40 183t114.5 116.5t176.5 40.5zM367 514q-41 0 -67.5 -20.5t-40 -60.5t-13.5 -103q0 -62 13.5 -102.5t40 -61t67.5 -20.5q40 0 67 20.5
t40 61t13 102.5q0 63 -13 103t-40 60.5t-67 20.5zM571 879q-1 -57 -19 -94.5t-46.5 -56t-61.5 -18.5q-28 0 -48.5 8.5t-36 19t-28.5 18.5t-27 8q-15 0 -23 -12.5t-11 -39.5h-108q3 85 41.5 126.5t95.5 41.5q27 0 46 -8t32.5 -18.5t26 -18.5t26.5 -8q16 0 23.5 12.5
t10.5 39.5h107zM343 1090h176l-91 -166h-144z" />
    <glyph glyph-name="uni1E4D" unicode="&#x1e4d;" horiz-adv-x="598" 
d="M299 510q82 0 143 -30.5t95 -88.5t34 -141q0 -82 -34 -140.5t-95 -89t-143 -30.5q-80 0 -141.5 30.5t-96 89t-34.5 140.5q0 83 34.5 141t96 88.5t141.5 30.5zM299 371q-22 0 -37.5 -11t-23.5 -38t-8 -72t8 -71.5t23.5 -38t37.5 -11.5q23 0 38 11.5t23 38t8 71.5t-8 72
t-23 38t-38 11zM503 719q-1 -57 -19 -94.5t-46.5 -56t-61.5 -18.5q-28 0 -48.5 8.5t-36 19t-28.5 18.5t-27 8q-15 0 -23 -12.5t-11 -39.5h-108q3 85 41.5 126.5t95.5 41.5q27 0 46 -8t32.5 -18.5t26 -18.5t26.5 -8q16 0 23.5 12.5t10.5 39.5h107zM276 930h176l-91 -166h-144
z" />
    <glyph glyph-name="uni1E4E" unicode="&#x1e4e;" horiz-adv-x="733" 
d="M367 670q103 0 176.5 -40.5t113 -116.5t39.5 -183t-39.5 -183t-113 -116.5t-176.5 -40.5q-102 0 -176.5 40.5t-114.5 116.5t-40 183t40 183t114.5 116.5t176.5 40.5zM367 514q-41 0 -67.5 -20.5t-40 -60.5t-13.5 -103q0 -62 13.5 -102.5t40 -61t67.5 -20.5q40 0 67 20.5
t40 61t13 102.5q0 63 -13 103t-40 60.5t-67 20.5zM571 879q-1 -57 -19 -94.5t-46.5 -56t-61.5 -18.5q-28 0 -48.5 8.5t-36 19t-28.5 18.5t-27 8q-15 0 -23 -12.5t-11 -39.5h-108q3 85 41.5 126.5t95.5 41.5q27 0 46 -8t32.5 -18.5t26 -18.5t26.5 -8q16 0 23.5 12.5
t10.5 39.5h107zM250 1085q46 0 71 -22t25 -63q0 -40 -25 -62.5t-71 -22.5q-44 0 -68.5 22.5t-24.5 62.5q0 41 24.5 63t68.5 22zM479 1085q46 0 71 -22t25 -63q0 -40 -25 -62.5t-71 -22.5q-44 0 -68.5 22.5t-24.5 62.5q0 41 24.5 63t68.5 22z" />
    <glyph glyph-name="uni1E4F" unicode="&#x1e4f;" horiz-adv-x="598" 
d="M299 510q82 0 143 -30.5t95 -88.5t34 -141q0 -82 -34 -140.5t-95 -89t-143 -30.5q-80 0 -141.5 30.5t-96 89t-34.5 140.5q0 83 34.5 141t96 88.5t141.5 30.5zM299 371q-22 0 -37.5 -11t-23.5 -38t-8 -72t8 -71.5t23.5 -38t37.5 -11.5q23 0 38 11.5t23 38t8 71.5t-8 72
t-23 38t-38 11zM503 719q-1 -57 -19 -94.5t-46.5 -56t-61.5 -18.5q-28 0 -48.5 8.5t-36 19t-28.5 18.5t-27 8q-15 0 -23 -12.5t-11 -39.5h-108q3 85 41.5 126.5t95.5 41.5q27 0 46 -8t32.5 -18.5t26 -18.5t26.5 -8q16 0 23.5 12.5t10.5 39.5h107zM183 925q46 0 71 -22
t25 -63q0 -40 -25 -62.5t-71 -22.5q-44 0 -68.5 22.5t-24.5 62.5q0 41 24.5 63t68.5 22zM412 925q46 0 71 -22t25 -63q0 -40 -25 -62.5t-71 -22.5q-44 0 -68.5 22.5t-24.5 62.5q0 41 24.5 63t68.5 22z" />
    <glyph glyph-name="uni1E50" unicode="&#x1e50;" horiz-adv-x="733" 
d="M367 670q103 0 176.5 -40.5t113 -116.5t39.5 -183t-39.5 -183t-113 -116.5t-176.5 -40.5q-102 0 -176.5 40.5t-114.5 116.5t-40 183t40 183t114.5 116.5t176.5 40.5zM367 514q-41 0 -67.5 -20.5t-40 -60.5t-13.5 -103q0 -62 13.5 -102.5t40 -61t67.5 -20.5q40 0 67 20.5
t40 61t13 102.5q0 63 -13 103t-40 60.5t-67 20.5zM555 838v-119h-376v119h376zM390 1057l59 -166h-144l-91 166h176z" />
    <glyph glyph-name="uni1E51" unicode="&#x1e51;" horiz-adv-x="598" 
d="M299 510q82 0 143 -30.5t95 -88.5t34 -141q0 -82 -34 -140.5t-95 -89t-143 -30.5q-80 0 -141.5 30.5t-96 89t-34.5 140.5q0 83 34.5 141t96 88.5t141.5 30.5zM299 371q-22 0 -37.5 -11t-23.5 -38t-8 -72t8 -71.5t23.5 -38t37.5 -11.5q23 0 38 11.5t23 38t8 71.5t-8 72
t-23 38t-38 11zM487 678v-119h-376v119h376zM322 897l59 -166h-144l-91 166h176z" />
    <glyph glyph-name="uni1E52" unicode="&#x1e52;" horiz-adv-x="733" 
d="M367 670q103 0 176.5 -40.5t113 -116.5t39.5 -183t-39.5 -183t-113 -116.5t-176.5 -40.5q-102 0 -176.5 40.5t-114.5 116.5t-40 183t40 183t114.5 116.5t176.5 40.5zM367 514q-41 0 -67.5 -20.5t-40 -60.5t-13.5 -103q0 -62 13.5 -102.5t40 -61t67.5 -20.5q40 0 67 20.5
t40 61t13 102.5q0 63 -13 103t-40 60.5t-67 20.5zM555 838v-119h-376v119h376zM344 1057h176l-91 -166h-144z" />
    <glyph glyph-name="uni1E53" unicode="&#x1e53;" horiz-adv-x="598" 
d="M299 510q82 0 143 -30.5t95 -88.5t34 -141q0 -82 -34 -140.5t-95 -89t-143 -30.5q-80 0 -141.5 30.5t-96 89t-34.5 140.5q0 83 34.5 141t96 88.5t141.5 30.5zM299 371q-22 0 -37.5 -11t-23.5 -38t-8 -72t8 -71.5t23.5 -38t37.5 -11.5q23 0 38 11.5t23 38t8 71.5t-8 72
t-23 38t-38 11zM487 678v-119h-376v119h376zM276 897h176l-91 -166h-144z" />
    <glyph glyph-name="uni1E5A" unicode="&#x1e5a;" horiz-adv-x="698" 
d="M399 660q123 0 190.5 -56.5t67.5 -150.5q0 -105 -66 -159t-190 -54l-20 -11h-120v-229h-200v660h338zM366 368q43 0 64.5 16.5t21.5 54.5t-21.5 55t-64.5 17h-105v-143h105zM487 325l208 -325h-223l-161 289zM363 -224q-51 0 -76.5 22t-25.5 66q0 43 25.5 65t76.5 22
q52 0 78.5 -22t26.5 -65q0 -44 -26.5 -66t-78.5 -22z" />
    <glyph glyph-name="uni1E5B" unicode="&#x1e5b;" horiz-adv-x="437" 
d="M49 0v500h181l6 -117q17 59 53.5 93t95.5 34q21 0 34 -3.5t19 -8.5l-18 -164q-10 4 -26 7t-37 3q-30 0 -54 -11t-38 -32.5t-14 -54.5v-246h-202zM150 -224q-51 0 -76.5 22t-25.5 66q0 43 25.5 65t76.5 22q52 0 78.5 -22t26.5 -65q0 -44 -26.5 -66t-78.5 -22z" />
    <glyph glyph-name="uni1E5E" unicode="&#x1e5e;" horiz-adv-x="698" 
d="M399 660q123 0 190.5 -56.5t67.5 -150.5q0 -105 -66 -159t-190 -54l-20 -11h-120v-229h-200v660h338zM366 368q43 0 64.5 16.5t21.5 54.5t-21.5 55t-64.5 17h-105v-143h105zM487 325l208 -325h-223l-161 289zM551 -59v-119h-376v119h376z" />
    <glyph glyph-name="uni1E5F" unicode="&#x1e5f;" horiz-adv-x="437" 
d="M304 -59v-119h-308v119h308zM49 0v500h181l6 -117q17 59 53.5 93t95.5 34q21 0 34 -3.5t19 -8.5l-18 -164q-10 4 -26 7t-37 3q-30 0 -54 -11t-38 -32.5t-14 -54.5v-246h-202z" />
    <glyph glyph-name="uni1E60" unicode="&#x1e60;" horiz-adv-x="647" 
d="M335 670q94 0 167 -25.5t128 -77.5l-89 -131q-45 38 -95.5 59.5t-111.5 21.5q-31 0 -50 -6t-27.5 -16.5t-8.5 -23.5q0 -16 19.5 -26t54.5 -18l100 -23q100 -23 149 -67.5t49 -121.5q0 -75 -37.5 -125t-102.5 -75t-147 -25q-65 0 -126.5 13t-112.5 37.5t-88 58.5l88 135
q27 -26 66 -46.5t83 -32.5t85 -12q29 0 47.5 5.5t26.5 15.5t8 24q0 17 -13 27.5t-49 18.5l-110 25q-54 12 -100 33t-73.5 58.5t-27.5 98.5q0 65 35 115t102 78t161 28zM330 884q52 0 78.5 -22t26.5 -66q0 -43 -26.5 -65t-78.5 -22q-51 0 -76.5 22t-25.5 65q0 44 25.5 66
t76.5 22z" />
    <glyph glyph-name="uni1E61" unicode="&#x1e61;" horiz-adv-x="536" 
d="M270 -10q-74 0 -140 22t-113 65l81 107q27 -27 69.5 -47t89.5 -20q24 0 40.5 6t16.5 21q0 10 -8.5 16.5t-35.5 11.5l-52 10q-102 20 -144.5 58.5t-42.5 101.5q0 41 25.5 79.5t81 63.5t143.5 25q77 0 137.5 -20.5t96.5 -58.5l-79 -104q-27 26 -68 41t-78 15q-19 0 -32 -3
t-19.5 -8.5t-6.5 -14.5q0 -10 11.5 -17.5t42.5 -13.5l80 -14q79 -14 115 -52t36 -93q0 -49 -26 -89t-80.5 -64t-140.5 -24zM277 724q52 0 78.5 -22t26.5 -66q0 -43 -26.5 -65t-78.5 -22q-51 0 -76.5 22t-25.5 65q0 44 25.5 66t76.5 22z" />
    <glyph glyph-name="uni1E62" unicode="&#x1e62;" horiz-adv-x="647" 
d="M335 670q94 0 167 -25.5t128 -77.5l-89 -131q-45 38 -95.5 59.5t-111.5 21.5q-31 0 -50 -6t-27.5 -16.5t-8.5 -23.5q0 -16 19.5 -26t54.5 -18l100 -23q100 -23 149 -67.5t49 -121.5q0 -75 -37.5 -125t-102.5 -75t-147 -25q-65 0 -126.5 13t-112.5 37.5t-88 58.5l88 135
q27 -26 66 -46.5t83 -32.5t85 -12q29 0 47.5 5.5t26.5 15.5t8 24q0 17 -13 27.5t-49 18.5l-110 25q-54 12 -100 33t-73.5 58.5t-27.5 98.5q0 65 35 115t102 78t161 28zM328 -224q-51 0 -76.5 22t-25.5 66q0 43 25.5 65t76.5 22q52 0 78.5 -22t26.5 -65q0 -44 -26.5 -66
t-78.5 -22z" />
    <glyph glyph-name="uni1E63" unicode="&#x1e63;" horiz-adv-x="536" 
d="M270 -10q-74 0 -140 22t-113 65l81 107q27 -27 69.5 -47t89.5 -20q24 0 40.5 6t16.5 21q0 10 -8.5 16.5t-35.5 11.5l-52 10q-102 20 -144.5 58.5t-42.5 101.5q0 41 25.5 79.5t81 63.5t143.5 25q77 0 137.5 -20.5t96.5 -58.5l-79 -104q-27 26 -68 41t-78 15q-19 0 -32 -3
t-19.5 -8.5t-6.5 -14.5q0 -10 11.5 -17.5t42.5 -13.5l80 -14q79 -14 115 -52t36 -93q0 -49 -26 -89t-80.5 -64t-140.5 -24zM271 -224q-51 0 -76.5 22t-25.5 66q0 43 25.5 65t76.5 22q52 0 78.5 -22t26.5 -65q0 -44 -26.5 -66t-78.5 -22z" />
    <glyph glyph-name="uni1E64" unicode="&#x1e64;" horiz-adv-x="647" 
d="M335 670q94 0 167 -25.5t128 -77.5l-89 -131q-45 38 -95.5 59.5t-111.5 21.5q-31 0 -50 -6t-27.5 -16.5t-8.5 -23.5q0 -16 19.5 -26t54.5 -18l100 -23q100 -23 149 -67.5t49 -121.5q0 -75 -37.5 -125t-102.5 -75t-147 -25q-65 0 -126.5 13t-112.5 37.5t-88 58.5l88 135
q27 -26 66 -46.5t83 -32.5t85 -12q29 0 47.5 5.5t26.5 15.5t8 24q0 17 -13 27.5t-49 18.5l-110 25q-54 12 -100 33t-73.5 58.5t-27.5 98.5q0 65 35 115t102 78t161 28zM307 881h176l-91 -166h-144zM330 1102q52 0 78.5 -22t26.5 -66q0 -43 -26.5 -65t-78.5 -22
q-51 0 -76.5 22t-25.5 65q0 44 25.5 66t76.5 22z" />
    <glyph glyph-name="uni1E65" unicode="&#x1e65;" horiz-adv-x="536" 
d="M270 -10q-74 0 -140 22t-113 65l81 107q27 -27 69.5 -47t89.5 -20q24 0 40.5 6t16.5 21q0 10 -8.5 16.5t-35.5 11.5l-52 10q-102 20 -144.5 58.5t-42.5 101.5q0 41 25.5 79.5t81 63.5t143.5 25q77 0 137.5 -20.5t96.5 -58.5l-79 -104q-27 26 -68 41t-78 15q-19 0 -32 -3
t-19.5 -8.5t-6.5 -14.5q0 -10 11.5 -17.5t42.5 -13.5l80 -14q79 -14 115 -52t36 -93q0 -49 -26 -89t-80.5 -64t-140.5 -24zM254 734h183l-103 -175h-143zM277 952q52 0 78.5 -22t26.5 -66q0 -43 -26.5 -65t-78.5 -22q-51 0 -76.5 22t-25.5 65q0 44 25.5 66t76.5 22z" />
    <glyph glyph-name="uni1E66" unicode="&#x1e66;" horiz-adv-x="647" 
d="M335 670q94 0 167 -25.5t128 -77.5l-89 -131q-45 38 -95.5 59.5t-111.5 21.5q-31 0 -50 -6t-27.5 -16.5t-8.5 -23.5q0 -16 19.5 -26t54.5 -18l100 -23q100 -23 149 -67.5t49 -121.5q0 -75 -37.5 -125t-102.5 -75t-147 -25q-65 0 -126.5 13t-112.5 37.5t-88 58.5l88 135
q27 -26 66 -46.5t83 -32.5t85 -12q29 0 47.5 5.5t26.5 15.5t8 24q0 17 -13 27.5t-49 18.5l-110 25q-54 12 -100 33t-73.5 58.5t-27.5 98.5q0 65 35 115t102 78t161 28zM524 881l-97 -166h-194l-97 166h134l60 -87l60 87h134zM330 1092q52 0 78.5 -22t26.5 -66
q0 -43 -26.5 -65t-78.5 -22q-51 0 -76.5 22t-25.5 65q0 44 25.5 66t76.5 22z" />
    <glyph glyph-name="uni1E67" unicode="&#x1e67;" horiz-adv-x="536" 
d="M270 -10q-74 0 -140 22t-113 65l81 107q27 -27 69.5 -47t89.5 -20q24 0 40.5 6t16.5 21q0 10 -8.5 16.5t-35.5 11.5l-52 10q-102 20 -144.5 58.5t-42.5 101.5q0 41 25.5 79.5t81 63.5t143.5 25q77 0 137.5 -20.5t96.5 -58.5l-79 -104q-27 26 -68 41t-78 15q-19 0 -32 -3
t-19.5 -8.5t-6.5 -14.5q0 -10 11.5 -17.5t42.5 -13.5l80 -14q79 -14 115 -52t36 -93q0 -49 -26 -89t-80.5 -64t-140.5 -24zM475 734l-107 -175h-191l-108 175h141l62 -79l63 79h140zM277 941q52 0 78.5 -22t26.5 -66q0 -43 -26.5 -65t-78.5 -22q-51 0 -76.5 22t-25.5 65
q0 44 25.5 66t76.5 22z" />
    <glyph glyph-name="uni1E68" unicode="&#x1e68;" horiz-adv-x="647" 
d="M335 670q94 0 167 -25.5t128 -77.5l-89 -131q-45 38 -95.5 59.5t-111.5 21.5q-31 0 -50 -6t-27.5 -16.5t-8.5 -23.5q0 -16 19.5 -26t54.5 -18l100 -23q100 -23 149 -67.5t49 -121.5q0 -75 -37.5 -125t-102.5 -75t-147 -25q-65 0 -126.5 13t-112.5 37.5t-88 58.5l88 135
q27 -26 66 -46.5t83 -32.5t85 -12q29 0 47.5 5.5t26.5 15.5t8 24q0 17 -13 27.5t-49 18.5l-110 25q-54 12 -100 33t-73.5 58.5t-27.5 98.5q0 65 35 115t102 78t161 28zM330 884q52 0 78.5 -22t26.5 -66q0 -43 -26.5 -65t-78.5 -22q-51 0 -76.5 22t-25.5 65q0 44 25.5 66
t76.5 22zM328 -224q-51 0 -76.5 22t-25.5 66q0 43 25.5 65t76.5 22q52 0 78.5 -22t26.5 -65q0 -44 -26.5 -66t-78.5 -22z" />
    <glyph glyph-name="uni1E69" unicode="&#x1e69;" horiz-adv-x="536" 
d="M270 -10q-74 0 -140 22t-113 65l81 107q27 -27 69.5 -47t89.5 -20q24 0 40.5 6t16.5 21q0 10 -8.5 16.5t-35.5 11.5l-52 10q-102 20 -144.5 58.5t-42.5 101.5q0 41 25.5 79.5t81 63.5t143.5 25q77 0 137.5 -20.5t96.5 -58.5l-79 -104q-27 26 -68 41t-78 15q-19 0 -32 -3
t-19.5 -8.5t-6.5 -14.5q0 -10 11.5 -17.5t42.5 -13.5l80 -14q79 -14 115 -52t36 -93q0 -49 -26 -89t-80.5 -64t-140.5 -24zM277 724q52 0 78.5 -22t26.5 -66q0 -43 -26.5 -65t-78.5 -22q-51 0 -76.5 22t-25.5 65q0 44 25.5 66t76.5 22zM271 -224q-51 0 -76.5 22t-25.5 66
q0 43 25.5 65t76.5 22q52 0 78.5 -22t26.5 -65q0 -44 -26.5 -66t-78.5 -22z" />
    <glyph glyph-name="uni1E6C" unicode="&#x1e6c;" horiz-adv-x="671" 
d="M648 660v-153h-210v-507h-204v507h-212v153h626zM335 -224q-51 0 -76.5 22t-25.5 66q0 43 25.5 65t76.5 22q52 0 78.5 -22t26.5 -65q0 -44 -26.5 -66t-78.5 -22z" />
    <glyph glyph-name="uni1E6D" unicode="&#x1e6d;" horiz-adv-x="443" 
d="M292 665v-473q0 -35 15.5 -50t46.5 -15q22 0 38 4t30 13l13 -118q-24 -17 -65 -26.5t-80 -9.5q-64 0 -108.5 17t-68 54t-23.5 99v449zM428 500v-139h-420v139h420zM254 -224q-51 0 -76.5 22t-25.5 66q0 43 25.5 65t76.5 22q52 0 78.5 -22t26.5 -65q0 -44 -26.5 -66
t-78.5 -22z" />
    <glyph glyph-name="uni1E6E" unicode="&#x1e6e;" horiz-adv-x="671" 
d="M648 660v-153h-210v-507h-204v507h-212v153h626zM523 -59v-119h-376v119h376z" />
    <glyph glyph-name="uni1E6F" unicode="&#x1e6f;" horiz-adv-x="443" 
d="M292 665v-473q0 -35 15.5 -50t46.5 -15q22 0 38 4t30 13l13 -118q-24 -17 -65 -26.5t-80 -9.5q-64 0 -108.5 17t-68 54t-23.5 99v449zM428 500v-139h-420v139h420zM442 -59v-119h-376v119h376z" />
    <glyph glyph-name="uni1E78" unicode="&#x1e78;" horiz-adv-x="711" 
d="M663 660v-383q0 -144 -77 -215.5t-230 -71.5q-154 0 -231 71.5t-77 215.5v383h205v-394q0 -60 26 -90t77 -30t77 30t26 90v394h204zM560 874q-1 -57 -19 -94.5t-46.5 -56t-61.5 -18.5q-28 0 -48.5 8.5t-36 19t-28.5 18.5t-27 8q-15 0 -23 -12.5t-11 -39.5h-108
q3 85 41.5 126.5t95.5 41.5q27 0 46 -8t32.5 -18.5t26 -18.5t26.5 -8q16 0 23.5 12.5t10.5 39.5h107zM332 1085h176l-91 -166h-144z" />
    <glyph glyph-name="uni1E79" unicode="&#x1e79;" horiz-adv-x="619" 
d="M214 -10q-51 0 -88.5 17.5t-58 56t-20.5 100.5v336h202v-289q0 -38 14 -54t41 -16q14 0 26 5.5t20.5 16.5t13 29t4.5 42v266h202v-500h-181l-5 100q-23 -55 -66 -82.5t-104 -27.5zM508 717q-1 -57 -19 -94.5t-46.5 -56t-61.5 -18.5q-28 0 -48.5 8.5t-36 19t-28.5 18.5
t-27 8q-15 0 -23 -12.5t-11 -39.5h-108q3 85 41.5 126.5t95.5 41.5q27 0 46 -8t32.5 -18.5t26 -18.5t26.5 -8q16 0 23.5 12.5t10.5 39.5h107zM281 928h176l-91 -166h-144z" />
    <glyph glyph-name="uni1E7A" unicode="&#x1e7a;" horiz-adv-x="711" 
d="M663 660v-383q0 -144 -77 -215.5t-230 -71.5q-154 0 -231 71.5t-77 215.5v383h205v-394q0 -60 26 -90t77 -30t77 30t26 90v394h204zM544 833v-119h-376v119h376zM240 1047q46 0 71 -22t25 -63q0 -40 -25 -62.5t-71 -22.5q-44 0 -68.5 22.5t-24.5 62.5q0 41 24.5 63
t68.5 22zM469 1047q46 0 71 -22t25 -63q0 -40 -25 -62.5t-71 -22.5q-44 0 -68.5 22.5t-24.5 62.5q0 41 24.5 63t68.5 22z" />
    <glyph glyph-name="uni1E7B" unicode="&#x1e7b;" horiz-adv-x="619" 
d="M214 -10q-51 0 -88.5 17.5t-58 56t-20.5 100.5v336h202v-289q0 -38 14 -54t41 -16q14 0 26 5.5t20.5 16.5t13 29t4.5 42v266h202v-500h-181l-5 100q-23 -55 -66 -82.5t-104 -27.5zM492 676v-119h-376v119h376zM188 890q46 0 71 -22t25 -63q0 -40 -25 -62.5t-71 -22.5
q-44 0 -68.5 22.5t-24.5 62.5q0 41 24.5 63t68.5 22zM417 890q46 0 71 -22t25 -63q0 -40 -25 -62.5t-71 -22.5q-44 0 -68.5 22.5t-24.5 62.5q0 41 24.5 63t68.5 22z" />
    <glyph glyph-name="Wgrave" unicode="&#x1e80;" horiz-adv-x="1010" 
d="M189 0l-189 660h220l93 -498l104 498h180l109 -495l91 495h212l-189 -660h-220l-64 282l-27 165h-3l-27 -165l-64 -282h-226zM528 881l59 -166h-144l-91 166h176z" />
    <glyph glyph-name="wgrave" unicode="&#x1e81;" horiz-adv-x="922" 
d="M714 500h210l-143 -500h-247l-74 274l-72 -274h-247l-143 500h210l70 -355l84 355h198l84 -355zM473 734l63 -175h-144l-102 175h183z" />
    <glyph glyph-name="Wacute" unicode="&#x1e82;" horiz-adv-x="1010" 
d="M189 0l-189 660h220l93 -498l104 498h180l109 -495l91 495h212l-189 -660h-220l-64 282l-27 165h-3l-27 -165l-64 -282h-226zM482 881h176l-91 -166h-144z" />
    <glyph glyph-name="wacute" unicode="&#x1e83;" horiz-adv-x="922" 
d="M714 500h210l-143 -500h-247l-74 274l-72 -274h-247l-143 500h210l70 -355l84 355h198l84 -355zM438 734h183l-103 -175h-143z" />
    <glyph glyph-name="Wdieresis" unicode="&#x1e84;" horiz-adv-x="1010" 
d="M189 0l-189 660h220l93 -498l104 498h180l109 -495l91 495h212l-189 -660h-220l-64 282l-27 165h-3l-27 -165l-64 -282h-226zM389 876q46 0 71 -22t25 -63q0 -40 -25 -62.5t-71 -22.5q-44 0 -68.5 22.5t-24.5 62.5q0 41 24.5 63t68.5 22zM618 876q46 0 71 -22t25 -63
q0 -40 -25 -62.5t-71 -22.5q-44 0 -68.5 22.5t-24.5 62.5q0 41 24.5 63t68.5 22z" />
    <glyph glyph-name="wdieresis" unicode="&#x1e85;" horiz-adv-x="922" 
d="M714 500h210l-143 -500h-247l-74 274l-72 -274h-247l-143 500h210l70 -355l84 355h198l84 -355zM345 716q46 0 71 -22t25 -63q0 -40 -25 -62.5t-71 -22.5q-44 0 -68.5 22.5t-24.5 62.5q0 41 24.5 63t68.5 22zM574 716q46 0 71 -22t25 -63q0 -40 -25 -62.5t-71 -22.5
q-44 0 -68.5 22.5t-24.5 62.5q0 41 24.5 63t68.5 22z" />
    <glyph glyph-name="uni1E8E" unicode="&#x1e8e;" horiz-adv-x="687" 
d="M677 660l-231 -426v-234h-205v234l-232 426h207l80 -165l49 -115l48 115l81 165h203zM343 880q52 0 78.5 -22t26.5 -66q0 -43 -26.5 -65t-78.5 -22q-51 0 -76.5 22t-25.5 65q0 44 25.5 66t76.5 22z" />
    <glyph glyph-name="uni1E8F" unicode="&#x1e8f;" horiz-adv-x="579" 
d="M585 500l-163 -470q-30 -90 -67.5 -143.5t-88.5 -77.5t-124 -24q-45 0 -82 9t-64 24l38 131q17 -10 36.5 -15t52.5 -5q31 0 48 8t25 29l7 19l-60 142l-146 373h221l60 -271l21 -111l25 114l62 268h199zM311 722q52 0 78.5 -22t26.5 -66q0 -43 -26.5 -65t-78.5 -22
q-51 0 -76.5 22t-25.5 65q0 44 25.5 66t76.5 22z" />
    <glyph glyph-name="uni1E92" unicode="&#x1e92;" horiz-adv-x="636" 
d="M187 81l-36 68h462v-149h-582v143l416 436l35 -68h-446v149h566v-143zM306 -224q-51 0 -76.5 22t-25.5 66q0 43 25.5 65t76.5 22q52 0 78.5 -22t26.5 -65q0 -44 -26.5 -66t-78.5 -22z" />
    <glyph glyph-name="uni1E93" unicode="&#x1e93;" horiz-adv-x="510" 
d="M28 0v119l176 197l49 49l-75 -2h-150v137h449v-119l-174 -195l-51 -51l85 2h149v-137h-458zM251 -224q-51 0 -76.5 22t-25.5 66q0 43 25.5 65t76.5 22q52 0 78.5 -22t26.5 -65q0 -44 -26.5 -66t-78.5 -22z" />
    <glyph glyph-name="uni1E97" unicode="&#x1e97;" horiz-adv-x="443" 
d="M292 665v-473q0 -35 15.5 -50t46.5 -15q22 0 38 4t30 13l13 -118q-24 -17 -65 -26.5t-80 -9.5q-64 0 -108.5 17t-68 54t-23.5 99v449zM428 500v-139h-420v139h420zM75 872q46 0 71 -22t25 -63q0 -40 -25 -62.5t-71 -22.5q-44 0 -68.5 22.5t-24.5 62.5q0 41 24.5 63
t68.5 22zM304 872q46 0 71 -22t25 -63q0 -40 -25 -62.5t-71 -22.5q-44 0 -68.5 22.5t-24.5 62.5q0 41 24.5 63t68.5 22z" />
    <glyph glyph-name="uni1E9E" unicode="&#x1e9e;" horiz-adv-x="717" 
d="M484 -5q-74 0 -117 14.5t-70 39.5l50 117q20 -16 40.5 -23t52.5 -7q23 0 39.5 7.5t25.5 21t9 32.5q0 30 -21.5 43.5t-55.5 13.5h-97v105l137 152h-96q-39 0 -67 -15.5t-43 -45t-15 -73.5v-377h-205v410q0 78 34.5 134t100 86t155.5 30h325v-146l-195 -217l39 61h25
q39 0 77.5 -17t64 -54t25.5 -97q0 -66 -28.5 -109t-77.5 -64.5t-112 -21.5z" />
    <glyph glyph-name="uni1EA0" unicode="&#x1ea0;" horiz-adv-x="684" 
d="M687 0h-210l-37 137h-201l-38 -137h-204l222 660h245zM273 269h134l-67 246zM341 -224q-51 0 -76.5 22t-25.5 66q0 43 25.5 65t76.5 22q52 0 78.5 -22t26.5 -65q0 -44 -26.5 -66t-78.5 -22z" />
    <glyph glyph-name="uni1EA1" unicode="&#x1ea1;" horiz-adv-x="584" 
d="M324 315q0 28 -14.5 44.5t-42.5 16.5q-26 0 -44.5 -14t-23.5 -53l-171 31q10 78 73 124t180 46q80 0 134.5 -22.5t81.5 -65.5t27 -103v-168q0 -40 37 -40q15 0 23 4l-10 -109q-33 -16 -82 -16q-43 0 -76 13.5t-52 39.5t-19 68v8l20 3q0 -40 -24.5 -70t-64 -46t-87.5 -16
q-52 0 -89 16t-56.5 46t-19.5 73q0 55 33.5 90t101.5 48l181 38l-1 -85l-74 -17q-25 -5 -36.5 -16.5t-11.5 -31.5q0 -19 13 -29.5t32 -10.5q13 0 24 4t19.5 12t13.5 20t5 29v139zM283 -224q-51 0 -76.5 22t-25.5 66q0 43 25.5 65t76.5 22q52 0 78.5 -22t26.5 -65
q0 -44 -26.5 -66t-78.5 -22z" />
    <glyph glyph-name="uni1EA2" unicode="&#x1ea2;" horiz-adv-x="684" 
d="M687 0h-210l-37 137h-201l-38 -137h-204l222 660h245zM273 269h134l-67 246zM342 695l-40 56q29 12 40 24t11 25q0 14 -8 22.5t-23 8.5t-23 -7t-14 -20l-88 40q12 43 48.5 66t88.5 23q33 0 62.5 -12t48 -36t18.5 -60q0 -39 -19.5 -65.5t-47.5 -42t-54 -22.5z" />
    <glyph glyph-name="uni1EA3" unicode="&#x1ea3;" horiz-adv-x="584" 
d="M324 315q0 28 -14.5 44.5t-42.5 16.5q-26 0 -44.5 -14t-23.5 -53l-171 31q10 78 73 124t180 46q80 0 134.5 -22.5t81.5 -65.5t27 -103v-168q0 -40 37 -40q15 0 23 4l-10 -109q-33 -16 -82 -16q-43 0 -76 13.5t-52 39.5t-19 68v8l20 3q0 -40 -24.5 -70t-64 -46t-87.5 -16
q-52 0 -89 16t-56.5 46t-19.5 73q0 55 33.5 90t101.5 48l181 38l-1 -85l-74 -17q-25 -5 -36.5 -16.5t-11.5 -31.5q0 -19 13 -29.5t32 -10.5q13 0 24 4t19.5 12t13.5 20t5 29v139zM275 542l-40 57q29 12 40.5 24.5t11.5 25.5t-8 22t-24 9q-14 0 -22 -7.5t-14 -20.5l-89 40
q12 44 49 67t89 23q33 0 62.5 -12t48 -36t18.5 -60q0 -40 -19.5 -66.5t-48 -42t-54.5 -23.5z" />
    <glyph glyph-name="uni1EA4" unicode="&#x1ea4;" horiz-adv-x="684" 
d="M527 712h-128l-58 74l-57 -74h-128l99 162h173zM552 960h158l-81 -148h-131zM687 0h-210l-37 137h-201l-38 -137h-204l222 660h245zM273 269h134l-67 246z" />
    <glyph glyph-name="uni1EA5" unicode="&#x1ea5;" horiz-adv-x="584" 
d="M463 552h-129l-57 74l-58 -74h-128l99 162h173zM487 800h158l-81 -148h-130zM324 314q0 29 -14 45.5t-42 16.5q-27 0 -45 -14t-23 -53l-170 30q9 78 72 124.5t179 46.5q81 0 135 -23t81 -65t27 -99v-172q0 -40 39 -40q13 0 21 4l-9 -108q-34 -16 -82 -16q-44 0 -78 13
t-53 39.5t-19 67.5v10h22q-3 -39 -27.5 -68t-63 -46t-85.5 -17q-52 0 -88.5 16t-56.5 46t-20 72q0 55 35.5 89.5t102.5 47.5l178 37l-1 -78l-74 -17q-26 -6 -38 -18.5t-12 -32.5q0 -19 13 -30.5t36 -11.5q12 0 23 3.5t19.5 11.5t13 19t4.5 26v144z" />
    <glyph glyph-name="uni1EA6" unicode="&#x1ea6;" horiz-adv-x="684" 
d="M527 712h-128l-58 74l-57 -74h-128l99 162h173zM593 960l53 -148h-130l-81 148h158zM687 0h-210l-37 137h-201l-38 -137h-204l222 660h245zM273 269h134l-67 246z" />
    <glyph glyph-name="uni1EA7" unicode="&#x1ea7;" horiz-adv-x="584" 
d="M463 552h-129l-57 74l-58 -74h-128l99 162h173zM528 800l54 -148h-131l-81 148h158zM324 314q0 29 -14 45.5t-42 16.5q-27 0 -45 -14t-23 -53l-170 30q9 78 72 124.5t179 46.5q81 0 135 -23t81 -65t27 -99v-172q0 -40 39 -40q13 0 21 4l-9 -108q-34 -16 -82 -16
q-44 0 -78 13t-53 39.5t-19 67.5v10h22q-3 -39 -27.5 -68t-63 -46t-85.5 -17q-52 0 -88.5 16t-56.5 46t-20 72q0 55 35.5 89.5t102.5 47.5l178 37l-1 -78l-74 -17q-26 -6 -38 -18.5t-12 -32.5q0 -19 13 -30.5t36 -11.5q12 0 23 3.5t19.5 11.5t13 19t4.5 26v144z" />
    <glyph glyph-name="uni1EA8" unicode="&#x1ea8;" horiz-adv-x="684" 
d="M527 712h-128l-58 74l-57 -74h-128l99 162h173zM524 796l-40 57q28 11 39.5 23.5t11.5 25.5t-8 21.5t-24 8.5q-14 0 -22 -7t-14 -19l-89 40q12 42 48.5 65.5t89.5 23.5q33 0 62.5 -12t47.5 -36t18 -60q0 -39 -19 -65.5t-47.5 -42t-53.5 -23.5zM687 0h-210l-37 137h-201
l-38 -137h-204l222 660h245zM273 269h134l-67 246z" />
    <glyph glyph-name="uni1EA9" unicode="&#x1ea9;" horiz-adv-x="584" 
d="M463 552h-129l-57 74l-58 -74h-128l99 162h173zM459 636l-40 57q28 11 39.5 23.5t11.5 25.5t-8 21.5t-24 8.5q-14 0 -22 -7t-14 -19l-88 40q11 42 48 65.5t89 23.5q33 0 62.5 -12t48 -36t18.5 -60q0 -39 -19.5 -65.5t-47.5 -42t-54 -23.5zM324 314q0 29 -14 45.5
t-42 16.5q-27 0 -45 -14t-23 -53l-170 30q9 78 72 124.5t179 46.5q81 0 135 -23t81 -65t27 -99v-172q0 -40 39 -40q13 0 21 4l-9 -108q-34 -16 -82 -16q-44 0 -78 13t-53 39.5t-19 67.5v10h22q-3 -39 -27.5 -68t-63 -46t-85.5 -17q-52 0 -88.5 16t-56.5 46t-20 72
q0 55 35.5 89.5t102.5 47.5l178 37l-1 -78l-74 -17q-26 -6 -38 -18.5t-12 -32.5q0 -19 13 -30.5t36 -11.5q12 0 23 3.5t19.5 11.5t13 19t4.5 26v144z" />
    <glyph glyph-name="uni1EAA" unicode="&#x1eaa;" horiz-adv-x="684" 
d="M527 712h-128l-58 74l-57 -74h-128l99 162h173zM528 1048q-2 -77 -36.5 -114t-79.5 -37q-25 0 -43.5 7t-33 16.5t-26 17t-24.5 7.5q-14 0 -21.5 -11.5t-9.5 -34.5h-98q2 77 37.5 114t86.5 37q25 0 42 -7t30 -17t23.5 -17t24.5 -7q13 0 20.5 11t9.5 35h98zM687 0h-210
l-37 137h-201l-38 -137h-204l222 660h245zM273 269h134l-67 246z" />
    <glyph glyph-name="uni1EAB" unicode="&#x1eab;" horiz-adv-x="584" 
d="M463 552h-129l-57 74l-58 -74h-128l99 162h173zM464 888q-3 -77 -37 -114t-79 -37q-26 0 -44.5 7t-32.5 16.5t-26 17t-25 7.5q-14 0 -21 -11.5t-10 -34.5h-98q3 77 38 114t87 37q24 0 41.5 -7t30 -17t23.5 -17t24 -7q14 0 21 11t10 35h98zM324 314q0 29 -14 45.5
t-42 16.5q-27 0 -45 -14t-23 -53l-170 30q9 78 72 124.5t179 46.5q81 0 135 -23t81 -65t27 -99v-172q0 -40 39 -40q13 0 21 4l-9 -108q-34 -16 -82 -16q-44 0 -78 13t-53 39.5t-19 67.5v10h22q-3 -39 -27.5 -68t-63 -46t-85.5 -17q-52 0 -88.5 16t-56.5 46t-20 72
q0 55 35.5 89.5t102.5 47.5l178 37l-1 -78l-74 -17q-26 -6 -38 -18.5t-12 -32.5q0 -19 13 -30.5t36 -11.5q12 0 23 3.5t19.5 11.5t13 19t4.5 26v144z" />
    <glyph glyph-name="uni1EAC" unicode="&#x1eac;" horiz-adv-x="684" 
d="M687 0h-210l-37 137h-201l-38 -137h-204l222 660h245zM273 269h134l-67 246zM341 -224q-51 0 -76.5 22t-25.5 66q0 43 25.5 65t76.5 22q52 0 78.5 -22t26.5 -65q0 -44 -26.5 -66t-78.5 -22zM535 715h-134l-60 87l-60 -87h-134l97 166h194z" />
    <glyph glyph-name="uni1EAD" unicode="&#x1ead;" horiz-adv-x="584" 
d="M324 315q0 28 -14.5 44.5t-42.5 16.5q-26 0 -44.5 -14t-23.5 -53l-171 31q10 78 73 124t180 46q80 0 134.5 -22.5t81.5 -65.5t27 -103v-168q0 -40 37 -40q15 0 23 4l-10 -109q-33 -16 -82 -16q-43 0 -76 13.5t-52 39.5t-19 68v8l20 3q0 -40 -24.5 -70t-64 -46t-87.5 -16
q-52 0 -89 16t-56.5 46t-19.5 73q0 55 33.5 90t101.5 48l181 38l-1 -85l-74 -17q-25 -5 -36.5 -16.5t-11.5 -31.5q0 -19 13 -29.5t32 -10.5q13 0 24 4t19.5 12t13.5 20t5 29v139zM283 -224q-51 0 -76.5 22t-25.5 66q0 43 25.5 65t76.5 22q52 0 78.5 -22t26.5 -65
q0 -44 -26.5 -66t-78.5 -22zM480 552h-141l-62 80l-62 -80h-141l108 176h190z" />
    <glyph glyph-name="uni1EAE" unicode="&#x1eae;" horiz-adv-x="684" 
d="M503 861q0 -73 -43.5 -113.5t-118.5 -40.5t-118 40.5t-43 113.5h113q1 -26 13 -41.5t35 -15.5q24 0 36 15.5t12 41.5h114zM263 884l52 147h159l-81 -147h-130zM687 0h-210l-37 137h-201l-38 -137h-204l222 660h245zM273 269h134l-67 246z" />
    <glyph glyph-name="uni1EAF" unicode="&#x1eaf;" horiz-adv-x="584" 
d="M439 701q0 -73 -43.5 -113.5t-118.5 -40.5t-118.5 40.5t-43.5 113.5h114q0 -26 12 -41.5t36 -15.5t36 15.5t12 41.5h114zM199 724l52 147h158l-80 -147h-130zM324 314q0 29 -14 45.5t-42 16.5q-27 0 -45 -14t-23 -53l-170 30q9 78 72 124.5t179 46.5q81 0 135 -23t81 -65
t27 -99v-172q0 -40 39 -40q13 0 21 4l-9 -108q-34 -16 -82 -16q-44 0 -78 13t-53 39.5t-19 67.5v10h22q-3 -39 -27.5 -68t-63 -46t-85.5 -17q-52 0 -88.5 16t-56.5 46t-20 72q0 55 35.5 89.5t102.5 47.5l178 37l-1 -78l-74 -17q-26 -6 -38 -18.5t-12 -32.5q0 -19 13 -30.5
t36 -11.5q12 0 23 3.5t19.5 11.5t13 19t4.5 26v144z" />
    <glyph glyph-name="uni1EB0" unicode="&#x1eb0;" horiz-adv-x="684" 
d="M503 861q0 -73 -43.5 -113.5t-118.5 -40.5t-118 40.5t-43 113.5h113q1 -26 13 -41.5t35 -15.5q24 0 36 15.5t12 41.5h114zM420 884h-131l-80 147h159zM687 0h-210l-37 137h-201l-38 -137h-204l222 660h245zM273 269h134l-67 246z" />
    <glyph glyph-name="uni1EB1" unicode="&#x1eb1;" horiz-adv-x="584" 
d="M439 701q0 -73 -43.5 -113.5t-118.5 -40.5t-118.5 40.5t-43.5 113.5h114q0 -26 12 -41.5t36 -15.5t36 15.5t12 41.5h114zM356 724h-131l-81 147h159zM324 314q0 29 -14 45.5t-42 16.5q-27 0 -45 -14t-23 -53l-170 30q9 78 72 124.5t179 46.5q81 0 135 -23t81 -65t27 -99
v-172q0 -40 39 -40q13 0 21 4l-9 -108q-34 -16 -82 -16q-44 0 -78 13t-53 39.5t-19 67.5v10h22q-3 -39 -27.5 -68t-63 -46t-85.5 -17q-52 0 -88.5 16t-56.5 46t-20 72q0 55 35.5 89.5t102.5 47.5l178 37l-1 -78l-74 -17q-26 -6 -38 -18.5t-12 -32.5q0 -19 13 -30.5t36 -11.5
q12 0 23 3.5t19.5 11.5t13 19t4.5 26v144z" />
    <glyph glyph-name="uni1EB2" unicode="&#x1eb2;" horiz-adv-x="684" 
d="M503 861q0 -73 -43.5 -113.5t-118.5 -40.5t-118 40.5t-43 113.5h113q1 -26 13 -41.5t35 -15.5q24 0 36 15.5t12 41.5h114zM342 868l-37 52q26 10 37 21.5t11 23.5q0 13 -7.5 21t-22.5 8q-13 0 -21 -6.5t-12 -18.5l-82 37q11 39 45 60.5t82 21.5q31 0 58 -11.5t43.5 -33.5
t16.5 -55q0 -37 -17.5 -61t-43 -38t-50.5 -21zM687 0h-210l-37 137h-201l-38 -137h-204l222 660h245zM273 269h134l-67 246z" />
    <glyph glyph-name="uni1EB3" unicode="&#x1eb3;" horiz-adv-x="584" 
d="M439 701q0 -73 -43.5 -113.5t-118.5 -40.5t-118.5 40.5t-43.5 113.5h114q0 -26 12 -41.5t36 -15.5t36 15.5t12 41.5h114zM278 708l-37 52q26 10 36.5 21.5t10.5 23.5q0 13 -7 21t-22 8q-14 0 -21.5 -6.5t-12.5 -18.5l-81 37q11 39 44.5 60.5t82.5 21.5q30 0 57 -11.5
t44 -33.5t17 -55q0 -37 -18 -61t-43.5 -38t-49.5 -21zM324 314q0 29 -14 45.5t-42 16.5q-27 0 -45 -14t-23 -53l-170 30q9 78 72 124.5t179 46.5q81 0 135 -23t81 -65t27 -99v-172q0 -40 39 -40q13 0 21 4l-9 -108q-34 -16 -82 -16q-44 0 -78 13t-53 39.5t-19 67.5v10h22
q-3 -39 -27.5 -68t-63 -46t-85.5 -17q-52 0 -88.5 16t-56.5 46t-20 72q0 55 35.5 89.5t102.5 47.5l178 37l-1 -78l-74 -17q-26 -6 -38 -18.5t-12 -32.5q0 -19 13 -30.5t36 -11.5q12 0 23 3.5t19.5 11.5t13 19t4.5 26v144z" />
    <glyph glyph-name="uni1EB4" unicode="&#x1eb4;" horiz-adv-x="684" 
d="M503 861q0 -73 -43 -113.5t-118 -40.5t-118.5 40.5t-43.5 113.5h114q0 -26 12 -41.5t36 -15.5q23 0 35 15.5t13 41.5h113zM529 1037q-3 -78 -37 -115t-80 -37q-25 0 -43.5 7t-33 16.5t-26 17t-24.5 7.5q-14 0 -21.5 -11t-9.5 -35h-98q2 78 37.5 115t86.5 37
q25 0 42.5 -7.5t30 -17t23.5 -16.5t24 -7t20.5 11t10.5 35h98zM687 0h-210l-37 137h-201l-38 -137h-204l222 660h245zM273 269h134l-67 246z" />
    <glyph glyph-name="uni1EB5" unicode="&#x1eb5;" horiz-adv-x="584" 
d="M438 701q0 -73 -43.5 -113.5t-118.5 -40.5t-118.5 40.5t-43.5 113.5h114q0 -26 12 -41.5t36 -15.5t36 15.5t12 41.5h114zM463 877q-2 -78 -36.5 -115t-79.5 -37q-26 0 -44.5 7t-32.5 16.5t-25.5 17t-24.5 7.5q-15 0 -22 -11t-10 -35h-98q3 78 38.5 115t86.5 37
q25 0 42 -7.5t30 -17t23.5 -16.5t23.5 -7q14 0 21.5 11t9.5 35h98zM324 314q0 29 -14 45.5t-42 16.5q-27 0 -45 -14t-23 -53l-170 30q9 78 72 124.5t179 46.5q81 0 135 -23t81 -65t27 -99v-172q0 -40 39 -40q13 0 21 4l-9 -108q-34 -16 -82 -16q-44 0 -78 13t-53 39.5
t-19 67.5v10h22q-3 -39 -27.5 -68t-63 -46t-85.5 -17q-52 0 -88.5 16t-56.5 46t-20 72q0 55 35.5 89.5t102.5 47.5l178 37l-1 -78l-74 -17q-26 -6 -38 -18.5t-12 -32.5q0 -19 13 -30.5t36 -11.5q12 0 23 3.5t19.5 11.5t13 19t4.5 26v144z" />
    <glyph glyph-name="uni1EB6" unicode="&#x1eb6;" horiz-adv-x="684" 
d="M687 0h-210l-37 137h-201l-38 -137h-204l222 660h245zM273 269h134l-67 246zM341 -224q-51 0 -76.5 22t-25.5 66q0 43 25.5 65t76.5 22q52 0 78.5 -22t26.5 -65q0 -44 -26.5 -66t-78.5 -22zM517 875q0 -79 -47 -123.5t-129 -44.5q-81 0 -128.5 44.5t-47.5 123.5h125
q0 -28 13 -44.5t38 -16.5q26 0 38.5 16.5t12.5 44.5h125z" />
    <glyph glyph-name="uni1EB7" unicode="&#x1eb7;" horiz-adv-x="584" 
d="M324 315q0 28 -14.5 44.5t-42.5 16.5q-26 0 -44.5 -14t-23.5 -53l-171 31q10 78 73 124t180 46q80 0 134.5 -22.5t81.5 -65.5t27 -103v-168q0 -40 37 -40q15 0 23 4l-10 -109q-33 -16 -82 -16q-43 0 -76 13.5t-52 39.5t-19 68v8l20 3q0 -40 -24.5 -70t-64 -46t-87.5 -16
q-52 0 -89 16t-56.5 46t-19.5 73q0 55 33.5 90t101.5 48l181 38l-1 -85l-74 -17q-25 -5 -36.5 -16.5t-11.5 -31.5q0 -19 13 -29.5t32 -10.5q13 0 24 4t19.5 12t13.5 20t5 29v139zM283 -224q-51 0 -76.5 22t-25.5 66q0 43 25.5 65t76.5 22q52 0 78.5 -22t26.5 -65
q0 -44 -26.5 -66t-78.5 -22zM453 715q0 -79 -47 -123.5t-129 -44.5q-81 0 -128.5 44.5t-47.5 123.5h125q0 -28 13 -44.5t38 -16.5q26 0 38.5 16.5t12.5 44.5h125z" />
    <glyph glyph-name="uni1EB8" unicode="&#x1eb8;" horiz-adv-x="628" 
d="M61 0v660h532v-153h-328v-107h262v-142h-262v-105h341v-153h-545zM340 -224q-51 0 -76.5 22t-25.5 66q0 43 25.5 65t76.5 22q52 0 78.5 -22t26.5 -65q0 -44 -26.5 -66t-78.5 -22z" />
    <glyph glyph-name="uni1EB9" unicode="&#x1eb9;" horiz-adv-x="579" 
d="M305 -10q-86 0 -148.5 30.5t-96 88.5t-33.5 141t34 141t95 88.5t141 30.5q82 0 139.5 -30.5t88 -84.5t30.5 -126q0 -17 -1.5 -34t-3.5 -29h-393v88h305l-96 -37q0 57 -15.5 86.5t-53.5 29.5q-26 0 -43.5 -12t-26 -40t-8.5 -74t10.5 -72.5t29.5 -36.5t48 -10q32 0 50 13
t26 36l162 -48q-12 -46 -48.5 -77t-86.5 -46.5t-105 -15.5zM297 -224q-51 0 -76.5 22t-25.5 66q0 43 25.5 65t76.5 22q52 0 78.5 -22t26.5 -65q0 -44 -26.5 -66t-78.5 -22z" />
    <glyph glyph-name="uni1EBA" unicode="&#x1eba;" horiz-adv-x="628" 
d="M61 0v660h532v-153h-328v-107h262v-142h-262v-105h341v-153h-545zM328 695l-40 56q29 12 40 24t11 25q0 14 -8 22.5t-23 8.5t-23 -7t-14 -20l-88 40q12 43 48.5 66t88.5 23q33 0 62.5 -12t48 -36t18.5 -60q0 -39 -19.5 -65.5t-47.5 -42t-54 -22.5z" />
    <glyph glyph-name="uni1EBB" unicode="&#x1ebb;" horiz-adv-x="579" 
d="M305 -10q-86 0 -148.5 30.5t-96 88.5t-33.5 141t34 141t95 88.5t141 30.5q82 0 139.5 -30.5t88 -84.5t30.5 -126q0 -17 -1.5 -34t-3.5 -29h-393v88h305l-96 -37q0 57 -15.5 86.5t-53.5 29.5q-26 0 -43.5 -12t-26 -40t-8.5 -74t10.5 -72.5t29.5 -36.5t48 -10q32 0 50 13
t26 36l162 -48q-12 -46 -48.5 -77t-86.5 -46.5t-105 -15.5zM294 542l-40 57q29 12 40.5 24.5t11.5 25.5t-8 22t-24 9q-14 0 -22 -7.5t-14 -20.5l-89 40q12 44 49 67t89 23q33 0 62.5 -12t48 -36t18.5 -60q0 -40 -19.5 -66.5t-48 -42t-54.5 -23.5z" />
    <glyph glyph-name="uni1EBC" unicode="&#x1ebc;" horiz-adv-x="628" 
d="M61 0v660h532v-153h-328v-107h262v-142h-262v-105h341v-153h-545zM531 879q-1 -57 -19 -94.5t-46.5 -56t-61.5 -18.5q-28 0 -48.5 8.5t-36 19t-28.5 18.5t-27 8q-15 0 -23 -12.5t-11 -39.5h-108q3 85 41.5 126.5t95.5 41.5q27 0 46 -8t32.5 -18.5t26 -18.5t26.5 -8
q16 0 23.5 12.5t10.5 39.5h107z" />
    <glyph glyph-name="uni1EBD" unicode="&#x1ebd;" horiz-adv-x="579" 
d="M305 -10q-86 0 -148.5 30.5t-96 88.5t-33.5 141t34 141t95 88.5t141 30.5q82 0 139.5 -30.5t88 -84.5t30.5 -126q0 -17 -1.5 -34t-3.5 -29h-393v88h305l-96 -37q0 57 -15.5 86.5t-53.5 29.5q-26 0 -43.5 -12t-26 -40t-8.5 -74t10.5 -72.5t29.5 -36.5t48 -10q32 0 50 13
t26 36l162 -48q-12 -46 -48.5 -77t-86.5 -46.5t-105 -15.5zM499 719q-1 -57 -19 -94.5t-46.5 -56t-61.5 -18.5q-28 0 -48.5 8.5t-36 19t-28.5 18.5t-27 8q-15 0 -23 -12.5t-11 -39.5h-108q3 85 41.5 126.5t95.5 41.5q27 0 46 -8t32.5 -18.5t26 -18.5t26.5 -8q16 0 23.5 12.5
t10.5 39.5h107z" />
    <glyph glyph-name="uni1EBE" unicode="&#x1ebe;" horiz-adv-x="628" 
d="M513 712h-128l-58 74l-58 -74h-128l100 162h172zM537 960h158l-81 -148h-130zM61 0v660h532v-153h-328v-107h262v-142h-262v-105h341v-153h-545z" />
    <glyph glyph-name="uni1EBF" unicode="&#x1ebf;" horiz-adv-x="579" 
d="M506 800h157l-81 -148h-130zM481 552h-128l-58 74l-57 -74h-129l100 162h173zM305 -10q-86 0 -148.5 30.5t-96 88.5t-33.5 141t34 141t95 88.5t141 30.5q82 0 139.5 -30.5t88 -85t30.5 -125.5q0 -16 -1.5 -32.5t-3.5 -26.5h-393v82h305l-96 -36q0 57 -15.5 87t-53.5 30
q-26 0 -43.5 -12t-26 -40t-8.5 -74t10 -72.5t29.5 -36.5t48.5 -10q32 0 50 13t26 36l162 -48q-12 -46 -48.5 -77t-86.5 -46.5t-105 -15.5z" />
    <glyph glyph-name="uni1EC0" unicode="&#x1ec0;" horiz-adv-x="628" 
d="M513 712h-128l-58 74l-58 -74h-128l100 162h172zM578 960l54 -148h-130l-82 148h158zM61 0v660h532v-153h-328v-107h262v-142h-262v-105h341v-153h-545z" />
    <glyph glyph-name="uni1EC1" unicode="&#x1ec1;" horiz-adv-x="579" 
d="M546 800l54 -148h-130l-81 148h157zM481 552h-128l-58 74l-57 -74h-129l100 162h173zM305 -10q-86 0 -148.5 30.5t-96 88.5t-33.5 141t34 141t95 88.5t141 30.5q82 0 139.5 -30.5t88 -85t30.5 -125.5q0 -16 -1.5 -32.5t-3.5 -26.5h-393v82h305l-96 -36q0 57 -15.5 87
t-53.5 30q-26 0 -43.5 -12t-26 -40t-8.5 -74t10 -72.5t29.5 -36.5t48.5 -10q32 0 50 13t26 36l162 -48q-12 -46 -48.5 -77t-86.5 -46.5t-105 -15.5z" />
    <glyph glyph-name="uni1EC2" unicode="&#x1ec2;" horiz-adv-x="628" 
d="M513 712h-128l-58 74l-58 -74h-128l100 162h172zM509 796l-40 57q29 11 40 23.5t11 25.5t-8 21.5t-23 8.5t-23 -7t-14 -19l-88 40q12 42 48.5 65.5t88.5 23.5q33 0 62.5 -12t48 -36t18.5 -60q0 -39 -19.5 -65.5t-47.5 -42t-54 -23.5zM61 0v660h532v-153h-328v-107h262
v-142h-262v-105h341v-153h-545z" />
    <glyph glyph-name="uni1EC3" unicode="&#x1ec3;" horiz-adv-x="579" 
d="M477 636l-40 57q29 11 40 23.5t11 25.5t-8 21.5t-23 8.5q-14 0 -22.5 -7t-14.5 -19l-88 40q12 42 48.5 65.5t89.5 23.5q32 0 61.5 -12t48 -36t18.5 -60q0 -39 -19.5 -65.5t-47.5 -42t-54 -23.5zM481 552h-128l-58 74l-57 -74h-129l100 162h173zM305 -10
q-86 0 -148.5 30.5t-96 88.5t-33.5 141t34 141t95 88.5t141 30.5q82 0 139.5 -30.5t88 -85t30.5 -125.5q0 -16 -1.5 -32.5t-3.5 -26.5h-393v82h305l-96 -36q0 57 -15.5 87t-53.5 30q-26 0 -43.5 -12t-26 -40t-8.5 -74t10 -72.5t29.5 -36.5t48.5 -10q32 0 50 13t26 36
l162 -48q-12 -46 -48.5 -77t-86.5 -46.5t-105 -15.5z" />
    <glyph glyph-name="uni1EC4" unicode="&#x1ec4;" horiz-adv-x="628" 
d="M513 712h-128l-58 74l-58 -74h-128l100 162h172zM514 1048q-3 -77 -37 -114t-79 -37q-26 0 -44.5 7t-32.5 16.5t-26 17t-24 7.5q-15 0 -22 -11.5t-10 -34.5h-98q3 77 38 114t87 37q24 0 41.5 -7t30 -17t23.5 -17t24 -7q14 0 21 11t10 35h98zM61 0v660h532v-153h-328v-107
h262v-142h-262v-105h341v-153h-545z" />
    <glyph glyph-name="uni1EC5" unicode="&#x1ec5;" horiz-adv-x="579" 
d="M481 552h-128l-58 74l-57 -74h-129l100 162h173zM482 888q-2 -77 -36.5 -114t-79.5 -37q-26 0 -44.5 7t-32.5 16.5t-26 17t-24 7.5q-15 0 -22 -11.5t-10 -34.5h-98q3 77 38.5 114t86.5 37q25 0 42 -7t29.5 -17t23.5 -17t24 -7q14 0 21.5 11t9.5 35h98zM305 -10
q-86 0 -148.5 30.5t-96 88.5t-33.5 141t34 141t95 88.5t141 30.5q82 0 139.5 -30.5t88 -85t30.5 -125.5q0 -16 -1.5 -32.5t-3.5 -26.5h-393v82h305l-96 -36q0 57 -15.5 87t-53.5 30q-26 0 -43.5 -12t-26 -40t-8.5 -74t10 -72.5t29.5 -36.5t48.5 -10q32 0 50 13t26 36
l162 -48q-12 -46 -48.5 -77t-86.5 -46.5t-105 -15.5z" />
    <glyph glyph-name="uni1EC6" unicode="&#x1ec6;" horiz-adv-x="628" 
d="M61 0v660h532v-153h-328v-107h262v-142h-262v-105h341v-153h-545zM340 -224q-51 0 -76.5 22t-25.5 66q0 43 25.5 65t76.5 22q52 0 78.5 -22t26.5 -65q0 -44 -26.5 -66t-78.5 -22zM521 715h-134l-60 87l-60 -87h-134l97 166h194z" />
    <glyph glyph-name="uni1EC7" unicode="&#x1ec7;" horiz-adv-x="579" 
d="M305 -10q-86 0 -148.5 30.5t-96 88.5t-33.5 141t34 141t95 88.5t141 30.5q82 0 139.5 -30.5t88 -84.5t30.5 -126q0 -17 -1.5 -34t-3.5 -29h-393v88h305l-96 -37q0 57 -15.5 86.5t-53.5 29.5q-26 0 -43.5 -12t-26 -40t-8.5 -74t10.5 -72.5t29.5 -36.5t48 -10q32 0 50 13
t26 36l162 -48q-12 -46 -48.5 -77t-86.5 -46.5t-105 -15.5zM297 -224q-51 0 -76.5 22t-25.5 66q0 43 25.5 65t76.5 22q52 0 78.5 -22t26.5 -65q0 -44 -26.5 -66t-78.5 -22zM498 552h-141l-62 80l-62 -80h-141l108 176h190z" />
    <glyph glyph-name="uni1EC8" unicode="&#x1ec8;" horiz-adv-x="326" 
d="M265 660v-660h-204v660h204zM163 695l-40 56q29 12 40 24t11 25q0 14 -8 22.5t-23 8.5t-23 -7t-14 -20l-88 40q12 43 48.5 66t88.5 23q33 0 62.5 -12t48 -36t18.5 -60q0 -39 -19.5 -65.5t-47.5 -42t-54 -22.5z" />
    <glyph glyph-name="uni1EC9" unicode="&#x1ec9;" horiz-adv-x="300" 
d="M251 500v-500h-202v500h202zM149 542l-40 57q29 12 40.5 24.5t11.5 25.5t-8 22t-24 9q-14 0 -22 -7.5t-14 -20.5l-89 40q12 44 49 67t89 23q33 0 62.5 -12t48 -36t18.5 -60q0 -40 -19.5 -66.5t-48 -42t-54.5 -23.5z" />
    <glyph glyph-name="uni1ECA" unicode="&#x1eca;" horiz-adv-x="326" 
d="M265 660v-660h-204v660h204zM163 -224q-51 0 -76.5 22t-25.5 66q0 43 25.5 65t76.5 22q52 0 78.5 -22t26.5 -65q0 -44 -26.5 -66t-78.5 -22z" />
    <glyph glyph-name="uni1ECB" unicode="&#x1ecb;" horiz-adv-x="300" 
d="M150 544q-60 0 -86.5 21t-26.5 68q0 48 26.5 69t86.5 21t86.5 -21t26.5 -69q0 -47 -26.5 -68t-86.5 -21zM251 500v-500h-202v500h202zM150 -224q-51 0 -76.5 22t-25.5 66q0 43 25.5 65t76.5 22q52 0 78.5 -22t26.5 -65q0 -44 -26.5 -66t-78.5 -22z" />
    <glyph glyph-name="uni1ECC" unicode="&#x1ecc;" horiz-adv-x="733" 
d="M367 670q103 0 176.5 -40.5t113 -116.5t39.5 -183t-39.5 -183t-113 -116.5t-176.5 -40.5q-102 0 -176.5 40.5t-114.5 116.5t-40 183t40 183t114.5 116.5t176.5 40.5zM367 514q-41 0 -67.5 -20.5t-40 -60.5t-13.5 -103q0 -62 13.5 -102.5t40 -61t67.5 -20.5q40 0 67 20.5
t40 61t13 102.5q0 63 -13 103t-40 60.5t-67 20.5zM367 -224q-51 0 -76.5 22t-25.5 66q0 43 25.5 65t76.5 22q52 0 78.5 -22t26.5 -65q0 -44 -26.5 -66t-78.5 -22z" />
    <glyph glyph-name="uni1ECD" unicode="&#x1ecd;" horiz-adv-x="598" 
d="M299 510q82 0 143 -30.5t95 -88.5t34 -141q0 -82 -34 -140.5t-95 -89t-143 -30.5q-80 0 -141.5 30.5t-96 89t-34.5 140.5q0 83 34.5 141t96 88.5t141.5 30.5zM299 371q-22 0 -37.5 -11t-23.5 -38t-8 -72t8 -71.5t23.5 -38t37.5 -11.5q23 0 38 11.5t23 38t8 71.5t-8 72
t-23 38t-38 11zM299 -224q-51 0 -76.5 22t-25.5 66q0 43 25.5 65t76.5 22q52 0 78.5 -22t26.5 -65q0 -44 -26.5 -66t-78.5 -22z" />
    <glyph glyph-name="uni1ECE" unicode="&#x1ece;" horiz-adv-x="733" 
d="M367 670q103 0 176.5 -40.5t113 -116.5t39.5 -183t-39.5 -183t-113 -116.5t-176.5 -40.5q-102 0 -176.5 40.5t-114.5 116.5t-40 183t40 183t114.5 116.5t176.5 40.5zM367 514q-41 0 -67.5 -20.5t-40 -60.5t-13.5 -103q0 -62 13.5 -102.5t40 -61t67.5 -20.5q40 0 67 20.5
t40 61t13 102.5q0 63 -13 103t-40 60.5t-67 20.5zM367 695l-40 56q29 12 40 24t11 25q0 14 -8 22.5t-23 8.5t-23 -7t-14 -20l-88 40q12 43 48.5 66t88.5 23q33 0 62.5 -12t48 -36t18.5 -60q0 -39 -19.5 -65.5t-47.5 -42t-54 -22.5z" />
    <glyph glyph-name="uni1ECF" unicode="&#x1ecf;" horiz-adv-x="598" 
d="M299 510q82 0 143 -30.5t95 -88.5t34 -141q0 -82 -34 -140.5t-95 -89t-143 -30.5q-80 0 -141.5 30.5t-96 89t-34.5 140.5q0 83 34.5 141t96 88.5t141.5 30.5zM299 371q-22 0 -37.5 -11t-23.5 -38t-8 -72t8 -71.5t23.5 -38t37.5 -11.5q23 0 38 11.5t23 38t8 71.5t-8 72
t-23 38t-38 11zM298 542l-40 57q29 12 40.5 24.5t11.5 25.5t-8 22t-24 9q-14 0 -22 -7.5t-14 -20.5l-89 40q12 44 49 67t89 23q33 0 62.5 -12t48 -36t18.5 -60q0 -40 -19.5 -66.5t-48 -42t-54.5 -23.5z" />
    <glyph glyph-name="uni1ED0" unicode="&#x1ed0;" horiz-adv-x="733" 
d="M553 712h-129l-57 74l-58 -74h-128l99 162h173zM577 960h158l-81 -148h-130zM367 670q103 0 176.5 -40.5t113 -116.5t39.5 -183t-39.5 -183t-113 -116.5t-176.5 -40.5q-102 0 -176.5 40.5t-114.5 116.5t-40 183t40 183t114.5 116.5t176.5 40.5zM367 514
q-41 0 -67.5 -20.5t-40 -60.5t-13.5 -103q0 -62 13.5 -102.5t40 -61t67.5 -20.5q40 0 67 20.5t40 61t13 102.5q0 63 -13 103t-40 60.5t-67 20.5z" />
    <glyph glyph-name="uni1ED1" unicode="&#x1ed1;" horiz-adv-x="598" 
d="M510 800h158l-81 -148h-131zM485 552h-128l-58 74l-57 -74h-129l100 162h173zM299 510q82 0 143 -30.5t95 -88.5t34 -141q0 -82 -34 -140.5t-95 -89t-143 -30.5q-80 0 -141.5 30.5t-96 89t-34.5 140.5q0 83 34.5 141t96 88.5t141.5 30.5zM299 371q-22 0 -37.5 -11
t-23.5 -38t-8 -72t8 -71.5t23.5 -38t37.5 -11.5q23 0 38 11.5t23 38t8 71.5t-8 72t-23 38t-38 11z" />
    <glyph glyph-name="uni1ED2" unicode="&#x1ed2;" horiz-adv-x="733" 
d="M553 712h-129l-57 74l-58 -74h-128l99 162h173zM618 960l54 -148h-131l-81 148h158zM367 670q103 0 176.5 -40.5t113 -116.5t39.5 -183t-39.5 -183t-113 -116.5t-176.5 -40.5q-102 0 -176.5 40.5t-114.5 116.5t-40 183t40 183t114.5 116.5t176.5 40.5zM367 514
q-41 0 -67.5 -20.5t-40 -60.5t-13.5 -103q0 -62 13.5 -102.5t40 -61t67.5 -20.5q40 0 67 20.5t40 61t13 102.5q0 63 -13 103t-40 60.5t-67 20.5z" />
    <glyph glyph-name="uni1ED3" unicode="&#x1ed3;" horiz-adv-x="598" 
d="M551 800l53 -148h-130l-81 148h158zM485 552h-128l-58 74l-57 -74h-129l100 162h173zM299 510q82 0 143 -30.5t95 -88.5t34 -141q0 -82 -34 -140.5t-95 -89t-143 -30.5q-80 0 -141.5 30.5t-96 89t-34.5 140.5q0 83 34.5 141t96 88.5t141.5 30.5zM299 371q-22 0 -37.5 -11
t-23.5 -38t-8 -72t8 -71.5t23.5 -38t37.5 -11.5q23 0 38 11.5t23 38t8 71.5t-8 72t-23 38t-38 11z" />
    <glyph glyph-name="uni1ED4" unicode="&#x1ed4;" horiz-adv-x="733" 
d="M553 712h-129l-57 74l-58 -74h-128l99 162h173zM549 796l-40 57q28 11 39.5 23.5t11.5 25.5t-8 21.5t-24 8.5q-14 0 -22 -7t-14 -19l-88 40q11 42 48 65.5t89 23.5q33 0 62.5 -12t48 -36t18.5 -60q0 -39 -19.5 -65.5t-47.5 -42t-54 -23.5zM367 670q103 0 176.5 -40.5
t113 -116.5t39.5 -183t-39.5 -183t-113 -116.5t-176.5 -40.5q-102 0 -176.5 40.5t-114.5 116.5t-40 183t40 183t114.5 116.5t176.5 40.5zM367 514q-41 0 -67.5 -20.5t-40 -60.5t-13.5 -103q0 -62 13.5 -102.5t40 -61t67.5 -20.5q40 0 67 20.5t40 61t13 102.5q0 63 -13 103
t-40 60.5t-67 20.5z" />
    <glyph glyph-name="uni1ED5" unicode="&#x1ed5;" horiz-adv-x="598" 
d="M482 636l-41 57q29 11 40.5 23.5t11.5 25.5t-8 21.5t-24 8.5q-14 0 -22.5 -7t-13.5 -19l-89 40q12 42 48.5 65.5t89.5 23.5q33 0 62 -12t47.5 -36t18.5 -60q0 -39 -19 -65.5t-47.5 -42t-53.5 -23.5zM485 552h-128l-58 74l-57 -74h-129l100 162h173zM299 510
q82 0 143 -30.5t95 -88.5t34 -141q0 -82 -34 -140.5t-95 -89t-143 -30.5q-80 0 -141.5 30.5t-96 89t-34.5 140.5q0 83 34.5 141t96 88.5t141.5 30.5zM299 371q-22 0 -37.5 -11t-23.5 -38t-8 -72t8 -71.5t23.5 -38t37.5 -11.5q23 0 38 11.5t23 38t8 71.5t-8 72t-23 38t-38 11
z" />
    <glyph glyph-name="uni1ED6" unicode="&#x1ed6;" horiz-adv-x="733" 
d="M553 712h-129l-57 74l-58 -74h-128l99 162h173zM554 1048q-3 -77 -37 -114t-80 -37q-25 0 -43.5 7t-33 16.5t-26 17t-24.5 7.5q-14 0 -21.5 -11.5t-9.5 -34.5h-98q2 77 37.5 114t87.5 37q24 0 41.5 -7t30 -17t23.5 -17t24 -7t20.5 11t10.5 35h98zM367 670
q103 0 176.5 -40.5t113 -116.5t39.5 -183t-39.5 -183t-113 -116.5t-176.5 -40.5q-102 0 -176.5 40.5t-114.5 116.5t-40 183t40 183t114.5 116.5t176.5 40.5zM367 514q-41 0 -67.5 -20.5t-40 -60.5t-13.5 -103q0 -62 13.5 -102.5t40 -61t67.5 -20.5q40 0 67 20.5t40 61
t13 102.5q0 63 -13 103t-40 60.5t-67 20.5z" />
    <glyph glyph-name="uni1ED7" unicode="&#x1ed7;" horiz-adv-x="598" 
d="M485 552h-128l-58 74l-57 -74h-129l100 162h173zM486 888q-2 -77 -36.5 -114t-79.5 -37q-26 0 -44.5 7t-32.5 16.5t-25.5 17t-24.5 7.5q-15 0 -22 -11.5t-10 -34.5h-98q3 77 38.5 114t86.5 37q25 0 42 -7t30 -17t23.5 -17t23.5 -7q14 0 21.5 11t9.5 35h98zM299 510
q82 0 143 -30.5t95 -88.5t34 -141q0 -82 -34 -140.5t-95 -89t-143 -30.5q-80 0 -141.5 30.5t-96 89t-34.5 140.5q0 83 34.5 141t96 88.5t141.5 30.5zM299 371q-22 0 -37.5 -11t-23.5 -38t-8 -72t8 -71.5t23.5 -38t37.5 -11.5q23 0 38 11.5t23 38t8 71.5t-8 72t-23 38t-38 11
z" />
    <glyph glyph-name="uni1ED8" unicode="&#x1ed8;" horiz-adv-x="733" 
d="M367 670q103 0 176.5 -40.5t113 -116.5t39.5 -183t-39.5 -183t-113 -116.5t-176.5 -40.5q-102 0 -176.5 40.5t-114.5 116.5t-40 183t40 183t114.5 116.5t176.5 40.5zM367 514q-41 0 -67.5 -20.5t-40 -60.5t-13.5 -103q0 -62 13.5 -102.5t40 -61t67.5 -20.5q40 0 67 20.5
t40 61t13 102.5q0 63 -13 103t-40 60.5t-67 20.5zM367 -224q-51 0 -76.5 22t-25.5 66q0 43 25.5 65t76.5 22q52 0 78.5 -22t26.5 -65q0 -44 -26.5 -66t-78.5 -22zM561 715h-134l-60 87l-60 -87h-134l97 166h194z" />
    <glyph glyph-name="uni1ED9" unicode="&#x1ed9;" horiz-adv-x="598" 
d="M299 510q82 0 143 -30.5t95 -88.5t34 -141q0 -82 -34 -140.5t-95 -89t-143 -30.5q-80 0 -141.5 30.5t-96 89t-34.5 140.5q0 83 34.5 141t96 88.5t141.5 30.5zM299 371q-22 0 -37.5 -11t-23.5 -38t-8 -72t8 -71.5t23.5 -38t37.5 -11.5q23 0 38 11.5t23 38t8 71.5t-8 72
t-23 38t-38 11zM299 -224q-51 0 -76.5 22t-25.5 66q0 43 25.5 65t76.5 22q52 0 78.5 -22t26.5 -65q0 -44 -26.5 -66t-78.5 -22zM502 552h-141l-62 80l-62 -80h-141l108 176h190z" />
    <glyph glyph-name="uni1EDA" unicode="&#x1eda;" horiz-adv-x="733" 
d="M684 765q0 -102 -56 -157.5t-168 -55.5l-4 108q50 0 72 24.5t22 80.5h134zM367 670q103 0 176.5 -40.5t113 -116.5t39.5 -183t-39.5 -183t-113 -116.5t-176.5 -40.5q-102 0 -176.5 40.5t-114.5 116.5t-40 183t40 183t114.5 116.5t176.5 40.5zM367 514q-41 0 -67.5 -20.5
t-40 -60.5t-13.5 -103q0 -62 13.5 -102.5t40 -61t67.5 -20.5q40 0 67 20.5t40 61t13 102.5q0 63 -13 103t-40 60.5t-67 20.5zM344 881h176l-91 -166h-144z" />
    <glyph glyph-name="uni1EDB" unicode="&#x1edb;" horiz-adv-x="598" 
d="M299 510q82 0 143 -30.5t95 -88.5t34 -141q0 -82 -34 -140.5t-95 -89t-143 -30.5q-80 0 -141.5 30.5t-96 89t-34.5 140.5q0 83 34.5 141t96 88.5t141.5 30.5zM299 371q-22 0 -37.5 -11t-23.5 -38t-8 -72t8 -71.5t23.5 -38t37.5 -11.5q23 0 38 11.5t23 38t8 71.5t-8 72
t-23 38t-38 11zM385 400v100q27 0 42.5 24.5t15.5 82.5h132q0 -107 -50.5 -157t-139.5 -50zM276 734h183l-103 -175h-143z" />
    <glyph glyph-name="uni1EDC" unicode="&#x1edc;" horiz-adv-x="733" 
d="M684 765q0 -102 -56 -157.5t-168 -55.5l-4 108q50 0 72 24.5t22 80.5h134zM367 670q103 0 176.5 -40.5t113 -116.5t39.5 -183t-39.5 -183t-113 -116.5t-176.5 -40.5q-102 0 -176.5 40.5t-114.5 116.5t-40 183t40 183t114.5 116.5t176.5 40.5zM367 514q-41 0 -67.5 -20.5
t-40 -60.5t-13.5 -103q0 -62 13.5 -102.5t40 -61t67.5 -20.5q40 0 67 20.5t40 61t13 102.5q0 63 -13 103t-40 60.5t-67 20.5zM390 881l59 -166h-144l-91 166h176z" />
    <glyph glyph-name="uni1EDD" unicode="&#x1edd;" horiz-adv-x="598" 
d="M299 510q82 0 143 -30.5t95 -88.5t34 -141q0 -82 -34 -140.5t-95 -89t-143 -30.5q-80 0 -141.5 30.5t-96 89t-34.5 140.5q0 83 34.5 141t96 88.5t141.5 30.5zM299 371q-22 0 -37.5 -11t-23.5 -38t-8 -72t8 -71.5t23.5 -38t37.5 -11.5q23 0 38 11.5t23 38t8 71.5t-8 72
t-23 38t-38 11zM385 400v100q27 0 42.5 24.5t15.5 82.5h132q0 -107 -50.5 -157t-139.5 -50zM311 734l63 -175h-144l-102 175h183z" />
    <glyph glyph-name="uni1EDE" unicode="&#x1ede;" horiz-adv-x="733" 
d="M684 765q0 -102 -56 -157.5t-168 -55.5l-4 108q50 0 72 24.5t22 80.5h134zM367 670q103 0 176.5 -40.5t113 -116.5t39.5 -183t-39.5 -183t-113 -116.5t-176.5 -40.5q-102 0 -176.5 40.5t-114.5 116.5t-40 183t40 183t114.5 116.5t176.5 40.5zM367 514q-41 0 -67.5 -20.5
t-40 -60.5t-13.5 -103q0 -62 13.5 -102.5t40 -61t67.5 -20.5q40 0 67 20.5t40 61t13 102.5q0 63 -13 103t-40 60.5t-67 20.5zM367 695l-40 56q29 12 40 24t11 25q0 14 -8 22.5t-23 8.5t-23 -7t-14 -20l-88 40q12 43 48.5 66t88.5 23q33 0 62.5 -12t48 -36t18.5 -60
q0 -39 -19.5 -65.5t-47.5 -42t-54 -22.5z" />
    </font>
</defs>
</svg>
