<?xml version="1.0" standalone="no"?>
<!DOCTYPE svg PUBLIC "-//W3C//DTD SVG 1.1//EN" "http://www.w3.org/Graphics/SVG/1.1/DTD/svg11.dtd" >
<svg xmlns="http://www.w3.org/2000/svg" xmlns:xlink="http://www.w3.org/1999/xlink" version="1.1">
<metadata>
Created by FontForge 20201107 at Thu Nov 24 12:18:06 2022
 By 
(c)NihStudio
</metadata>
<defs>
<font id="UniqueKingdomDemoRegular" horiz-adv-x="4997" >
  <font-face 
    font-family="Unique Kingdom Demo"
    font-weight="400"
    font-stretch="normal"
    units-per-em="2048"
    panose-1="0 0 0 0 0 0 0 0 0 0"
    ascent="1638"
    descent="-410"
    x-height="1148"
    cap-height="1662"
    bbox="-1229 -709.539 14448 1682"
    underline-thickness="102"
    underline-position="-307"
    unicode-range="U+000A-F002"
  />
<missing-glyph horiz-adv-x="1079" 
d="M102 1434h875v-1434h-875v1434zM160 1393l379 -633l381 633h-760zM514 717l-369 614v-1231zM541 674l-379 -631h758zM565 717l371 -621v1239z" />
    <glyph glyph-name="UNIQUE KINGDOM.liga" unicode="UNIQUE&#x20;KINGDOM" horiz-adv-x="12980" 
d="M1371 871l11 -671q1 -100 78 -200l-444 -3q72 97 70 222l-12 707v15.5t-5 33.5t-14.5 42t-30.5 33t-51 14q-39 -1 -83 -85t-77.5 -198t-54.5 -231l6 -328q2 -123 77 -222h-443q72 97 70 222l-12 674q-1 101 -77 200q117 -2 221 10q66 8 121 19t77 19l23 7
q-72 -97 -70 -222l5 -240q108 461 291 461q86 0 158 -31.5t118.5 -96.5t47.5 -151zM9122 871l12 -671q1 -101 77 -200l-443 -3q72 97 70 222l-12 707q0 6 -0.5 15.5t-5.5 33.5t-14.5 42t-30.5 33t-51 14q-39 -1 -82.5 -85t-77 -197.5t-54.5 -231.5l5 -328q2 -122 78 -222
h-443q72 97 70 222l-12 674q-1 100 -78 200q118 -2 222 10q66 8 121 19t77 19l23 7q-72 -97 -70 -222l4 -240q108 461 292 461q133 0 227 -75t96 -204zM14448 0l-444 -3q72 97 70 222l-12 707v15.5t-5 33.5t-14.5 42t-30.5 33t-51 14q-40 -1 -85.5 -90.5t-79.5 -209.5
t-54 -238l5 -326q1 -100 78 -200l-444 -3q72 97 70 222l-12 707v15.5t-5 33.5t-14.5 42t-30.5 33t-51 14q-39 -1 -83 -85t-77.5 -198t-54.5 -231l6 -328q2 -123 77 -222h-443q72 97 70 222l-12 674q-1 101 -77 200q117 -2 221 10q66 8 121 19t78 19l22 7q-72 -97 -70 -222
l5 -240q108 462 291 462q86 0 158 -32t118.5 -97t47.5 -151l3 -202q110 482 296 482q86 0 158 -32t118.5 -97t47.5 -151l12 -671q1 -101 77 -200zM1931 929l12 -707q2 -122 78 -222h-443q72 97 70 222l-12 674q-1 101 -77 200q117 -2 221 10q66 8 121 19t77 18l23 7
q-72 -97 -70 -221zM1759 1193q-76 0 -130 53.5t-56 129.5q-1 76 51.5 129.5t128.5 53.5t130 -53.5t56 -129.5q1 -76 -51.5 -129.5t-128.5 -53.5zM7951 929l13 -707q2 -123 77 -222h-443q72 97 70 222l-12 674q-1 101 -77 200q117 -2 221 10q66 8 121 19t77 18l23 7
q-72 -97 -70 -221zM7779 1193q-76 0 -130 53.5t-56 129.5q-1 76 51.5 129.5t128.5 53.5t130 -53.5t56 -129.5q1 -76 -51.5 -129.5t-128.5 -53.5zM12122 1148q150 0 279.5 -77t206 -209t79.5 -287t-69 -287t-198.5 -209t-277.5 -77q-150 0 -279 77t-205.5 209t-79.5 287
t69 287t198.5 209t276.5 77zM12339 69q64 22 88 118t9 222.5t-60 251.5q-44 122 -121.5 229.5t-164.5 164t-152 34.5q-64 -22 -91 -118.5t-14.5 -224.5t56.5 -252q32 -90 88.5 -176t119 -146.5t128 -90t114.5 -12.5zM4972 94q138 -8 266 103.5t172 283.5
q-12 -230 -144.5 -358.5t-316.5 -122.5q-173 5 -305.5 75t-200 186t-57.5 257q8 115 47 213t96.5 165.5t129 119.5t146.5 80.5t148.5 42t135 10t105.5 -20.5q177 -70 181 -248q1 -73 -34 -163t-93 -168.5t-140.5 -130.5t-165.5 -50q-87 2 -130 61.5t-35.5 164t64.5 237.5
q3 9 8 11q2 0 1 -6q-7 -44 -0.5 -91t37.5 -83.5t74 -36.5q52 0 103.5 44.5t83.5 110.5t45.5 134.5t-9.5 125t-82 74.5q-39 12 -80 7q-42 -4 -89 -29.5t-96 -76t-86.5 -118t-57.5 -166.5t-11 -211q13 -175 97.5 -297t192.5 -129zM4230 929l12 -707q2 -122 78 -222h-443
q72 97 70 222l-6 332q-18 -88 -37 -160.5t-47.5 -149t-60 -128.5t-75 -85.5t-92.5 -33.5q-86 0 -158 31.5t-118.5 96.5t-47.5 151l-11 620q-1 101 -77 200q117 -2 221 10q66 8 121 19t77 18l23 7q-72 -97 -70 -221l13 -707v-15.5t5 -33.5t14.5 -42.5t30.5 -33.5t51 -14
q49 1 105 131t91.5 288.5t37.5 258.5l-2 135q-1 100 -78 200q118 -2 222 10q66 8 121 19t78 18l22 7q-72 -97 -70 -221zM3047 929l21 -1172q2 -123 77 -222h-443q72 97 70 222l-6 310q-94 -67 -201 -67q-142 0 -246 109t-164 288q-44 133 -49.5 250.5t19.5 199.5t70 146
t95.5 99t102.5 49q40 8 73.5 7.5t67 -16t61.5 -35.5t56 -51t51.5 -63t47.5 -71q-7 94 -75 184q117 -2 221 10q66 8 121 19t77 18l23 7q-72 -97 -70 -221zM2698 81q42 -7 68 3l-12 731q-25 60 -61.5 117t-82 104.5t-101 68.5t-107.5 4q-60 -20 -78 -107t2.5 -207t70.5 -255
q41 -110 89.5 -207.5t106.5 -171t105 -80.5zM11405 1440l21 -1218q2 -122 78 -222l-369 -1l-2 88q-103 -87 -229 -87q-142 0 -246 109t-164 288q-44 133 -49.5 250.5t19 199.5t69.5 146t95.5 99t102.5 49q61 16 118 0t105.5 -61t87 -97t78.5 -123l-10 547q-1 101 -77 200
q117 -2 221 10q66 8 121 19t77 18l23 8q-72 -97 -70 -222zM11036 81q72 -11 97 27l-11 611q-8 44 -32 101t-62 115t-82 103.5t-99 66.5t-107 4q-60 -20 -77.5 -107t3 -206.5t70.5 -255.5q41 -110 89.5 -207.5t106 -171t104.5 -80.5zM9828 121q39 -1 77 0t79 -1t79 -5
t76.5 -13t72 -25t65 -40t56.5 -58q70 -94 23 -222q-28 -78 -76.5 -152.5t-107.5 -128.5q-33 -30 -75 -59.5t-94 -56t-101.5 -42t-99 -13t-84.5 27.5q-45 32 -66 95.5t-18 136.5t16 139.5t33 120.5q8 22 18 32t10 7q-1 0 -1 -2q-13 -46 0 -106.5t47 -115.5t85 -99
t113.5 -58.5t132.5 7.5q63 22 99.5 74.5t24.5 114.5q-10 52 -44 90.5t-75.5 59.5t-101 34t-105.5 17.5t-103 5.5q-13 0 -51.5 0.5t-58 1.5t-51 3.5t-57 9.5t-48.5 18q-56 27 -79.5 89t-13.5 128q18 118 100 235q3 6 14 18q-147 51 -234.5 148t-76.5 211q10 103 61 188.5
t124.5 139.5t161.5 92t175 53t162.5 15t126.5 -16q176 -54 179 -191q1 -45 -21 -99.5t-64 -107t-95 -96t-120.5 -69.5t-134.5 -25q-132 3 -158.5 103t60.5 255q1 4 7 8q3 2 3 -1q0 -1 -1 -3q-17 -52 14.5 -107.5t95.5 -55.5q86 0 161 84q69 76 76 159q8 92 -73 122
q-10 3 -21 6q-37 8 -80 5q-97 -8 -189.5 -92t-120.5 -182q-34 -120 -33 -184q2 -137 79.5 -233.5t184.5 -96.5q104 0 176 71t81 193q58 22 137 124.5t87 163.5q60 -112 60 -219.5t-34 -161.5q-69 -108 -204 -175.5t-301 -67.5q-117 0 -230 35q-41 -31 -45 -77
q-4 -57 48 -111q25 -26 55.5 -41.5t72 -22t66 -7.5t72.5 -2zM101 1617q66 8 121 19t78 18l22 7q-72 -97 -70 -221l13 -739q3 -191 -88 -352.5t-251 -255.5t-351 -94t-354 94t-260 255.5t-100 352.5l-12 706q-1 100 -78 200q118 -2 222 10q66 8 121 19t78 18l22 8
q-72 -97 -70 -222l16 -935q3 -168 124.5 -287.5t289.5 -119.5t285 119.5t114 287.5l-16 902q-1 101 -77 200q117 -2 221 10zM7557 360q18 24 14 11q-6 -21 -24 -49q-216 -327 -469 -326q-47 0 -90.5 16.5t-76.5 41t-64 65t-52.5 76t-44 86.5t-35 84.5t-29.5 82.5
q-117 337 -51 686q11 56 24 102q-1 0 -2 -2l-1 -2q-104 -174 -153 -264q-114 -209 -163 -442l6 -304q2 -122 78 -222h-444q72 97 70 222l-21 1185q-1 101 -77 200q118 -2 222 10q66 8 121 19t77 18l23 8q-72 -97 -70 -222l13 -754q35 103 95 225q139 280 250 440
q17 25 41.5 54.5t62 67t78.5 71t91.5 61.5t100 43.5t105 13t106.5 -26.5q135 -64 77 -282q-28 -103 -75 -181l-7 -9v1q1 4 -6 24.5t-21.5 52t-34 63.5t-49 60t-61.5 40q-52 19 -103.5 20.5t-92.5 -10t-80 -33.5t-66 -45t-51 -50q-8 -37 -7 -70q3 -85 19 -186
q19 -113 61 -224.5t109 -256.5q27 -57 53.5 -101.5t62.5 -88.5t82.5 -76.5t100.5 -50.5q225 -73 378 128z" />
    <glyph glyph-name="Unique Kingdom.liga" unicode="Unique&#x20;Kingdom" horiz-adv-x="12953" 
d="M1358 871v-671q0 -102 74 -201l-444 -2q74 99 74 221v707v15.5t-4.5 33.5t-13.5 42.5t-30 33.5t-51 14q-39 -1 -84.5 -85t-81 -198t-58.5 -231v-328q0 -123 74 -222h-443q74 99 74 222v674q0 57 -18 103t-56 97q118 -2 222 10q66 8 121 19t77 18l23 7q-74 -99 -74 -221
v-240q116 461 300 461q133 0 226 -75t93 -204zM9109 871v-671q0 -102 74 -201l-444 -2q74 99 74 221v707v15.5t-4.5 33.5t-13 42.5t-29.5 33.5t-51 14q-39 -1 -84.5 -85t-81 -198t-58.5 -231v-328q0 -123 74 -222h-444q74 99 74 222v674q0 57 -18 103t-56 97q118 -2 222 10
q66 8 121.5 19t77.5 18l23 7q-74 -99 -74 -221v-240q116 461 299 461q133 0 226 -75t93 -204zM14050 219v706v15.5t-4.5 33.5t-13.5 42.5t-30 33.5t-51 14q-40 -1 -87 -90.5t-83 -209.5t-58 -238v-326q0 -102 74 -201l-444 -2q74 99 74 221v707v15.5t-4.5 33.5t-13.5 42.5
t-30 33.5t-51 14q-39 -1 -84.5 -85t-81 -198t-58.5 -231v-328q0 -123 74 -222h-443q74 99 74 222v674q0 57 -18 103t-56 97q118 -2 222 10q66 8 121 19t78 18l22 7q-74 -99 -74 -221v-240q116 461 300 461q133 0 226 -75t93 -204v-202q117 481 304 481q133 0 226 -75
t93 -204v-671q0 -57 18 -103t56 -97l-444 -3q74 99 74 222zM1550 1096q117 -2 221 10q66 8 121.5 19t77.5 18l23 7q-74 -99 -74 -221v-707q0 -123 74 -222h-443q74 99 74 222v674q0 57 -18 103t-56 97zM1752 1193q-76 0 -129.5 53.5t-53.5 129.5t53.5 129.5t129.5 53.5
t129.5 -53.5t53.5 -129.5t-53.5 -129.5t-129.5 -53.5zM7570 1096q117 -2 221 10q66 8 121.5 19t77.5 18l23 7q-74 -99 -74 -221v-707q0 -123 74 -222h-443q74 99 74 222v674q0 57 -18 103t-56 97zM7772 1193q-76 0 -129.5 53.5t-53.5 129.5t53.5 129.5t129.5 53.5
t129.5 -53.5t53.5 -129.5t-53.5 -129.5t-129.5 -53.5zM12114 1148q150 0 278 -77t202 -209t74 -287t-74 -287t-202 -209t-278 -77t-278 77t-202 209t-74 287t74 287t202 209t278 77zM12312 69q65 22 90.5 118t12.5 222.5t-56 251.5q-42 122 -117.5 229.5t-162 164
t-151.5 34.5t-93.5 -118.5t-18 -224.5t52.5 -252q41 -121 120.5 -228t168 -163t154.5 -34zM4945 94q138 -8 267.5 103.5t177.5 283.5q-8 -117 -49.5 -211t-106 -153t-145 -89.5t-168.5 -27.5q-129 4 -237.5 46t-181 110.5t-109 162.5t-26.5 199q10 115 50.5 213t99 165.5
t131 119.5t148.5 80.5t149.5 42t135.5 10t105 -20.5q77 -30 126.5 -90.5t49.5 -157.5q0 -73 -37 -163t-96 -168.5t-142.5 -130.5t-166.5 -50q-132 4 -157.5 133t64.5 330q11 16 10 9q0 -2 -1 -4q-17 -68 13.5 -139.5t94.5 -71.5q37 0 75.5 23.5t68.5 62.5t55 87t34.5 98
t7.5 94t-26 77.5t-66 46.5q-38 12 -80 7q-42 -4 -89.5 -29.5t-97 -76t-88 -118t-60.5 -166.5t-15 -211q10 -175 92 -297t190 -129zM3848 1096q118 -2 222 10q66 8 121.5 19t78.5 18l22 7q-74 -99 -74 -221v-707q0 -123 74 -222h-444q74 99 74 222v332q-122 -557 -322 -557
q-133 0 -225.5 75t-92.5 204v620q0 57 -18 103t-56 97q118 -2 222 10q66 8 121 19t77 18l23 7q-74 -99 -74 -221v-707v-15.5t4.5 -33.5t13.5 -42.5t30 -33.5t51 -14q49 1 107.5 131t96.5 288.5t42 258.5v135q0 57 -18 103t-56 97zM3109 1150q-74 -99 -74 -221v-1172
q0 -123 74 -222h-443q73 97 73 222v310q-96 -67 -202 -67q-73 0 -137 30.5t-113.5 85.5t-87.5 125t-65 156q-42 133 -45.5 250.5t23 199.5t72 146t97 99t103.5 49q40 8 73.5 7.5t67 -16t61.5 -35.5t55.5 -51t50.5 -63t46 -71q-5 95 -72 184q117 -2 221 10q66 8 121.5 19
t77.5 18zM2739 84l1 731q-24 60 -59.5 117t-80.5 104.5t-99.5 68.5t-107.5 4q-61 -20 -80 -107t-0.5 -206.5t65.5 -255.5q38 -110 85.5 -207.5t104 -171t103.5 -80.5q42 -7 68 3zM11476 1662q-74 -99 -74 -222v-1218q0 -123 74 -222h-369v88q-106 -88 -231 -88
q-142 0 -245 109.5t-159 287.5q-42 133 -45.5 250.5t23 199.5t72.5 146t97.5 99t103.5 49q62 16 118.5 0t104 -61t84.5 -96.5t76 -123.5v547q0 104 -73 201q117 -3 221 9q66 8 121.5 19t78.5 18zM11106 108v611q-7 44 -29.5 101t-59.5 115t-80.5 103.5t-98.5 66.5t-107 4
q-61 -20 -80 -107t-0.5 -207t66.5 -255q39 -110 85.5 -207.5t103 -171t103.5 -80.5q37 -5 59.5 0.5t37.5 26.5zM9802 121q39 -1 77.5 0t79 -1t78.5 -5t76 -13t71.5 -25t65 -40t55.5 -58q67 -92 18 -222q-67 -173 -188 -281q-34 -30 -76 -59.5t-95 -56t-102.5 -42t-99 -13
t-84.5 27.5q-59 42 -73.5 139t1.5 187.5t45 165.5q7 20 19 32q10 10 10 7q-1 0 -1 -2q-14 -46 -1.5 -106.5t45.5 -115.5t83 -99t112.5 -58.5t132.5 7.5q63 22 101 75t26 114q-9 52 -42.5 90.5t-74.5 59.5t-100 34t-105 17.5t-103 5.5q-13 0 -51.5 0.5t-58 1.5t-50.5 3.5
t-56.5 9.5t-48.5 18q-56 27 -78.5 89t-11.5 128q19 119 104 235q1 2 15 18q-146 51 -232 148t-73 211q10 89 50.5 165t99 128t131 92.5t148.5 62.5t149.5 32.5t135.5 7.5t105 -16q77 -23 126.5 -69.5t49.5 -121.5q0 -56 -37 -126t-96 -131t-142.5 -101.5t-166.5 -38.5
q-132 3 -157 103t65 255q8 12 10 8q0 -1 -1 -4q-17 -52 13 -107.5t94 -55.5q86 0 163 84q70 76 78 159q10 92 -71 122q-10 3 -21 6q-36 8 -80 5q-97 -8 -191 -92t-123 -182q-36 -119 -36 -184q0 -137 76 -233.5t183 -96.5q103 0 176.5 71t84.5 193q59 22 139.5 124.5
t89.5 163.5q40 -77 51 -158.5t0 -136t-32 -86.5q-71 -108 -207 -175.5t-302 -67.5q-117 0 -230 35q-42 -31 -46 -77q-4 -59 46 -111q24 -26 54.5 -41.5t71.5 -22t66 -7.5t73 -2zM-120 1608q117 -3 221 9q66 8 121.5 19t77.5 18l23 8q-74 -99 -74 -222v-739
q0 -191 -94 -352.5t-255.5 -255.5t-352.5 -94t-352.5 94t-255.5 255.5t-94 352.5v706q0 57 -18 103t-56 97q118 -2 222 10q66 8 121.5 19t77.5 18l23 8q-74 -99 -74 -222v-935q0 -168 119 -287t287 -119t287 119t119 287v902q0 104 -73 201zM7535 360q19 24 15 11
q-8 -23 -26 -49q-222 -327 -475 -326q-47 0 -90 16.5t-75.5 41t-63 65t-51 75.5t-42 87t-33.5 85t-28 82q-112 339 -40 686q10 49 26 102l-1 -2q-1 -2 -2 -2q-108 -174 -158 -264q-118 -211 -170 -442v-304q0 -123 74 -222h-443q74 99 74 222v1185q0 57 -18 103t-56 97
q117 -2 221 10q66 8 121.5 19t77.5 18l23 8q-74 -99 -74 -222v-754q37 107 99 225q145 280 258 440q18 25 43 54.5t63 67t79.5 71t92.5 61.5t100.5 43.5t105.5 13t106 -26.5q133 -64 72 -280q-29 -104 -78 -182l-7 -10v1q1 4 -5.5 24.5t-20.5 52t-33 63.5t-48 60t-61 40
q-52 19 -103.5 20.5t-92.5 -10t-80.5 -33.5t-67 -45t-51.5 -50q-9 -33 -9 -70q0 -76 16 -186q17 -112 57.5 -224t105.5 -257q25 -57 51 -101.5t61 -88.5t81 -76.5t100 -50.5q224 -73 380 128z" />
    <glyph glyph-name="unique kingdom.liga" unicode="unique&#x20;kingdom" horiz-adv-x="12953" 
d="M1358 871v-671q0 -102 74 -201l-444 -2q74 99 74 221v707v15.5t-4.5 33.5t-13.5 42.5t-30 33.5t-51 14q-39 -1 -84.5 -85t-81 -198t-58.5 -231v-328q0 -123 74 -222h-443q74 99 74 222v674q0 57 -18 103t-56 97q118 -2 222 10q66 8 121 19t77 18l23 7q-74 -99 -74 -221
v-240q116 461 300 461q133 0 226 -75t93 -204zM9109 871v-671q0 -102 74 -201l-444 -2q74 99 74 221v707v15.5t-4.5 33.5t-13 42.5t-29.5 33.5t-51 14q-39 -1 -84.5 -85t-81 -198t-58.5 -231v-328q0 -123 74 -222h-444q74 99 74 222v674q0 57 -18 103t-56 97q118 -2 222 10
q66 8 121.5 19t77.5 18l23 7q-74 -99 -74 -221v-240q116 461 299 461q133 0 226 -75t93 -204zM14050 219v706v15.5t-4.5 33.5t-13.5 42.5t-30 33.5t-51 14q-40 -1 -87 -90.5t-83 -209.5t-58 -238v-326q0 -102 74 -201l-444 -2q74 99 74 221v707v15.5t-4.5 33.5t-13.5 42.5
t-30 33.5t-51 14q-39 -1 -84.5 -85t-81 -198t-58.5 -231v-328q0 -123 74 -222h-443q74 99 74 222v674q0 57 -18 103t-56 97q118 -2 222 10q66 8 121 19t78 18l22 7q-74 -99 -74 -221v-240q116 461 300 461q133 0 226 -75t93 -204v-202q117 481 304 481q133 0 226 -75
t93 -204v-671q0 -57 18 -103t56 -97l-444 -3q74 99 74 222zM1550 1096q117 -2 221 10q66 8 121.5 19t77.5 18l23 7q-74 -99 -74 -221v-707q0 -123 74 -222h-443q74 99 74 222v674q0 57 -18 103t-56 97zM1752 1193q-76 0 -129.5 53.5t-53.5 129.5t53.5 129.5t129.5 53.5
t129.5 -53.5t53.5 -129.5t-53.5 -129.5t-129.5 -53.5zM7570 1096q117 -2 221 10q66 8 121.5 19t77.5 18l23 7q-74 -99 -74 -221v-707q0 -123 74 -222h-443q74 99 74 222v674q0 57 -18 103t-56 97zM7772 1193q-76 0 -129.5 53.5t-53.5 129.5t53.5 129.5t129.5 53.5
t129.5 -53.5t53.5 -129.5t-53.5 -129.5t-129.5 -53.5zM12114 1148q150 0 278 -77t202 -209t74 -287t-74 -287t-202 -209t-278 -77t-278 77t-202 209t-74 287t74 287t202 209t278 77zM12312 69q65 22 90.5 118t12.5 222.5t-56 251.5q-42 122 -117.5 229.5t-162 164
t-151.5 34.5t-93.5 -118.5t-18 -224.5t52.5 -252q41 -121 120.5 -228t168 -163t154.5 -34zM4945 94q138 -8 268 103.5t177 283.5q-8 -117 -49.5 -211t-106 -153t-145 -89.5t-168.5 -27.5q-129 4 -237.5 46t-181 110.5t-109 162.5t-26.5 199q10 115 50.5 213t99 165.5
t131 119.5t148.5 80.5t149.5 42t135.5 10t105 -20.5q77 -30 126.5 -90.5t49.5 -157.5q0 -73 -37 -163t-96 -168.5t-142.5 -130.5t-166.5 -50q-132 4 -157.5 133t64.5 330q11 16 10 9q0 -2 -1 -4q-17 -68 13.5 -139.5t94.5 -71.5q37 0 75.5 23.5t68.5 62.5t55 87t34.5 98
t7.5 94t-26 77.5t-66 46.5q-38 12 -80 7q-42 -4 -89.5 -29.5t-97 -76t-88 -118t-60.5 -166.5t-15 -211q10 -175 92 -297t190 -129zM3848 1096q118 -2 222 10q66 8 121.5 19t78.5 18l22 7q-74 -99 -74 -221v-707q0 -123 74 -222h-444q74 99 74 222v332q-122 -557 -322 -557
q-133 0 -225.5 75t-92.5 204v620q0 57 -18 103t-56 97q118 -2 222 10q66 8 121 19t77 18l23 7q-74 -99 -74 -221v-707v-15.5t4.5 -33.5t13.5 -42.5t30 -33.5t51 -14q49 1 107.5 131t96.5 288.5t42 258.5v135q0 57 -18 103t-56 97zM3109 1150q-74 -99 -74 -221v-1172
q0 -123 74 -222h-443q73 97 73 222v310q-96 -67 -202 -67q-73 0 -137 30.5t-113.5 85.5t-87.5 125t-65 156q-42 133 -45.5 250.5t23 199.5t72 146t97 99t103.5 49q40 8 73.5 7.5t67 -16t61.5 -35.5t55.5 -51t50.5 -63t46 -71q-5 95 -72 184q117 -2 221 10q66 8 121.5 19
t77.5 18zM2740 84v731q-24 60 -59.5 117t-80.5 104.5t-99.5 68.5t-107.5 4q-61 -20 -79.5 -107t0 -206.5t65.5 -255.5q39 -110 85.5 -207.5t103 -171t103.5 -80.5q42 -7 69 3zM11476 1662q-74 -99 -74 -222v-1218q0 -123 74 -222l-369 -1v88q-104 -87 -231 -87
q-142 0 -245 109.5t-159 287.5q-42 133 -45.5 250.5t23 199.5t72.5 146t97.5 99t103.5 49q62 16 118.5 0t104 -61t84.5 -96.5t76 -123.5v547q0 103 -73 200q117 -2 221 10q66 8 121.5 19t78.5 18zM11106 108v611q-7 44 -29.5 101t-59.5 115t-80.5 103.5t-98.5 66.5t-107 4
q-61 -20 -80 -107t-0.5 -207t66.5 -255q39 -110 85.5 -207.5t103 -171t103.5 -80.5q37 -5 59.5 0.5t37.5 26.5zM9802 121q39 -1 77.5 0t79 -1t78.5 -5t76 -13t71.5 -25t65 -40t55.5 -58q67 -92 18 -222q-67 -173 -188 -281q-34 -30 -76 -59.5t-95 -56t-102.5 -42t-99 -13
t-84.5 27.5q-59 42 -73.5 139t1.5 187.5t45 165.5q7 20 19 32q10 10 10 7q-1 0 -1 -2q-14 -46 -1.5 -106.5t45.5 -115.5t83 -99t112.5 -58.5t132.5 7.5q63 22 101 75t26 114q-9 52 -42.5 90.5t-74.5 59.5t-100 34t-105 17.5t-103 5.5q-13 0 -51.5 0.5t-58 1.5t-50.5 3.5
t-56.5 9.5t-48.5 18q-56 27 -78.5 89t-11.5 128q19 119 104 235q1 2 15 18q-146 51 -232 148t-73 211q10 89 50.5 165t99 128t131 92.5t148.5 62.5t149.5 32.5t135.5 7.5t105 -16q77 -23 126.5 -69.5t49.5 -121.5q0 -56 -37 -126t-96 -131t-142.5 -101.5t-166.5 -38.5
q-132 3 -157 103t65 255q8 12 10 8q0 -1 -1 -4q-17 -52 13 -107.5t94 -55.5q86 0 163 84q70 76 78 159q10 92 -71 122q-10 3 -21 6q-36 8 -80 5q-97 -8 -191 -92t-123 -182q-36 -119 -36 -184q0 -137 76 -233.5t183 -96.5q103 0 176.5 71t84.5 193q59 22 139.5 124.5
t89.5 163.5q40 -77 51 -158.5t0 -136t-32 -86.5q-71 -108 -207 -175.5t-302 -67.5q-117 0 -230 35q-42 -31 -46 -77q-4 -59 46 -111q24 -26 54.5 -41.5t71.5 -22t66 -7.5t73 -2zM-120 1608q117 -3 221 9q66 8 121.5 19t77.5 18l23 8q-74 -99 -74 -222v-739
q0 -191 -94 -352.5t-255.5 -255.5t-352.5 -94t-352.5 94t-255.5 255.5t-94 352.5v706q0 102 -74 201q118 -3 222 9q66 8 121.5 19t77.5 18l23 8q-74 -99 -74 -222v-935q0 -168 119 -287t287 -119t287 119t119 287v902q0 104 -73 201zM7536 360q19 24 14 11q-6 -19 -25 -49
q-222 -327 -475 -326q-47 0 -90 16.5t-75.5 41t-63.5 65t-51 76t-42 87t-34 84.5t-28 82q-112 339 -40 686q10 49 26 102l-1 -2q-1 -2 -2 -2q-108 -174 -158 -264q-118 -211 -170 -442v-304q0 -123 74 -222h-443q74 99 74 222v1185q0 57 -18 103t-56 97q118 -2 222 10
q66 8 121 19t77 18l23 8q-74 -99 -74 -222v-754q37 107 99 225q142 275 259 440q18 25 43 54.5t63 67t79.5 71t92 61.5t100.5 43.5t105.5 13t105.5 -26.5q133 -64 72 -280q-29 -104 -78 -182l-7 -10v1q1 4 -5.5 24.5t-20.5 52t-33 63.5t-48 60t-61 40q-52 19 -103.5 20.5
t-92.5 -10t-80.5 -33.5t-67 -45t-51.5 -50q-8 -29 -8 -70q0 -83 15 -186q17 -112 57.5 -224t105.5 -257q25 -57 51 -101.5t61 -88.5t81 -76.5t100 -50.5q225 -73 381 128z" />
    <glyph glyph-name=".notdef" horiz-adv-x="1079" 
d="M102 1434h875v-1434h-875v1434zM160 1393l379 -633l381 633h-760zM514 717l-369 614v-1231zM541 674l-379 -631h758zM565 717l371 -621v1239z" />
    <glyph glyph-name=".null" horiz-adv-x="0" 
 />
    <glyph glyph-name=".null" horiz-adv-x="0" 
 />
    <glyph glyph-name="nonmarkingreturn" horiz-adv-x="682" 
 />
    <glyph glyph-name="LF" unicode="&#xa;" horiz-adv-x="0" 
 />
    <glyph glyph-name="controlCR" unicode="&#xd;" horiz-adv-x="0" 
 />
    <glyph glyph-name="space" unicode=" " horiz-adv-x="544" 
 />
    <glyph glyph-name="exclam" unicode="!" horiz-adv-x="5072" 
d="M2291 1189q41 -17 69 -63t28 -132q0 -62 -15 -106q-16 -46 -40 -70q-17 -18 -49 -28q-30 -10 -86 -10h-117v420h116q63 0 94 -11zM2740 563q15 -11 24 -28q8 -19 8 -42q0 -38 -19 -58q-19 -21 -48 -21t-48 21q-19 20 -19 55q0 44 20 64q19 19 47 19q21 0 35 -10z
M4056 1184q43 -27 66 -77q23 -51 23 -118q0 -105 -53 -164q-51 -57 -136 -57q-80 0 -134 57q-53 56 -53 156q0 126 55 178q56 53 133 53q54 0 99 -28zM1571 1494h3324l-913 -1308h-2411q148 119 230 291t82 363t-82 362.5t-230 291.5zM2321 568h106v24h-132v-197h26v89h92
v24h-92v60zM2448 882q15 48 15 111q0 70 -22 130q-21 57 -65 95q-33 29 -80 39q-37 8 -98 8h-190v-550h199q49 0 88 9q37 8 66 28q27 18 50 50q21 30 37 80zM2787 440q12 24 12 53q0 31 -12 53q-12 23 -33 36q-20 13 -49 13q-40 0 -68 -28q-26 -28 -26 -76q0 -25 11 -49
q13 -25 33 -37q22 -13 50 -13q25 0 48 12q22 12 34 36zM2564 715h411v65h-338v187h305v64h-305v169h325v65h-398v-550zM3145 395v197h-25v-155l-103 155h-27v-197h25v154l103 -154h27zM3423 568h65v24h-156v-24h65v-173h26v173zM3598 715v550h-98l-131 -383
q-6 -17 -16.5 -47t-13.5 -41q-5 18 -26 81l-130 390h-110v-550h71v468l159 -468h65l160 460v-460h70zM4090 739q64 36 96 100q34 65 34 150q0 82 -32 148q-31 64 -94 101q-61 36 -137 36q-117 0 -190 -77t-73 -214q0 -75 31 -138q31 -65 93 -102q62 -38 139 -38q72 0 133 34
zM943 1680q171 0 326.5 -66.5t268 -179t179 -268t66.5 -326.5t-66.5 -326.5t-179 -268t-268 -179t-326.5 -66.5t-326.5 66.5t-268.5 179t-179.5 268t-66.5 326.5t66.5 326.5t179.5 268t268.5 179t326.5 66.5zM943 102q200 0 370 99t269 269t99 370t-99 370t-269 269t-370 99
t-370 -99t-269 -269t-99 -370t99 -370t269 -269t370 -99zM1201 1267q-36 -81 -168.5 -325t-184.5 -388q-37 -103 -46 -191q-2 -21 3 -57.5t7 -56.5t-8 -45q-11 -17 -27 -20.5t-32.5 4.5t-31 19.5t-26.5 25.5q-18 26 -19.5 69.5t13.5 100.5t36.5 117.5t56.5 135t66.5 137.5
t74 140t71.5 128t66.5 115.5t51.5 89.5q33 60 45.5 98t3 50t-48 -10t-102.5 -79q-175 -163 -444 -511q-94 -126 -188 -247q-23 -31 -43 -31q-31 0 -35 15v12q20 67 55.5 156.5t75.5 175t78.5 158t69.5 113t45 31.5v-4q-41 -96 -73 -166q-41 -91 -21.5 -112t95.5 67
q24 28 99.5 121t134.5 160t111 118q86 81 150.5 106.5t93 0.5t28.5 -84t-33 -137zM1056 881q0 16 11 27.5t27 11.5t27.5 -11.5t11.5 -27.5t-11.5 -27t-27.5 -11t-27 11t-11 27zM1462 704q9 -8 10 -20t-7 -24l-1 -1q-76 -71 -99 -89q-34 -27 -63 -39q-18 -7 -29 -7
q-15 0 -26 11q-10 10 -12 33q-2 20 3 41q0 3 2 8t3 7q-43 -66 -74 -87q-18 -14 -47 -12q-14 0 -24 6q-13 8 -16 19v2v6v3q-73 -39 -128 -15h-1q-16 11 -20 24q-5 15 -3 33q3 32 21 75q26 64 62 114q20 31 47 20q13 -5 16 -18t-7 -28q-45 -70 -60 -114q-5 -18 -5 -30l1 -5
q25 -4 66 24q42 29 63 72q88 238 223 572q15 41 42 44q11 1 19 -7q10 -10 12 -20v-3v-11v-2q-2 -8 -19 -55q-17 -45 -48 -126q-94 -238 -166 -418q12 15 26 29q30 30 50 38q32 12 54 -8v-1q9 -9 11 -27q1 -9 -3 -33q-7 -33 -21 -72v-3.5t-1 -2.5q4 2 5 3q34 27 102 92
q21 21 42 2zM926 438q6 -3 12 -11q5 -7 5 -14t-5 -15q-4 -6 -13 -11q-6 -3 -19 -3q-17 0 -23 3q-10 5 -14 12q-5 8 -5 18l12 1q2 -9 4 -12q4 -5 10 -8q8 -3 15 -3q2 0 14 3q5 1 8 6q3 4 3 8q0 5 -3 8t-9 6q-11 4 -17 5q-14 3 -20 6t-10 10q-4 8 -4 12q0 7 5 14q6 7 12 10
q8 3 18 3q11 0 20 -3q8 -3 13 -11t5 -15l-13 -1q-2 10 -7 14q-7 5 -17 5q-11 0 -18 -5q-5 -4 -5 -10t4 -9q4 -4 20 -7t22 -6zM968 473v12h79v-12h-33v-88h-13v88h-33zM1141 427h1v58h13v-58q0 -12 -4 -24q-3 -8 -12 -14q-7 -5 -23 -5q-15 0 -23 4t-13 14q-4 8 -4 25v58h14
v-58q0 -15 2 -19q3 -7 8 -9q8 -4 15 -4q13 0 20 7q6 6 6 25zM1258 476q7 -6 12 -17q4 -9 4 -24q0 -11 -3 -20q-4 -11 -6 -14q-5 -6 -9 -9q-6 -4 -12 -5q-10 -2 -16 -2h-36v100h34q10 0 18 -2q6 -1 14 -7zM1258 417q3 7 3 19t-6 24q-4 8 -12 11q-8 2 -17 2h-21v-76h21
q8 0 16 2q5 1 9 5q3 3 7 13zM1323 385h-13v100h13v-100zM1430 480q11 -6 17 -19q6 -12 6 -26q0 -15 -6 -27q-5 -11 -18 -18q-11 -6 -24 -6q-17 0 -25 6q-12 8 -17 19q-5 10 -5 25q0 25 13 38q14 14 34 14q15 0 25 -6zM1429 405q10 12 10 30q0 13 -4 21q-5 10 -12 14
q-8 5 -18 5q-13 0 -24 -9q-10 -9 -10 -32q0 -17 10 -29q9 -10 24 -10t24 10zM4520 722l374 -536h-748z" />
    <glyph glyph-name="quotedbl" unicode="&#x22;" 
d="M2291 1189q39 -16 68 -63t29 -132q0 -62 -15 -106q-16 -46 -40 -70q-17 -18 -49 -28q-30 -10 -86 -10h-117v420h115q64 0 95 -11zM2740 563q17 -12 24 -28q8 -19 8 -42q0 -38 -19 -58q-19 -21 -48 -21t-48 21q-19 20 -19 55q0 44 20 64q19 19 47 19q21 0 35 -10z
M4056 1184q43 -27 66 -77q23 -51 23 -118q0 -105 -53 -164q-51 -57 -136 -57q-80 0 -134 57q-53 56 -53 156q0 126 55 178q56 53 134 53q53 0 98 -28zM1571 1494h3324l-913 -1308h-2411q148 119 230 291t82 363t-82 362.5t-230 291.5zM2321 568h106v24h-132v-197h26v89h92
v24h-92v60zM2448 882q15 48 15 111q0 70 -22 130q-21 57 -65 95q-33 29 -80 39q-35 8 -98 8h-190v-550h199q49 0 88 9q37 8 66 28q27 18 50 50q21 30 37 80zM2787 440q12 24 12 53q0 32 -11 53q-11 22 -34 36q-20 13 -49 13q-40 0 -68 -28q-26 -28 -26 -76q0 -25 11 -49
q11 -23 34 -37q20 -13 49 -13q25 0 48 12q22 12 34 36zM2565 715h410v65h-338v187h305v64h-305v169h325v65h-397v-550zM3145 395v197h-25v-155l-103 155h-27v-197h25v154l103 -154h27zM3423 568h65v24h-156v-24h65v-173h26v173zM3598 715v550h-98l-131 -383
q-6 -17 -16.5 -47t-13.5 -41q-2 7 -10.5 34t-15.5 47l-130 390h-110v-550h71v468l159 -468h65l160 460v-460h70zM4090 739q62 35 96 100t34 150q0 82 -32 148q-31 64 -94 101q-61 36 -137 36q-117 0 -190 -77t-73 -214q0 -75 31 -138q31 -65 93 -102q62 -38 139 -38
q72 0 133 34zM943 1680q171 0 326.5 -66.5t268 -179t179 -268t66.5 -326.5t-66.5 -326.5t-179 -268t-268 -179t-326.5 -66.5t-326.5 66.5t-268.5 179t-179.5 268t-66.5 326.5t66.5 326.5t179.5 268t268.5 179t326.5 66.5zM943 102q200 0 370 99t269 269t99 370t-99 370
t-269 269t-370 99t-370 -99t-269 -269t-99 -370t99 -370t269 -269t370 -99zM1201 1267q-36 -81 -168.5 -325t-184.5 -388q-37 -103 -46 -191q-2 -21 3 -57.5t7 -56.5t-8 -45q-11 -17 -27 -20.5t-32.5 4.5t-31 19.5t-26.5 25.5q-18 26 -19 69.5t13.5 100.5t36.5 118
t56.5 134.5t67 138t74 139.5t71.5 128t66.5 115.5t51.5 89.5q22 40 35 70t16.5 50.5t-4 27.5t-25.5 1t-50 -29t-75 -61q-175 -163 -444 -511q-94 -126 -188 -247q-23 -31 -43 -31q-31 0 -35 15v12q20 67 55.5 156.5t75.5 175t78.5 158t69.5 113t45 31.5v-4q-41 -96 -73 -166
q-41 -91 -21.5 -112t95.5 67q24 28 99.5 121t134.5 160t111 118q86 81 150.5 106.5t93 0.5t28.5 -84t-33 -137zM1056 881q0 16 11 27.5t27 11.5t27.5 -11.5t11.5 -27.5t-11.5 -27t-27.5 -11t-27 11t-11 27zM1462 704q9 -8 10 -20t-7 -24l-1 -1q-76 -71 -99 -89
q-34 -27 -63 -39q-18 -7 -29 -7q-15 0 -26 11q-10 10 -12 33q-2 20 3 41q0 3 2 8t3 7q-43 -66 -74 -87q-18 -14 -47 -12q-14 0 -24 6q-13 8 -16 19v2v6v3q-73 -39 -128 -15h-1q-16 9 -20 24q-5 15 -3 33q3 32 21 75q26 64 62 114q20 31 47 20q13 -5 16 -18t-7 -28
q-45 -70 -60 -114q-5 -18 -5 -30l1 -5q25 -4 66 24q42 29 63 72q88 238 223 572q15 41 42 44q11 1 19 -7q10 -10 12 -20v-3v-11v-2q-2 -8 -19 -55q-17 -45 -48 -126q-94 -238 -166 -418q12 15 26 29q30 30 50 38q32 12 54 -8v-1q9 -9 11 -27q1 -9 -3 -33q-4 -26 -21 -72
v-3.5t-1 -2.5q4 2 5 3q34 27 102 92q21 21 42 2zM926 438q6 -3 12 -11q4 -5 4 -14q0 -8 -4 -15q-4 -6 -13 -11q-6 -3 -19 -3q-17 0 -23 3q-10 5 -14 12q-5 8 -5 18l12 1q2 -9 4 -12q4 -5 10 -8q8 -3 15 -3q2 0 14 3q5 1 8 6q3 4 3 8q0 5 -3 8t-9 6q-11 4 -17 5q-14 3 -20 6
t-10 10q-4 8 -4 12q0 7 5 14q6 7 12 10q9 3 18 3q11 0 20 -3q8 -3 13 -11t5 -15l-13 -1q-2 10 -7 14q-7 5 -17 5q-11 0 -18 -5q-5 -4 -5 -10t4 -9q4 -4 20 -7t22 -6zM968 473v12h79v-12h-33v-88h-13v88h-33zM1141 427v58h14v-58q0 -12 -4 -24q-3 -8 -12 -14q-7 -5 -23 -5
q-15 0 -23 4t-13 14q-4 12 -4 25v58h14v-58q0 -15 2 -19q3 -7 8 -9q8 -4 15 -4q13 0 20 7q6 6 6 25zM1258 476q7 -6 12 -17q4 -9 4 -24q0 -11 -3 -20q-4 -11 -6 -14q-5 -6 -9 -9q-6 -4 -12 -5q-10 -2 -16 -2h-36v100h34q10 0 18 -2q6 -1 14 -7zM1258 417q3 7 3 19t-6 24
q-4 8 -12 11q-8 2 -17 2h-21v-76h21q8 0 16 2q5 1 9 5q3 3 7 13zM1323 385h-13v100h13v-100zM1430 480q11 -6 17 -19q6 -12 6 -26q0 -15 -6 -27q-5 -11 -18 -18q-11 -6 -24 -6q-17 0 -25 6q-12 8 -17 19q-5 10 -5 25q0 25 13 38q14 14 34 14q15 0 25 -6zM1429 405
q10 12 10 30q0 13 -4 21q-5 10 -12 14q-8 5 -18 5q-13 0 -24 -9q-10 -9 -10 -32q0 -17 10 -29q9 -10 24 -10t24 10zM4520 722l375 -536h-749z" />
    <glyph glyph-name="numbersign" unicode="#" horiz-adv-x="4999" 
d="M2291 1190q41 -17 69 -62q28 -46 28 -133q0 -63 -15 -106q-16 -46 -40 -70q-17 -17 -49 -28q-30 -10 -86 -10h-117v420h116q63 0 94 -11zM2740 564q17 -12 24 -28q8 -19 8 -41q0 -39 -19 -59q-19 -21 -48 -21t-48 21q-19 20 -19 56q0 43 20 63q19 19 47 19q21 0 35 -10z
M4056 1185q43 -27 66 -77q23 -51 23 -117q0 -106 -53 -165q-51 -57 -135 -57q-81 0 -135 57q-53 56 -53 157q0 124 56 177t133 53q53 0 98 -28zM1571 1495h3324l-913 -1308h-2411q148 119 230 291t82 363t-82 362.5t-230 291.5zM2321 570h106v23h-132v-197h26v90h92v23h-92
v61zM2448 883q15 48 15 111q0 71 -22 131q-20 56 -65 94q-33 29 -80 39q-35 8 -98 8h-190v-550h199q49 0 88 9q37 8 66 28q27 18 50 50q21 30 37 80zM2787 441q12 24 12 53q0 30 -12 53t-33 36q-20 13 -49 13q-41 0 -68 -27q-26 -28 -26 -77q0 -25 11 -49q13 -24 34 -37
q22 -13 49 -13q25 0 48 12q22 12 34 36zM2565 716h410v65h-338v187h305v65h-305v168h325v65h-397v-550zM3145 396v197h-25v-154l-103 154h-27v-197h25v155l103 -155h27zM3423 570h65v23h-156v-23h65v-174h26v174zM3598 716v550h-98l-131 -383q-6 -17 -16.5 -47t-13.5 -41
q-7 24 -26 82l-130 389h-110v-550h71v468l159 -468h65l160 460v-460h70zM4090 740q64 36 96 100q34 65 34 150q0 82 -32 148q-31 64 -94 101t-137 37q-117 0 -190 -78q-73 -77 -73 -214q0 -74 31 -137q32 -66 93 -103t139 -37q74 0 133 33zM943 1682q171 0 326.5 -66.5
t268 -179.5t179 -268.5t66.5 -326.5t-66.5 -326.5t-179 -268t-268 -179t-326.5 -66.5t-326.5 66.5t-268.5 179t-179.5 268t-66.5 326.5t66.5 326.5t179.5 268.5t268.5 179.5t326.5 66.5zM943 103q200 0 370 99t269 269t99 370t-99 370t-269 269t-370 99t-370 -99t-269 -269
t-99 -370t99 -370t269 -269t370 -99zM1201 1268q-36 -81 -168.5 -325t-184.5 -388q-37 -103 -46 -191q-2 -21 3.5 -58t7 -56.5t-8.5 -44.5q-11 -17 -27 -20.5t-32.5 4.5t-31 19.5t-26.5 25.5q-18 26 -19.5 69.5t13.5 100.5t36.5 117.5t56.5 135t66.5 137.5t74 140t71.5 128
t66.5 115.5t51.5 89.5q33 60 45.5 98t3 50t-48 -10t-102.5 -79q-175 -163 -444 -511q-94 -126 -188 -247q-22 -30 -43 -30q-31 0 -35 14v12q20 67 55.5 156.5t75.5 175t78.5 158t69.5 113t45 31.5v-4q-41 -96 -73 -166q-41 -91 -21.5 -112t95.5 67q24 28 99.5 121t134.5 160
t111 118q86 81 150.5 106.5t93 0.5t28.5 -84t-33 -137zM1056 882q0 16 11 27.5t27 11.5t27.5 -11.5t11.5 -27.5t-11.5 -27t-27.5 -11t-27 11t-11 27zM1420 703q21 21 42 2t2 -43l-1 -1l-20.5 -20.5t-38.5 -36.5t-39 -33q-34 -27 -63 -39q-15 -6 -29 -6q-16 0 -26 10t-12 33
q-2 20 3 41q0 2 2 7t3 8q-43 -66 -74 -87q-18 -14 -47 -12q-14 0 -24 6q-13 8 -16 19v2v6v3q-73 -39 -128 -15h-1q-16 10 -20 25t-3 32q3 32 21 75q27 67 62 115q20 31 47 20q13 -5 16 -19q3 -13 -7 -28q-45 -70 -60 -114q-5 -17 -5 -30l1 -5q24 -3 66 25q42 29 63 72
q66 183 223 571q15 41 42 44q11 2 19 -6t11 -21q0 -1 1 -3v-11v-2q-2 -8 -19 -55q-17 -45 -48 -126q-94 -238 -166 -418q16 20 26 30q29 29 50 37q32 12 54 -8q9 -9 11 -28q1 -9 -3 -33q-4 -26 -21 -72v-3t-1 -3q2 1 5 4q41 33 102 91zM926 439q7 -4 12 -10q4 -5 4 -14
q0 -8 -4 -15q-4 -6 -13 -11q-8 -4 -19 -4q-15 0 -23 4q-11 5 -14 11q-6 10 -6 18l13 1q2 -9 4 -12q4 -5 10 -8q5 -2 15 -2q6 0 14 2q5 1 8 6t3 8q0 6 -3 9q-1 1 -9 5q-11 4 -17 5q-11 2 -20 7q-7 3 -10 9q-4 8 -4 12q0 9 4 14q5 7 13 10q10 4 18 4t20 -4q9 -3 13 -10
q5 -8 5 -16l-13 -1q-2 10 -7 14q-7 5 -17 5q-13 0 -18 -4t-5 -11q0 -6 4 -9q4 -4 20 -7t22 -6zM968 474v12h79v-12h-33v-88h-13v88h-33zM1141 428l1 58h13v-58q0 -11 -4 -23q-3 -9 -12 -15q-7 -5 -23 -5q-13 0 -23 5q-9 4 -13 13q-4 8 -4 25v58h14v-58q0 -15 2 -19
q3 -7 8 -9q6 -3 15 -3q14 0 20 6t6 25zM1258 477q7 -6 12 -17q4 -9 4 -23q0 -11 -3 -20q-4 -13 -6 -15q-5 -6 -9 -9q-6 -4 -12 -5q-10 -2 -16 -2h-36v100h34q10 0 18 -2q6 -1 14 -7zM1258 418q3 8 3 19q0 14 -5 24q-4 7 -13 11q-8 2 -17 2h-21v-76h21q8 0 16 2q5 1 9 5
q3 3 7 13zM1323 386h-13v100h13v-100zM1430 481q11 -6 17 -18t6 -27t-6 -27q-5 -11 -18 -18q-11 -6 -24 -6q-15 0 -25 7q-12 9 -17 18q-5 10 -5 25q0 26 13 39q14 14 34 14q13 0 25 -7zM1430 407q9 11 9 29q0 13 -4 21q-5 10 -12 14q-8 5 -18 5q-13 0 -24 -9q-10 -9 -10 -32
q0 -17 10 -29q9 -10 24 -10q16 0 25 11zM4520 723l375 -536h-749z" />
    <glyph glyph-name="dollar" unicode="$" horiz-adv-x="5036" 
d="M2215 1190q41 -17 69 -62q28 -46 28 -133q0 -65 -14 -106q-15 -44 -41 -70q-18 -17 -49 -28q-30 -10 -85 -10h-118v420h116q63 0 94 -11zM2664 564q17 -12 24 -28q8 -19 8 -41q0 -39 -19 -59q-19 -21 -48 -21t-48 21q-19 20 -19 56q0 43 20 63q19 19 48 19q20 0 34 -10z
M3980 1185q43 -27 66 -77q23 -51 23 -117q0 -106 -53 -165q-51 -57 -135 -57q-81 0 -135 57q-53 56 -53 157q0 124 56 177t133 53q53 0 98 -28zM1495 1495h3324l-913 -1308h-2411q148 119 230.5 291t82.5 363q0 190 -82 362t-231 292zM2351 570v23h-132v-197h26v90h92v23
h-92v61h106zM2372 883q15 48 15 111q0 71 -22 131q-20 56 -65 94q-33 29 -80 39q-37 8 -98 8h-190v-550h199q49 0 88 9q37 8 66 28q27 18 50 50q21 30 37 80zM2711 441q12 24 12 53q0 32 -11 53q-11 22 -34 36q-20 13 -49 13q-40 0 -67 -27q-27 -29 -27 -77q0 -23 12 -49
q13 -25 33 -37q22 -13 49 -13q25 0 48 12q22 12 34 36zM2489 716h410v65h-338v187h305v65h-305v168h325v65h-397v-550zM3069 396v197h-25v-154l-103 154h-26v-197h25v155l103 -155h26zM3412 570v23h-156v-23h65v-174h26v174h65zM3523 716v550h-98l-132 -383q-26 -78 -29 -88
q-2 6 -27 82l-130 389h-109v-550h70v468l159 -468h65l160 460v-460h71zM4015 740q63 35 95 100q34 65 34 150q0 82 -32 148q-32 65 -93 101q-63 37 -138 37q-117 0 -190 -78q-73 -77 -73 -214q0 -74 31 -137q32 -66 93 -103t139 -37q75 0 134 33zM867 1682
q171 0 326.5 -66.5t268 -179.5t179 -268.5t66.5 -326.5t-66.5 -326.5t-179 -268t-268 -179t-326.5 -66.5t-326.5 66.5t-268 179t-179 268t-66.5 326.5t66.5 326.5t179 268.5t268 179.5t326.5 66.5zM867 103q200 0 370 99t269 269t99 370t-99 370t-269 269t-370 99t-370 -99
t-269 -269t-99 -370t99 -370t269 -269t370 -99zM1125 1268q-36 -81 -168.5 -325t-184.5 -388q-37 -103 -46 -191q-2 -21 3 -57.5t7 -56.5t-8 -45q-11 -17 -27 -20.5t-32.5 4.5t-31 19.5t-26.5 25.5q-18 26 -19.5 69.5t13.5 100.5t36.5 118t56.5 135t67 137.5t74 139.5
t71.5 127.5t66.5 115.5t52 90q22 40 35 70t16.5 50.5t-4 27.5t-25.5 1t-50 -29t-75 -61q-172 -160 -443 -511q-71 -95 -189 -247q-22 -30 -43 -30q-30 0 -34 14v12q20 67 55.5 156.5t75.5 175t78.5 158t69.5 113t45 31.5v-4q-28 -65 -74 -166q-41 -91 -21.5 -112t95.5 67
q24 28 99.5 121t134.5 160t111 118q86 81 150.5 106.5t93 0.5t28.5 -84t-33 -137zM980 882q0 16 11.5 27.5t27.5 11.5t27 -11.5t11 -27.5t-11 -27t-27 -11t-27.5 11t-11.5 27zM1344 703q21 21 42 2q9 -8 10 -19.5t-7 -23.5l-1 -1l-20 -20q-21 -20 -40.5 -37.5t-38.5 -32.5
q-34 -27 -63 -39q-15 -6 -29 -6q-16 0 -26 10t-12 33q-2 20 3 41q0 2 2 7t3 8q-43 -66 -74 -87q-18 -14 -46 -12q-15 0 -25 6q-13 8 -16 19v2v6v3q-73 -39 -128 -15h-1q-16 10 -20 25t-3 32q3 32 21 75q27 67 62 115q20 31 48 20q12 -4 15 -19q3 -13 -7 -28
q-43 -67 -59 -114q-6 -21 -6 -30l1 -5q24 -3 66 25q42 29 63 72q84 226 223 571q15 41 42 44q12 2 20 -6t11 -21v-3v-11v-2q-2 -8 -19 -55q-17 -45 -48 -126q-94 -238 -166 -418q16 20 26 30q28 28 51 37q31 12 53 -8q9 -9 11 -28q1 -9 -3 -33q-8 -40 -20 -72h-1v-3t-1 -3
q2 1 5 4q41 33 102 91zM850 439q7 -4 12 -10q5 -7 5 -14t-5 -15q-4 -6 -13 -11q-8 -4 -19 -4q-15 0 -23 4q-11 5 -14 11q-5 8 -5 18l12 1q2 -9 4 -12q4 -5 10 -8q5 -2 16 -2q5 0 13 2q5 1 8 6t3 8q0 7 -2 9q-1 1 -9 5q-9 3 -18 5t-19 7q-8 3 -11 9q-4 8 -4 12q0 7 5 14
q6 7 12 10q10 4 18 4t20 -4q9 -3 13 -10q5 -8 5 -16l-13 -1q-2 10 -7 14q-7 5 -17 5q-12 0 -17 -4q-6 -5 -6 -11t4 -9q4 -4 20 -7t22 -6zM893 474v12h78v-12h-32v-88h-14v88h-32zM1066 428v58h13v-58q0 -11 -4 -23q-3 -9 -12 -15q-7 -5 -23 -5q-13 0 -23 5q-9 4 -13 13
q-3 6 -3 25v58h13v-58q0 -15 2 -19q3 -7 8 -9q6 -3 15 -3q14 0 20 6q7 7 7 25zM1183 477q6 -5 11 -17q4 -9 4 -23t-2 -20q-3 -10 -7 -15q-5 -6 -9 -9q-6 -4 -12 -5q-10 -2 -16 -2h-36v100h34q10 0 18 -2q7 -1 15 -7zM1182 418q3 8 3 19q0 14 -5 24q-4 7 -13 11q-8 2 -17 2
h-21v-76h22q7 0 15 2q5 1 9 5q3 3 7 13zM1247 386h-13v100h13v-100zM1354 481q11 -6 17 -18t6 -27t-6 -27t-17 -18q-10 -6 -25 -6t-25 7q-12 9 -17 18q-5 10 -5 25q0 26 13 39q14 14 34 14q13 0 25 -7zM1354 407q9 11 9 29q0 13 -4 21q-5 10 -12 14q-8 5 -18 5q-13 0 -24 -9
q-10 -9 -10 -32q0 -17 10 -29q9 -10 24 -10q16 0 25 11zM4445 723l374 -536h-748z" />
    <glyph glyph-name="percent" unicode="%" 
d="M2291 1190q41 -17 69 -62q28 -46 28 -133q0 -63 -15 -106q-16 -46 -40 -70q-17 -17 -49 -28q-30 -10 -86 -10h-117v420h115q64 0 95 -11zM2740 564q17 -12 24 -28q8 -19 8 -41q0 -39 -19 -59q-19 -21 -48 -21t-48 21q-19 20 -19 56q0 43 20 63q19 19 47 19q21 0 35 -10z
M4056 1185q43 -27 66 -77q23 -51 23 -117q0 -106 -53 -165q-51 -57 -135 -57q-81 0 -135 57q-53 56 -53 157q0 124 56 177t133 53q53 0 98 -28zM1571 1495h3323l-912 -1308h-2411q148 119 230 291t82 363t-82 362.5t-230 291.5zM2427 570v23h-132v-197h26v90h92v23h-92v61
h106zM2448 883q15 48 15 111q0 71 -22 131q-20 56 -65 94q-33 29 -81 39q-37 8 -98 8h-189v-550h199q49 0 88 9q37 8 66 28q27 18 50 50q21 30 37 80zM2787 441q12 24 12 53q0 30 -12 53t-33 36q-20 13 -49 13q-41 0 -68 -27q-26 -28 -26 -77q0 -25 11 -49q13 -25 33 -37
q22 -13 50 -13q25 0 48 12q22 12 34 36zM2565 716h410v65h-338v187h305v65h-305v168h325v65h-397v-550zM3145 396v197h-25v-154l-103 154h-27v-197h25v155l103 -155h27zM3423 570h65v23h-156v-23h65v-174h26v174zM3598 716v550h-98l-131 -383q-6 -17 -16.5 -47t-13.5 -41
q-7 24 -26 82l-130 389h-110v-550h71v468l159 -468h65l160 460v-460h70zM4090 740q64 36 96 100q34 65 34 150q0 82 -32 148q-31 64 -94 101t-137 37q-117 0 -190 -78q-73 -77 -73 -214q0 -74 31 -137q32 -66 93 -103t139 -37q74 0 133 33zM943 1682q171 0 326.5 -66.5
t268 -179.5t179 -268.5t66.5 -326.5t-66.5 -326.5t-179 -268t-268 -179t-326.5 -66.5t-326.5 66.5t-268.5 179t-179.5 268t-66.5 326.5t66.5 326.5t179.5 268.5t268.5 179.5t326.5 66.5zM943 103q200 0 370 99t269 269t99 370t-99 370t-269 269t-370 99t-370 -99t-269 -269
t-99 -370t99 -370t269 -269t370 -99zM1201 1268q-36 -81 -168.5 -325t-184.5 -388q-37 -103 -46 -191q-2 -21 3.5 -58t7 -56.5t-8.5 -44.5q-11 -17 -27 -20.5t-32.5 4.5t-31 19.5t-26.5 25.5q-18 26 -19.5 69.5t13.5 100.5t36.5 117.5t56.5 135t66.5 137.5t74 140t71.5 128
t66.5 115.5t51.5 89.5q33 60 45.5 98t3 50t-48 -10t-102.5 -79q-175 -163 -444 -511q-94 -126 -188 -247q-22 -30 -43 -30q-31 0 -35 14v12q20 67 55.5 156.5t75.5 175t78.5 158t69.5 113t45 31.5v-4q-41 -96 -73 -166q-41 -91 -21.5 -112t95.5 67q24 28 99.5 121t134.5 160
t111 118q86 81 150.5 106.5t93 0.5t28.5 -84t-33 -137zM1056 882q0 16 11 27.5t27 11.5t27.5 -11.5t11.5 -27.5t-11.5 -27t-27.5 -11t-27 11t-11 27zM1419 703q9 9 22 9.5t21 -7.5q21 -19 2 -43l-1 -1l-20.5 -20.5t-38.5 -36.5t-39 -33q-34 -27 -63 -39q-15 -6 -29 -6
q-16 0 -26 10t-12 33q-2 20 3 41q0 3 1.5 8t2.5 7q-44 -67 -73 -87q-18 -14 -47 -12q-14 0 -24 6q-13 8 -16 19v2v6v3q-73 -39 -129 -15h-1q-14 10 -19 25q-4 15 -3 32q3 32 21 75q27 67 62 115q20 31 47 20q13 -5 16 -19q3 -13 -7 -28q-45 -70 -60 -114q-5 -17 -5 -30l1 -5
q23 -3 65 25q44 30 64 72q84 226 223 571q15 41 41 44q12 2 20 -6t11 -21q0 -1 1 -3v-11v-2q-2 -8 -19 -55q-17 -45 -48 -126q-94 -238 -166 -418q16 20 26 30q29 29 50 37q32 12 54 -8q9 -9 11 -28q1 -9 -3 -33q-4 -26 -21 -72v-3t-1 -3q2 1 5 4q35 28 101 91zM926 439
q7 -4 12 -10q4 -5 4 -14q0 -8 -4 -15q-4 -6 -13 -11q-8 -4 -19 -4q-15 0 -23 4q-11 5 -14 11q-6 10 -6 18l13 1q2 -9 4 -12q4 -5 10 -8q5 -2 15 -2q6 0 14 2q5 1 8 6t3 8q0 6 -3 9q-1 1 -9 5q-11 4 -17 5q-11 2 -20 7q-7 3 -10 9q-4 8 -4 12q0 9 4 14q5 7 13 10q10 4 18 4
t20 -4q9 -3 13 -10q5 -8 5 -16l-13 -1q-2 10 -7 14q-7 5 -17 5q-13 0 -18 -4t-5 -11q0 -6 4 -9q4 -4 20 -7t22 -6zM968 474v12h79v-12h-33v-88h-13v88h-33zM1141 428v58h14v-58q0 -11 -4 -23q-3 -9 -12 -15q-7 -5 -23 -5q-13 0 -23 5q-9 4 -13 13q-4 8 -4 25v58h13v-58
q0 -13 3 -19q3 -7 8 -9q6 -3 14 -3q15 0 21 6t6 25zM1258 477q7 -6 12 -17q4 -9 4 -23q0 -11 -3 -20q-4 -13 -6 -15q-5 -6 -9 -9q-6 -4 -12 -5q-10 -2 -16 -2h-36v100h34q10 0 18 -2q6 -1 14 -7zM1258 418q3 8 3 19q0 14 -5 24q-4 7 -13 11q-8 2 -17 2h-21v-76h21q8 0 16 2
q5 1 9 5q3 3 7 13zM1323 386h-13v100h13v-100zM1430 481q11 -6 17 -18t6 -27t-6 -27q-5 -11 -18 -18q-11 -6 -24 -6q-15 0 -25 7q-12 9 -17 18q-5 10 -5 25q0 26 13 39q14 14 34 14q13 0 25 -7zM1430 407q9 11 9 29q0 13 -4 21q-5 10 -12 14q-8 5 -18 5q-13 0 -24 -9
q-10 -9 -10 -32q0 -17 10 -29q9 -10 24 -10q16 0 25 11zM4520 723l375 -536h-749z" />
    <glyph glyph-name="ampersand" unicode="&#x26;" horiz-adv-x="5146" 
d="M2291 1190q41 -17 69 -62q28 -46 28 -133q0 -63 -15 -106q-16 -46 -40 -70q-17 -17 -49 -28q-30 -10 -86 -10h-117v420h116q63 0 94 -11zM2740 564q17 -12 24 -28q8 -19 8 -41q0 -39 -19 -59q-19 -21 -48 -21t-48 21q-19 20 -19 56q0 43 20 63q19 19 47 19q21 0 35 -10z
M4056 1185q43 -27 66 -77q23 -51 23 -117q0 -106 -53 -165q-51 -57 -136 -57q-80 0 -134 57q-53 56 -53 157q0 125 55 177q56 53 133 53q54 0 99 -28zM1571 1495h3324l-913 -1308h-2411q148 119 230 291t82 363t-82 362.5t-230 291.5zM2321 570h106v23h-132v-197h26v90h92
v23h-92v61zM2448 883q15 48 15 111q0 71 -22 131q-20 56 -65 94q-33 29 -80 39q-37 8 -98 8h-190v-550h199q49 0 88 9q37 8 66 28q27 18 50 50q21 30 37 80zM2787 441q12 24 12 53q0 30 -12 53t-33 36q-20 13 -49 13q-41 0 -68 -27q-26 -28 -26 -77q0 -25 11 -49t33 -37
t50 -13q25 0 48 12q22 12 34 36zM2565 716h410v65h-338v187h305v65h-305v168h325v65h-397v-550zM3145 396v197h-25v-154l-103 154h-27v-197h25v155l103 -155h27zM3488 570v23h-156v-23h65v-174h26v174h65zM3598 716v550h-98l-131 -383q-6 -17 -16.5 -47t-13.5 -41
q-7 24 -26 82l-130 389h-110v-550h71v468l159 -468h65l160 460v-460h70zM4090 740q64 36 96 100q34 65 34 150q0 82 -32 148q-31 64 -94 101t-137 37q-117 0 -190 -78q-73 -77 -73 -214q0 -74 31 -137q32 -66 93 -103t139 -37q74 0 133 33zM943 1682q171 0 326.5 -66.5
t268 -179.5t179 -268.5t66.5 -326.5t-66.5 -326.5t-179 -268t-268 -179t-326.5 -66.5t-326.5 66.5t-268.5 179t-179.5 268t-66.5 326.5t66.5 326.5t179.5 268.5t268.5 179.5t326.5 66.5zM943 103q200 0 370 99t269 269t99 370t-99 370t-269 269t-370 99t-370 -99t-269 -269
t-99 -370t99 -370t269 -269t370 -99zM1201 1268q-36 -81 -168.5 -325t-184.5 -388q-37 -103 -46 -191q-2 -21 3 -57.5t7 -56.5t-8 -45q-11 -17 -27 -20.5t-32.5 4.5t-31 19.5t-26.5 25.5q-18 26 -19.5 69.5t13.5 100.5t36.5 117.5t56.5 135t66.5 137.5t74 140t71.5 128
t66.5 115.5t51.5 89.5q33 60 45.5 98t3 50t-48 -10t-102.5 -79q-175 -163 -444 -511q-94 -126 -188 -247q-22 -30 -43 -30q-31 0 -35 14v12q20 67 55.5 156.5t75.5 175t78.5 158t69.5 113t45 31.5v-4q-41 -96 -73 -166q-41 -91 -21.5 -112t95.5 67q24 28 99.5 121t134.5 160
t111 118q86 81 150.5 106.5t93 0.5t28.5 -84t-33 -137zM1056 882q0 16 11 27.5t27 11.5t27.5 -11.5t11.5 -27.5t-11.5 -27t-27.5 -11t-27 11t-11 27zM1420 703q21 21 42 2q9 -8 10 -19.5t-7 -23.5l-1 -1l-20 -20q-21 -20 -40.5 -37.5t-38.5 -32.5q-34 -27 -63 -39
q-15 -6 -29 -6q-16 0 -26 10t-12 33q-2 20 3 41q0 2 2 7t3 8q-43 -66 -74 -87q-18 -14 -47 -12q-14 0 -24 6q-13 8 -16 19v2v6v3q-73 -39 -128 -15h-1q-16 10 -20 25t-3 32q3 32 21 75q27 67 62 115q20 31 47 20q13 -5 16 -19q3 -13 -7 -28q-45 -70 -60 -114q-5 -17 -5 -30
l1 -5q24 -3 66 25q42 29 63 72q84 226 223 571q15 41 42 44q11 2 19 -6q9 -9 12 -21v-3v-11v-2q-2 -8 -19 -55q-17 -45 -48 -126q-94 -238 -166 -418q16 20 26 30q29 29 50 37q32 12 54 -8q9 -9 11 -28q1 -9 -3 -33q-7 -33 -21 -72v-3t-1 -3q2 1 5 4q41 33 102 91zM926 439
q7 -4 12 -10q5 -7 5 -14t-5 -15q-4 -6 -13 -11q-8 -4 -19 -4q-15 0 -23 4q-11 5 -14 11q-5 8 -5 18l12 1q2 -9 4 -12q4 -5 10 -8q5 -2 15 -2q6 0 14 2q5 1 8 6t3 8q0 6 -3 9q-1 1 -9 5q-11 4 -17 5q-11 2 -20 7q-7 3 -10 9q-4 8 -4 12q0 7 5 14q6 7 12 10q10 4 18 4t20 -4
q9 -3 13 -10q5 -8 5 -16l-13 -1q-2 10 -7 14q-7 5 -17 5q-13 0 -18 -4t-5 -11q0 -6 4 -9q4 -4 20 -7t22 -6zM968 474v12h79v-12h-33v-88h-13v88h-33zM1141 428h1v58h13v-58q0 -11 -4 -23q-3 -9 -12 -15q-7 -5 -23 -5q-13 0 -23 5q-9 4 -13 13q-4 8 -4 25v58h14v-58
q0 -15 2 -19q3 -7 8 -9q6 -3 15 -3q14 0 20 6t6 25zM1258 477q7 -6 12 -17q4 -9 4 -23q0 -11 -3 -20q-4 -13 -6 -15q-5 -6 -9 -9q-6 -4 -12 -5q-10 -2 -16 -2h-36v100h34q10 0 18 -2q6 -1 14 -7zM1258 418q3 8 3 19q0 12 -6 24q-4 8 -12 11q-8 2 -17 2h-21v-76h21q8 0 16 2
q5 1 9 5q3 3 7 13zM1323 386h-13v100h13v-100zM1430 481q11 -6 17 -18t6 -27t-6 -27q-5 -11 -18 -18q-11 -6 -24 -6q-15 0 -25 7q-12 9 -17 18q-5 10 -5 25q0 26 13 39q14 14 34 14q13 0 25 -7zM1429 407q10 12 10 29q0 13 -4 21q-5 10 -12 14q-8 5 -18 5q-13 0 -24 -9
q-10 -9 -10 -32q0 -17 10 -29q9 -10 24 -10t24 11zM4520 723l374 -536h-748z" />
    <glyph glyph-name="quotesingle" unicode="'" 
d="M2291 1189q39 -16 68 -63t29 -132q0 -62 -15 -106q-16 -46 -40 -70q-17 -18 -49 -28q-30 -10 -86 -10h-117v420h115q64 0 95 -11zM2740 563q15 -11 24 -28q8 -19 8 -42q0 -38 -19 -58q-19 -21 -48 -21t-48 21q-19 20 -19 55q0 44 20 64q19 19 47 19q21 0 35 -10z
M4056 1184q43 -27 66 -77q23 -51 23 -118q0 -105 -53 -164q-51 -57 -136 -57q-80 0 -134 57q-53 56 -53 156q0 126 55 178q56 53 134 53q53 0 98 -28zM1571 1494h3324l-913 -1308h-2411q148 119 230 291t82 363t-82 362.5t-230 291.5zM2427 568v24h-132v-197h26v89h92v24
h-92v60h106zM2448 882q15 48 15 111q0 70 -22 130q-21 57 -65 95q-33 29 -80 39q-35 8 -98 8h-190v-550h199q49 0 88 9q37 8 66 28q27 18 50 50q21 30 37 80zM2787 440q12 24 12 53q0 31 -12 53q-11 22 -33 36q-20 13 -49 13q-40 0 -68 -28q-26 -28 -26 -76q0 -25 11 -49
q11 -23 34 -37q22 -13 49 -13q25 0 48 12q22 12 34 36zM2565 715h410v65h-338v187h305v64h-305v169h325v65h-397v-550zM3145 395v197h-25v-155l-103 155h-27v-197h25v154l103 -154h27zM3488 568v24h-156v-24h65v-173h26v173h65zM3528 715h70v550h-98l-131 -383
q-6 -17 -16.5 -47t-13.5 -41q-2 7 -10.5 34t-15.5 47l-130 390h-110v-550h71v468l159 -468h65l160 460v-460zM4090 739q64 36 96 100q34 65 34 150q0 82 -32 148q-31 64 -94 101q-61 36 -137 36q-117 0 -190 -77t-73 -214q0 -75 31 -138q31 -65 93 -102q62 -38 139 -38
q72 0 133 34zM943 1680q171 0 326.5 -66.5t268 -179t179 -268t66.5 -326.5t-66.5 -326.5t-179 -268t-268 -179t-326.5 -66.5t-326.5 66.5t-268.5 179t-179.5 268t-66.5 326.5t66.5 326.5t179.5 268t268.5 179t326.5 66.5zM943 102q200 0 370 99t269 269t99 370t-99 370
t-269 269t-370 99t-370 -99t-269 -269t-99 -370t99 -370t269 -269t370 -99zM1201 1267q-36 -81 -168.5 -325t-184.5 -388q-37 -103 -46 -191q-2 -21 3 -57.5t7 -56.5t-8 -45q-11 -17 -27 -20.5t-32.5 4.5t-31 19.5t-26.5 25.5q-18 26 -19.5 69.5t13.5 100.5t36.5 117.5
t56.5 135t66.5 137.5t74 140t71.5 128t66.5 115.5t51.5 89.5q33 60 45.5 98t3 50t-48 -10t-102.5 -79q-175 -163 -444 -511q-94 -126 -188 -247q-23 -31 -43 -31q-31 0 -35 15v12q20 67 55.5 156.5t75.5 175t78.5 158t69.5 113t45 31.5v-4q-41 -96 -73 -166
q-41 -91 -21.5 -112t95.5 67q24 28 99.5 121t134.5 160t111 118q86 81 150.5 106.5t93 0.5t28.5 -84t-33 -137zM1056 881q0 16 11 27.5t27 11.5t27.5 -11.5t11.5 -27.5t-11.5 -27t-27.5 -11t-27 11t-11 27zM1462 704q9 -8 10 -20t-7 -24l-1 -1q-76 -71 -99 -89
q-35 -28 -62 -39q-17 -7 -30 -7q-14 0 -25 11t-13 33q-1 16 4 41q1 3 2 8t2 7q-44 -67 -73 -87q-18 -14 -47 -12q-13 0 -24 6q-15 8 -17 19v2v6v1q1 1 1 2q-73 -39 -129 -15h-1q-16 9 -20 24q-5 15 -3 33q3 32 21 75q26 64 62 114q20 31 48 20q12 -4 15 -18t-6 -28
q-45 -70 -60 -114q-6 -21 -6 -30l1 -5h1q25 -4 65 24q42 29 63 72q77 208 224 572q15 41 41 44q11 2 20 -7q8 -8 11 -20v-3v-11v-2q-2 -8 -19 -55q-17 -45 -48 -126q-94 -238 -166 -418q12 15 26 29q30 30 51 38q31 12 53 -8v-1q9 -9 11 -27q1 -9 -3 -33q-4 -26 -21 -72
v-3.5t-1 -2.5q4 2 5 3q34 27 102 92q21 21 42 2zM926 438q6 -3 12 -11q4 -5 4 -14q0 -8 -4 -15q-4 -6 -13 -11q-6 -3 -19 -3q-17 0 -23 3q-10 5 -14 12q-6 10 -6 18l13 1q2 -9 4 -12q4 -5 10 -8q8 -3 15 -3q2 0 14 3q5 1 8 6q3 4 3 8q0 5 -3 8t-9 6q-11 4 -17 5q-14 3 -20 6
t-10 10q-4 8 -4 12q0 9 4 14q6 8 13 10q8 3 18 3q11 0 20 -3q8 -3 13 -11t5 -15l-13 -1q-2 10 -7 14q-7 5 -17 5q-11 0 -18 -5q-5 -4 -5 -10t4 -9q4 -4 20 -7t22 -6zM968 473v12h79v-12h-33v-88h-13v88h-33zM1141 427v58h14v-58q0 -12 -4 -24q-3 -8 -12 -14q-7 -5 -23 -5
q-15 0 -23 4t-13 14q-4 8 -4 25v58h14v-58q0 -15 2 -19q3 -7 8 -9q8 -4 15 -4q13 0 20 7q6 6 6 25zM1258 476q7 -6 12 -17q4 -9 4 -24q0 -11 -3 -20q-4 -11 -6 -14q-5 -6 -9 -9q-6 -4 -12 -5q-10 -2 -16 -2h-36v100h34q10 0 18 -2q6 -1 14 -7zM1258 417q3 7 3 19t-6 24
q-4 8 -12 11q-8 2 -17 2h-21v-76h21q8 0 16 2q5 1 9 5q3 3 7 13zM1323 385h-13v100h13v-100zM1430 480q11 -6 17 -19q6 -12 6 -26q0 -15 -6 -27q-5 -11 -18 -18q-11 -6 -24 -6q-17 0 -25 6q-12 8 -17 19q-5 10 -5 25q0 25 13 38q14 14 34 14q15 0 25 -6zM1430 405q9 11 9 30
q0 13 -4 21q-5 10 -12 14q-8 5 -18 5q-13 0 -24 -9q-10 -9 -10 -32q0 -17 10 -29q9 -10 24 -10q16 0 25 10zM4520 722l375 -536h-749z" />
    <glyph glyph-name="parenleft" unicode="(" horiz-adv-x="5036" 
d="M2178 1189q40 -17 69 -63q28 -46 28 -132q0 -65 -14 -106q-15 -44 -41 -70q-18 -18 -49 -28q-30 -10 -85 -10h-118v420h116q63 0 94 -11zM2628 563q14 -10 23 -28q9 -22 9 -42q0 -38 -19 -58q-19 -21 -49 -21q-28 0 -48 21q-19 20 -19 55q0 44 20 64q19 19 48 19
q21 0 35 -10zM3943 1184q43 -27 66 -77q23 -51 23 -118q0 -105 -53 -164q-51 -57 -135 -57q-80 0 -134 57t-54 156q0 125 56 178t133 53q53 0 98 -28zM1458 1494h3324l-913 -1308h-2411q148 119 230.5 291t82.5 363q0 190 -82 362t-231 292zM2208 568h106v24h-132v-197h26
v89h92v24h-92v60zM2336 882q14 45 14 111q0 73 -21 130t-65 95q-33 28 -81 39q-37 8 -98 8h-190v-550h199q49 0 88 9q37 8 66 28q27 18 50 50t38 80zM2674 440q12 24 12 53q0 32 -11 53q-11 22 -34 36q-20 13 -49 13q-39 0 -67 -28q-27 -29 -27 -76q0 -23 12 -49
q13 -25 33 -37q22 -13 49 -13q26 0 48 12t34 36zM2452 715h410v65h-337v187h304v64h-304v169h325v65h-398v-550zM3032 395v197h-25v-155l-103 155h-26v-197h25v154l103 -154h26zM3310 568h65v24h-156v-24h65v-173h26v173zM3486 715v550h-98l-132 -383q-26 -78 -29 -88
q-5 18 -26 81l-131 390h-109v-550h70v468l159 -468h66l160 460v-460h70zM3978 739q63 35 95 100q34 65 34 150q0 82 -32 148q-32 65 -93 101q-62 36 -138 36q-116 0 -189 -77q-74 -79 -74 -214q0 -72 32 -138q32 -65 92 -102q62 -38 139 -38q73 0 134 34zM830 1680
q171 0 326.5 -66.5t268.5 -179t179.5 -268t66.5 -326.5t-66.5 -326.5t-179.5 -268t-268.5 -179t-326.5 -66.5t-326.5 66.5t-268 179t-179 268t-66.5 326.5t66.5 326.5t179 268t268 179t326.5 66.5zM830 102q200 0 370 99t269 269t99 370t-99 370t-269 269t-370 99t-370 -99
t-269 -269t-99 -370t99 -370t269 -269t370 -99zM1088 1267q-36 -81 -168.5 -325t-184.5 -388q-37 -103 -46 -191q-2 -21 3.5 -57.5t7.5 -57t-8 -44.5q-15 -25 -38.5 -21.5t-43 17t-36.5 33.5q-18 26 -19.5 69.5t13.5 100.5t36.5 118t56.5 135t67 137.5t74 139.5t71.5 127.5
t66.5 115.5t52 90q22 40 35 70t16.5 50.5t-4 27.5t-25.5 1t-50 -29t-75 -61q-172 -160 -443 -511q-71 -95 -189 -247q-23 -31 -43 -31q-30 0 -34 15v12q20 67 55.5 156.5t75.5 175t78.5 158t69.5 113t45 31.5v-4q-28 -65 -74 -166q-41 -91 -21.5 -112t95.5 67
q24 28 99.5 121t134.5 160t111 118q86 81 150.5 106.5t93 0.5t28.5 -84t-33 -137zM943 881q0 16 11.5 27.5t27.5 11.5t27 -11.5t11 -27.5t-11 -27t-27 -11t-27.5 11t-11.5 27zM1349 704q9 -8 10 -20t-7 -24l-1 -1q-76 -71 -99 -89q-35 -28 -62 -39q-18 -7 -30 -7
q-14 0 -25 11t-13 33q-1 16 4 41q0 3 2 8t2 7q-44 -67 -73 -87q-18 -14 -47 -12q-13 0 -24 6q-15 8 -17 19v2v6v3q-73 -39 -128 -15h-1q-15 10 -19 24q-5 18 -4 33q3 32 21 75q26 64 62 114q20 31 48 20q12 -4 15 -18t-6 -28q-45 -70 -60 -114q-6 -21 -6 -30l1 -5h1
q25 -4 65 24q42 29 63 72q61 169 224 572q15 41 41 44q11 2 20 -7q8 -8 11 -20v-3v-11v-2q-2 -8 -19 -55q-16 -45 -48 -126q-94 -238 -166 -418q12 15 26 29q30 30 51 38q31 12 53 -8v-1q9 -9 11 -27q1 -13 -2 -33q-4 -26 -21 -72l-2 -6q4 2 5 3q34 27 102 92q21 21 42 2z
M813 438q8 -4 13 -11q4 -5 4 -14q0 -7 -5 -15q-4 -6 -13 -11q-6 -3 -19 -3q-16 0 -22 3q-11 6 -15 12q-5 8 -5 18l12 1q2 -9 4 -12q4 -5 10 -8q7 -3 16 -3q1 0 13 3q6 2 9 6q2 3 2 8q0 6 -2 8q-3 3 -9 6q-9 3 -18 5q-13 3 -19 6q-7 3 -11 10q-3 6 -3 12q0 9 4 14q6 7 12 10
q7 3 19 3q10 0 19 -3q8 -3 13 -11t5 -15l-13 -1q-2 11 -6 14q-7 5 -18 5q-10 0 -17 -5q-6 -4 -6 -10t4 -9q4 -4 20 -7t22 -6zM856 473v12h79v-12h-33v-88h-13v88h-33zM1029 427v58h13v-58q0 -15 -3 -24q-2 -7 -13 -14q-8 -5 -23 -5t-23 4q-7 3 -12 14q-4 8 -4 25v58h13v-58
q0 -15 2 -19q3 -6 9 -9q8 -4 14 -4q14 0 21 7q6 6 6 25zM1146 476q6 -5 11 -17q4 -9 4 -24q0 -14 -2 -20q-3 -8 -7 -14t-9 -9q-6 -4 -12 -5q-10 -2 -16 -2h-36v100h34q10 0 18 -2q7 -1 15 -7zM1145 417q3 7 3 19q0 14 -5 24q-4 7 -13 11q-8 2 -17 2h-21v-76h22q7 0 15 2
q5 1 9 5q3 3 7 13zM1210 385h-13v100h13v-100zM1317 480q11 -6 17 -19q6 -12 6 -26q0 -15 -6 -27t-17 -18t-24 -6q-18 0 -26 6q-10 7 -16 19t-6 25q0 25 13 38q14 14 35 14q13 0 24 -6zM1317 405q9 11 9 30q0 13 -4 21q-5 10 -12 14q-8 5 -17 5q-13 0 -24 -9t-11 -32
q0 -17 10 -29q9 -10 24 -10q16 0 25 10zM4408 722l374 -536h-748z" />
    <glyph glyph-name="parenright" unicode=")" horiz-adv-x="4923" 
d="M2215 1189q41 -17 69 -63t28 -132q0 -65 -14 -106q-15 -44 -41 -70q-18 -18 -49 -28q-30 -10 -85 -10h-118v420h116q63 0 94 -11zM2665 563q16 -11 23 -28q8 -19 8 -42q0 -38 -19 -58q-19 -21 -48 -21t-48 21q-19 20 -19 55q0 44 20 64q19 19 48 19q21 0 35 -10z
M3980 1184q43 -27 66 -77q23 -51 23 -118q0 -105 -53 -164q-51 -57 -135 -57q-81 0 -135 57q-53 56 -53 156q0 125 56 178t133 53q53 0 98 -28zM1495 1494h3324l-913 -1308h-2411q148 119 230.5 291t82.5 363q0 190 -82 362t-231 292zM2245 568h106v24h-132v-197h26v89h92
v24h-92v60zM2372 882q15 48 15 111q0 73 -21 130q-21 56 -66 95q-33 29 -80 39q-37 8 -98 8h-190v-550h199q49 0 88 9q37 8 66 28q27 18 50 50q21 30 37 80zM2711 440q12 24 12 53q0 32 -11 53q-11 22 -34 36q-20 13 -49 13q-39 0 -67 -28q-27 -29 -27 -76q0 -23 12 -49
q11 -24 33 -37t49 -13q25 0 48 12q22 12 34 36zM2489 715h410v65h-337v187h304v64h-304v169h325v65h-398v-550zM3069 395v197h-25v-155l-103 155h-26v-197h24v154l104 -154h26zM3412 568v24h-156v-24h65v-173h26v173h65zM3523 715v550h-98l-132 -383q-26 -78 -29 -88
q-2 8 -6 19.5t-10.5 30t-10.5 31.5l-130 390h-109v-550h70v468l159 -468h66l159 460v-460h71zM4014 739q64 36 96 100q34 65 34 150q0 82 -32 148q-32 65 -93 101t-138 36q-117 0 -190 -77t-73 -214q0 -75 31 -138q31 -65 93 -102q62 -38 139 -38q72 0 133 34zM867 1680
q171 0 326.5 -66.5t268 -179t179 -268t66.5 -326.5t-66.5 -326.5t-179 -268t-268 -179t-326.5 -66.5t-326.5 66.5t-268 179t-179 268t-66.5 326.5t66.5 326.5t179 268t268 179t326.5 66.5zM867 102q200 0 370 99t269 269t99 370t-99 370t-269 269t-370 99t-370 -99
t-269 -269t-99 -370t99 -370t269 -269t370 -99zM1125 1267q-36 -81 -168.5 -325t-184.5 -388q-37 -103 -46 -191q-2 -21 3 -57.5t7 -56.5t-8 -45q-11 -17 -27 -20.5t-32.5 4.5t-31 19.5t-26.5 25.5q-18 26 -19.5 69.5t13.5 100.5t36.5 118t56.5 135t67 137.5t74 139.5
t71.5 127.5t66.5 115.5t52 90q22 40 35 70t16.5 50.5t-4 27.5t-25.5 1t-50 -29t-75 -61q-172 -160 -443 -511q-71 -95 -189 -247q-23 -31 -43 -31q-29 0 -34 15v12q20 67 55.5 156.5t75.5 175t78.5 158t69.5 113t45 31.5v-4q-28 -65 -74 -166q-41 -91 -21.5 -112t95.5 67
q24 28 99.5 121t134.5 160t111 118q86 81 150.5 106.5t93 0.5t28.5 -84t-33 -137zM980 881q0 16 11.5 27.5t27.5 11.5t27 -11.5t11 -27.5t-11 -27t-27 -11t-27.5 11t-11.5 27zM1386 704q9 -8 10 -20t-7 -24l-1 -1q-76 -71 -99 -89q-34 -27 -63 -39q-18 -7 -29 -7
q-15 0 -26 11q-10 10 -12 33q-1 16 4 41q1 3 2 8t2 7q-43 -66 -74 -87q-18 -14 -46 -12q-15 0 -25 6q-13 8 -16 19v2v6v3q-73 -39 -128 -15h-1q-16 11 -20 24q-5 15 -3 33q3 32 21 75q26 64 62 114q20 31 48 20q12 -4 15 -18q3 -13 -7 -28q-43 -67 -59 -114q-6 -21 -6 -30
l1 -5q25 -4 66 24q42 29 63 72q77 208 224 572q15 41 41 44q11 2 20 -7q8 -8 11 -20v-3v-11v-2q-2 -8 -19 -55q-17 -45 -48 -126q-94 -238 -166 -418q12 15 26 29q30 30 51 38q31 12 53 -8v-1q9 -9 11 -27q1 -9 -3 -33q-8 -40 -20 -72h-1v-3.5t-1 -2.5q4 2 5 3q34 27 102 92
q21 21 42 2zM850 438q8 -4 13 -11q4 -5 4 -14q0 -7 -5 -15q-4 -6 -13 -11q-6 -3 -19 -3q-16 0 -22 3q-11 6 -15 12q-5 8 -5 18l12 1q2 -9 4 -12q4 -5 10 -8q8 -3 16 -3q1 0 13 3q5 1 8 6q3 4 3 8q0 6 -2 8q-3 3 -9 6q-9 3 -18 5q-13 3 -19 6q-8 3 -11 10q-3 6 -3 12
q0 9 4 14q6 7 12 10q8 3 19 3q10 0 19 -3q8 -3 13 -11t5 -15l-13 -1q-2 10 -7 14q-7 5 -17 5t-17 -5q-6 -4 -6 -10t4 -9q4 -4 20 -7t22 -6zM893 473v12h79v-12h-33v-88h-14v88h-32zM1066 427v58h13v-58q0 -15 -3 -24q-2 -7 -13 -14q-7 -5 -23 -5q-15 0 -23 4q-7 3 -12 14
q-4 8 -4 25v58h13v-58q0 -15 2 -19q3 -7 8 -9q8 -4 15 -4q13 0 20 7t7 25zM1183 476q6 -5 11 -17q4 -9 4 -24q0 -14 -2 -20q-3 -8 -7 -14q-5 -6 -9 -9q-6 -4 -12 -5q-10 -2 -16 -2h-36v100h34q10 0 18 -2q7 -1 15 -7zM1182 417q3 7 3 19q0 14 -5 24q-4 7 -13 11q-8 2 -17 2
h-21v-76h22q7 0 15 2q5 1 9 5q3 3 7 13zM1247 385h-13v100h13v-100zM1354 480q10 -6 17 -19q6 -12 6 -26q0 -15 -6 -27t-17 -18q-10 -6 -25 -6q-17 0 -25 6q-10 7 -16 19t-6 25q0 25 13 38q14 14 34 14q15 0 25 -6zM1354 405q9 11 9 30q0 13 -4 21q-5 10 -12 14q-8 5 -18 5
q-13 0 -24 -9q-10 -9 -10 -32q0 -17 10 -29q9 -10 24 -10q16 0 25 10zM4445 722l374 -536h-748z" />
    <glyph glyph-name="asterisk" unicode="*" 
d="M2215 1190q41 -17 69 -62q28 -46 28 -133q0 -65 -14 -106q-15 -44 -41 -70q-18 -17 -49 -28q-30 -10 -85 -10h-118v420h116q63 0 94 -11zM2665 564q14 -10 23 -28q8 -19 8 -41q0 -40 -18 -59q-20 -21 -49 -21t-48 21q-19 20 -19 56q0 43 20 63q19 19 48 19q21 0 35 -10z
M3980 1185q43 -27 66 -77q23 -51 23 -117q0 -106 -53 -165q-51 -57 -135 -57q-81 0 -135 57q-53 56 -53 157q0 124 56 177t133 53q53 0 98 -28zM1495 1495h3324l-913 -1308h-2411q148 119 230.5 291t82.5 363q0 190 -82 362t-231 292zM2245 570h106v23h-132v-197h26v90h92
v23h-92v61zM2372 883q15 48 15 111q0 71 -22 131q-20 56 -65 94q-33 29 -80 39q-37 8 -98 8h-190v-550h199q49 0 88 9q37 8 66 28q27 18 50 50q21 30 37 80zM2711 441q12 24 12 53q0 32 -11 53q-11 22 -34 36q-20 13 -49 13q-40 0 -67 -27q-27 -29 -27 -77q0 -23 12 -49
q13 -25 33 -37q22 -13 49 -13q25 0 48 12q22 12 34 36zM2489 716h410v65h-338v187h305v65h-305v168h325v65h-397v-550zM3069 396v197h-25v-154l-103 154h-26v-197h25v155l103 -155h26zM3347 570h65v23h-156v-23h65v-174h26v174zM3523 716v550h-98l-132 -383q-26 -78 -29 -88
q-2 6 -27 82l-130 389h-109v-550h70v468l159 -468h65l160 460v-460h71zM4015 740q63 35 95 100q34 65 34 150q0 82 -32 148q-32 65 -93 101q-63 37 -138 37q-117 0 -190 -78q-73 -77 -73 -214q0 -74 31 -137q32 -66 93 -103t139 -37q75 0 134 33zM867 1682
q171 0 326.5 -66.5t268 -179.5t179 -268.5t66.5 -326.5t-66.5 -326.5t-179 -268t-268 -179t-326.5 -66.5t-326.5 66.5t-268 179t-179 268t-66.5 326.5t66.5 326.5t179 268.5t268 179.5t326.5 66.5zM867 103q200 0 370 99t269 269t99 370t-99 370t-269 269t-370 99t-370 -99
t-269 -269t-99 -370t99 -370t269 -269t370 -99zM1125 1268q-36 -81 -168.5 -325t-184.5 -388q-37 -103 -46 -191q-2 -21 3 -57.5t7 -56.5t-8 -45q-11 -17 -27 -20.5t-32.5 4.5t-31 19.5t-26.5 25.5q-18 26 -19.5 69.5t13.5 100.5t36.5 118t56.5 135t67 137.5t74 139.5
t71.5 127.5t66.5 115.5t52 90q22 40 35 70t16.5 50.5t-4 27.5t-25.5 1t-50 -29t-75 -61q-172 -160 -443 -511q-71 -95 -189 -247q-22 -30 -43 -30q-30 0 -34 14v12q20 67 55.5 156.5t75.5 175t78.5 158t69.5 113t45 31.5v-4q-28 -65 -74 -166q-41 -91 -21.5 -112t95.5 67
q24 28 99.5 121t134.5 160t111 118q86 81 150.5 106.5t93 0.5t28.5 -84t-33 -137zM980 882q0 16 11.5 27.5t27.5 11.5t27 -11.5t11 -27.5t-11 -27t-27 -11t-27.5 11t-11.5 27zM1344 703q21 21 42 2q9 -8 10 -19.5t-7 -23.5l-1 -1l-20 -20q-21 -20 -40.5 -37.5t-38.5 -32.5
q-34 -27 -63 -39q-15 -6 -29 -6q-16 0 -26 10t-12 33q-1 16 4 41q1 3 2 8t2 7q-43 -66 -74 -87q-18 -14 -46 -12q-15 0 -25 6q-13 8 -16 19v2v6v3q-73 -39 -128 -15h-1q-16 10 -20 25t-3 32q3 32 21 75q27 67 62 115q20 31 48 20q12 -4 15 -19q3 -13 -7 -28
q-43 -67 -59 -114q-6 -21 -6 -30l1 -5q24 -3 66 25q42 29 63 72q58 159 224 571q15 41 41 44q12 2 20 -6t11 -21v-3v-11v-2q-2 -8 -19 -55q-17 -45 -48 -126q-94 -238 -166 -418q16 20 26 30q28 28 51 37q31 12 53 -8q9 -9 11 -28q1 -9 -3 -33q-5 -31 -20 -72h-1v-3t-1 -3
q2 1 5 4q41 33 102 91zM850 439q9 -4 13 -10q4 -5 4 -14q0 -7 -5 -15q-4 -6 -13 -11q-8 -4 -19 -4q-14 0 -22 4q-12 6 -15 11q-5 8 -5 18l12 1q2 -9 4 -12q4 -5 10 -8q5 -2 16 -2q5 0 13 2q6 1 9 6q2 3 2 8q0 7 -2 9q-1 1 -9 5q-9 3 -18 5t-19 7q-8 3 -11 9t-3 12q0 9 4 14
q6 7 12 10q10 4 19 4q7 0 19 -4q9 -3 13 -10q5 -8 5 -16l-13 -1q-2 10 -7 14q-7 5 -17 5q-12 0 -17 -4q-6 -5 -6 -11t4 -9q4 -4 20 -7t22 -6zM893 474v12h78v-12h-32v-88h-14v88h-32zM1066 428v58h13v-58q0 -11 -4 -23q-3 -9 -12 -15q-7 -5 -23 -5q-13 0 -23 5q-9 4 -13 13
q-3 6 -3 25v58h13v-58q0 -15 2 -19q3 -7 8 -9q6 -3 15 -3q14 0 20 6q7 7 7 25zM1183 477q6 -5 11 -17q4 -9 4 -23t-2 -20q-3 -10 -7 -15q-5 -6 -9 -9q-6 -4 -12 -5q-10 -2 -16 -2h-36v100h34q10 0 18 -2q7 -1 15 -7zM1182 418q3 8 3 19q0 14 -5 24q-4 7 -13 11q-8 2 -17 2
h-21v-76h22q7 0 15 2q5 1 9 5q3 3 7 13zM1247 386h-13v100h13v-100zM1354 481q11 -6 17 -18t6 -27t-6 -27t-17 -18q-10 -6 -25 -6t-25 7q-12 9 -17 18q-5 10 -5 25q0 26 13 39q14 14 34 14q13 0 25 -7zM1354 407q9 11 9 29q0 13 -4 21q-5 10 -12 14q-8 5 -18 5q-13 0 -24 -9
q-10 -9 -10 -32q0 -17 10 -29q9 -10 24 -10q16 0 25 11zM4445 723l374 -536h-748z" />
    <glyph glyph-name="plus" unicode="+" horiz-adv-x="4999" 
d="M2291 1189q41 -17 69 -63t28 -132q0 -62 -15 -106q-16 -46 -40 -70q-17 -18 -49 -28q-30 -10 -86 -10h-117v420h116q63 0 94 -11zM2740 563q15 -11 24 -28q8 -19 8 -42q0 -38 -19 -58q-19 -21 -48 -21t-48 21q-19 20 -19 55q0 44 20 64q19 19 47 19q21 0 35 -10z
M4056 1184q43 -27 66 -77q23 -51 23 -118q0 -105 -53 -164q-51 -57 -136 -57q-80 0 -134 57q-53 56 -53 156q0 126 55 178q56 53 134 53q53 0 98 -28zM1571 1494h3324l-913 -1308h-2411q148 119 230 291t82 363t-82 362.5t-230 291.5zM2321 568h106v24h-132v-197h26v89h92
v24h-92v60zM2448 882q15 48 15 111q0 70 -22 130q-21 57 -65 95q-33 29 -80 39q-37 8 -98 8h-190v-550h199q49 0 88 9q37 8 66 28q27 18 50 50q21 30 37 80zM2787 440q12 24 12 53q0 31 -12 53q-12 23 -33 36q-20 13 -49 13q-40 0 -68 -28q-26 -28 -26 -76q0 -25 11 -49
q13 -24 34 -37q22 -13 49 -13q25 0 48 12q22 12 34 36zM2565 715h410v65h-338v187h305v64h-305v169h325v65h-397v-550zM3145 395v197h-25v-155l-103 155h-27v-197h25v154l103 -154h27zM3423 568h65v24h-156v-24h65v-173h26v173zM3598 715v550h-98l-131 -383
q-6 -17 -16.5 -47t-13.5 -41q-5 18 -26 81l-130 390h-110v-550h71v468l159 -468h65l160 460v-460h70zM4090 739q64 36 96 100q34 65 34 150q0 82 -32 148q-31 64 -94 101q-61 36 -137 36q-117 0 -190 -77t-73 -214q0 -75 31 -138q31 -65 93 -102q62 -38 139 -38q72 0 133 34
zM943 1680q171 0 326.5 -66.5t268 -179t179 -268t66.5 -326.5t-66.5 -326.5t-179 -268t-268 -179t-326.5 -66.5t-326.5 66.5t-268.5 179t-179.5 268t-66.5 326.5t66.5 326.5t179.5 268t268.5 179t326.5 66.5zM943 102q200 0 370 99t269 269t99 370t-99 370t-269 269t-370 99
t-370 -99t-269 -269t-99 -370t99 -370t269 -269t370 -99zM1201 1267q-36 -81 -168.5 -325t-184.5 -388q-37 -103 -46 -191q-2 -21 3 -57.5t7 -56.5t-8 -45q-11 -17 -27 -20.5t-32.5 4.5t-31 19.5t-26.5 25.5q-18 26 -19.5 69.5t13.5 100.5t36.5 117.5t56.5 135t66.5 137.5
t74 140t71.5 128t66.5 115.5t51.5 89.5q33 60 45.5 98t3 50t-48 -10t-102.5 -79q-175 -163 -444 -511q-94 -126 -188 -247q-23 -31 -43 -31q-31 0 -35 15v12q20 67 55.5 156.5t75.5 175t78.5 158t69.5 113t45 31.5v-4q-41 -96 -73 -166q-41 -91 -21.5 -112t95.5 67
q24 28 99.5 121t134.5 160t111 118q86 81 150.5 106.5t93 0.5t28.5 -84t-33 -137zM1056 881q0 16 11 27.5t27 11.5t27.5 -11.5t11.5 -27.5t-11.5 -27t-27.5 -11t-27 11t-11 27zM1462 704q9 -8 10 -20t-7 -24l-1 -1q-76 -71 -99 -89q-34 -27 -63 -39q-18 -7 -29 -7
q-15 0 -26 11q-10 10 -12 33q-2 20 3 41q0 3 2 8t3 7q-43 -66 -74 -87q-18 -14 -47 -12q-14 0 -24 6q-13 8 -16 19v2v6v3q-73 -39 -128 -15h-1q-16 11 -20 24q-5 15 -3 33q3 32 21 75q26 64 62 114q20 31 47 20q13 -5 16 -18t-7 -28q-45 -70 -60 -114q-5 -18 -5 -30l1 -5
q25 -4 66 24q42 29 63 72q70 193 223 572q15 41 42 44q11 1 19 -7q10 -10 12 -20v-3v-11v-2q-2 -8 -19 -55q-17 -45 -48 -126q-94 -238 -166 -418q12 15 26 29q30 30 50 38q32 12 54 -8v-1q9 -9 11 -27q1 -9 -3 -33q-7 -33 -21 -72v-3.5t-1 -2.5q4 2 5 3q34 27 102 92
q21 21 42 2zM926 438q6 -3 12 -11q5 -7 5 -14t-5 -15q-4 -6 -13 -11q-6 -3 -19 -3q-17 0 -23 3q-10 5 -14 12q-5 8 -5 18l12 1q2 -9 4 -12q4 -5 10 -8q8 -3 15 -3q2 0 14 3q5 1 8 6q3 4 3 8q0 5 -3 8t-9 6q-11 4 -17 5q-14 3 -20 6t-10 10q-4 8 -4 12q0 7 5 14q6 7 12 10
q8 3 18 3q11 0 20 -3q8 -3 13 -11t5 -15l-13 -1q-2 10 -7 14q-7 5 -17 5q-11 0 -18 -5q-5 -4 -5 -10t4 -9q4 -4 20 -7t22 -6zM968 473v12h79v-12h-33v-88h-13v88h-33zM1141 427v58h14v-58q0 -12 -4 -24q-3 -8 -12 -14q-7 -5 -23 -5q-15 0 -23 4t-13 14q-4 8 -4 25v58h13v-58
q0 -13 3 -19q3 -7 8 -9q8 -4 14 -4q14 0 21 7q6 6 6 25zM1258 476q7 -6 12 -17q4 -9 4 -24q0 -11 -3 -20q-4 -11 -6 -14q-5 -6 -9 -9q-6 -4 -12 -5q-10 -2 -16 -2h-36v100h34q10 0 18 -2q6 -1 14 -7zM1258 417q3 7 3 19q0 14 -5 24q-4 7 -13 11q-8 2 -17 2h-21v-76h21
q8 0 16 2q5 1 9 5q3 3 7 13zM1323 385h-13v100h13v-100zM1430 480q11 -6 17 -19q6 -12 6 -26q0 -15 -6 -27q-5 -11 -18 -18q-11 -6 -24 -6q-17 0 -25 6q-12 8 -17 19q-5 10 -5 25q0 25 13 38q14 14 34 14q15 0 25 -6zM1430 405q9 11 9 30q0 13 -4 21q-5 10 -12 14
q-8 5 -18 5q-13 0 -24 -9q-10 -9 -10 -32q0 -17 10 -29q9 -10 24 -10q16 0 25 10zM4520 722l375 -536h-749z" />
    <glyph glyph-name="comma" unicode="," horiz-adv-x="5101" 
d="M2291 1190q41 -17 69 -62q28 -46 28 -133q0 -63 -15 -106q-16 -46 -40 -70q-17 -17 -49 -28q-30 -10 -86 -10h-117v420h115q64 0 95 -11zM2740 564q17 -12 24 -28q8 -19 8 -41q0 -39 -19 -59q-19 -21 -48 -21t-48 21q-19 20 -19 56q0 43 20 63q19 19 47 19q21 0 35 -10z
M4056 1185q43 -27 66 -77q23 -51 23 -117q0 -106 -53 -165q-51 -57 -136 -57q-80 0 -134 57q-53 56 -53 157q0 125 55 177q56 53 133 53q54 0 99 -28zM1571 1495h3324l-913 -1308h-2411q148 119 230 291t82 363t-82 362.5t-230 291.5zM2427 570v23h-132v-197h26v90h92v23
h-92v61h106zM2448 883q15 48 15 111q0 71 -22 131q-20 56 -65 94q-33 29 -81 39q-37 8 -97 8h-190v-550h199q49 0 88 9q37 8 66 28q27 18 50 50q21 30 37 80zM2787 441q12 24 12 53q0 30 -12 53t-33 36q-20 13 -49 13q-41 0 -68 -27q-26 -28 -26 -77q0 -25 11 -49
q13 -25 33 -37q22 -13 50 -13q25 0 48 12q22 12 34 36zM2564 716h411v65h-338v187h305v65h-305v168h325v65h-398v-550zM3145 396v197h-25v-154l-103 154h-27v-197h25v155l103 -155h27zM3488 570v23h-156v-23h65v-174h26v174h65zM3598 716v550h-98l-131 -383
q-6 -17 -16.5 -47t-13.5 -41q-7 24 -26 82l-130 389h-110v-550h71v468l159 -468h65l160 460v-460h70zM4090 740q64 36 96 100q34 65 34 150q0 82 -32 148q-31 64 -94 101t-137 37q-117 0 -190 -78q-73 -77 -73 -214q0 -74 31 -137q32 -66 93 -103t139 -37q74 0 133 33z
M943 1682q171 0 326.5 -66.5t268 -179.5t179 -268.5t66.5 -326.5t-66.5 -326.5t-179 -268t-268 -179t-326.5 -66.5t-326.5 66.5t-268.5 179t-179.5 268t-66.5 326.5t66.5 326.5t179.5 268.5t268.5 179.5t326.5 66.5zM943 103q200 0 370 99t269 269t99 370t-99 370t-269 269
t-370 99t-370 -99t-269 -269t-99 -370t99 -370t269 -269t370 -99zM1201 1268q-36 -81 -168.5 -325t-184.5 -388q-37 -103 -46 -191q-2 -21 3 -57.5t7 -56.5t-8 -45q-11 -17 -27 -20.5t-32.5 4.5t-31 19.5t-26.5 25.5q-18 26 -19.5 69.5t13.5 100.5t36.5 117.5t56.5 135
t66.5 137.5t74 140t71.5 128t66.5 115.5t51.5 89.5q33 60 45.5 98t3 50t-48 -10t-102.5 -79q-175 -163 -444 -511q-94 -126 -188 -247q-22 -30 -43 -30q-31 0 -35 14v12q20 67 55.5 156.5t75.5 175t78.5 158t69.5 113t45 31.5v-4q-41 -96 -73 -166q-41 -91 -21.5 -112
t95.5 67q24 28 99.5 121t134.5 160t111 118q86 81 150.5 106.5t93 0.5t28.5 -84t-33 -137zM1056 882q0 16 11 27.5t27 11.5t27.5 -11.5t11.5 -27.5t-11.5 -27t-27.5 -11t-27 11t-11 27zM1420 703q21 21 42 2q9 -8 10 -19.5t-7 -23.5l-1 -1l-20 -20q-21 -20 -40.5 -37.5
t-38.5 -32.5q-34 -27 -63 -39q-15 -6 -29 -6q-16 0 -26 10t-12 33q-2 20 3 41q0 3 1.5 8t2.5 7q-44 -67 -73 -87q-18 -14 -47 -12q-14 0 -24 6q-13 8 -16 19v2v6v3q-73 -39 -128 -15h-1q-16 10 -20 25t-3 32q3 32 21 75q27 67 62 115q20 31 47 20q13 -5 16 -19q3 -13 -7 -28
q-45 -70 -60 -114q-5 -17 -5 -30l1 -5q24 -3 66 25q42 29 63 72q84 226 223 571q15 41 42 44q11 2 19 -6q9 -9 12 -21v-3v-11v-2q-2 -8 -19 -55q-17 -45 -48 -126q-94 -238 -166 -418q16 20 26 30q29 29 50 37q32 12 54 -8q9 -9 11 -28q1 -9 -3 -33q-7 -33 -21 -72v-3t-1 -3
q2 1 5 4q41 33 102 91zM926 439q7 -4 12 -10q4 -5 4 -14q0 -8 -4 -15q-4 -6 -13 -11q-8 -4 -19 -4q-15 0 -23 4q-11 5 -14 11q-6 10 -6 18l13 1q2 -9 4 -12q4 -5 10 -8q5 -2 15 -2q6 0 14 2q5 1 8 6t3 8q0 6 -3 9q-1 1 -9 5q-11 4 -17 5q-11 2 -20 7q-7 3 -10 9q-4 8 -4 12
q0 9 4 14q5 7 13 10q10 4 18 4t20 -4q9 -3 13 -10q5 -8 5 -16l-13 -1q-2 10 -7 14q-7 5 -17 5q-13 0 -18 -4t-5 -11q0 -6 4 -9q4 -4 20 -7t22 -6zM968 474v12h79v-12h-33v-88h-13v88h-33zM1141 428h1v58h13v-58q0 -11 -4 -23q-3 -9 -12 -15q-7 -5 -23 -5q-13 0 -23 5
q-9 4 -13 13q-4 8 -4 25v58h14v-58q0 -15 2 -19q3 -7 8 -9q6 -3 15 -3q14 0 20 6t6 25zM1258 477q7 -6 12 -17q4 -9 4 -23q0 -11 -3 -20q-4 -13 -6 -15q-5 -6 -9 -9q-6 -4 -12 -5q-10 -2 -16 -2h-36v100h34q10 0 18 -2q6 -1 14 -7zM1258 418q3 8 3 19q0 12 -6 24
q-4 8 -12 11q-8 2 -17 2h-21v-76h21q8 0 16 2q5 1 9 5q3 3 7 13zM1323 386h-13v100h13v-100zM1430 481q11 -6 17 -18t6 -27t-6 -27q-5 -11 -18 -18q-11 -6 -24 -6q-15 0 -25 7q-12 9 -17 18q-5 10 -5 25q0 26 13 39q14 14 34 14q13 0 25 -7zM1429 407q10 12 10 29
q0 13 -4 21q-5 10 -12 14q-8 5 -18 5q-13 0 -24 -9q-10 -9 -10 -32q0 -17 10 -29q9 -10 24 -10t24 11zM4520 723l374 -536h-748z" />
    <glyph glyph-name="hyphen" unicode="-" 
d="M2291 1190q41 -17 69 -62q28 -46 28 -133q0 -63 -15 -106q-16 -46 -40 -70q-17 -17 -49 -28q-30 -10 -86 -10h-117v420h116q63 0 94 -11zM2740 564q15 -11 24 -28q8 -19 8 -41q0 -39 -19 -59q-19 -21 -48 -21t-48 21q-19 20 -19 56q0 43 20 63q19 19 47 19q21 0 35 -10z
M4056 1185q43 -27 66 -77q23 -51 23 -117q0 -106 -53 -165q-51 -57 -136 -57q-80 0 -134 57q-53 56 -53 157q0 125 55 177q56 53 134 53q53 0 98 -28zM1571 1495h3324l-913 -1308h-2411q148 119 230 291t82 363t-82 362.5t-230 291.5zM2321 570h106v23h-132v-197h26v90h92
v23h-92v61zM2448 883q15 48 15 111q0 71 -22 131q-20 56 -65 94q-33 29 -80 39q-37 8 -98 8h-190v-550h199q49 0 88 9q37 8 66 28q27 18 50 50q21 30 37 80zM2787 441q12 24 12 53q0 30 -12 53t-33 36q-20 13 -49 13q-41 0 -68 -27q-26 -28 -26 -77q0 -25 11 -49
q13 -24 34 -37q22 -13 49 -13q25 0 48 12q22 12 34 36zM2565 716h410v65h-338v187h305v65h-305v168h325v65h-397v-550zM3145 396v197h-25v-154l-103 154h-27v-197h25v155l103 -155h27zM3423 570h65v23h-156v-23h65v-174h26v174zM3598 716v550h-98l-131 -383
q-6 -17 -16.5 -47t-13.5 -41q-7 24 -26 82l-130 389h-110v-550h71v468l159 -468h65l160 460v-460h70zM4090 740q64 36 96 100q34 65 34 150q0 82 -32 148q-31 64 -94 101t-137 37q-117 0 -190 -78q-73 -77 -73 -214q0 -74 31 -137q32 -66 93 -103t139 -37q74 0 133 33z
M943 1682q171 0 326.5 -66.5t268 -179.5t179 -268.5t66.5 -326.5t-66.5 -326.5t-179 -268t-268 -179t-326.5 -66.5t-326.5 66.5t-268.5 179t-179.5 268t-66.5 326.5t66.5 326.5t179.5 268.5t268.5 179.5t326.5 66.5zM943 103q200 0 370 99t269 269t99 370t-99 370t-269 269
t-370 99t-370 -99t-269 -269t-99 -370t99 -370t269 -269t370 -99zM1201 1268q-36 -81 -168.5 -325t-184.5 -388q-37 -103 -46 -191q-2 -21 3 -57.5t7 -56.5t-8 -45q-11 -17 -27 -20.5t-32.5 4.5t-31 19.5t-26.5 25.5q-18 26 -19.5 69.5t13.5 100.5t36.5 117.5t56.5 135
t66.5 137.5t74 140t71.5 128t66.5 115.5t51.5 89.5q33 60 45.5 98t3 50t-48 -10t-102.5 -79q-175 -163 -444 -511q-94 -126 -188 -247q-22 -30 -43 -30q-31 0 -35 14v12q20 67 55.5 156.5t75.5 175t78.5 158t69.5 113t45 31.5v-4q-41 -96 -73 -166q-41 -91 -21.5 -112
t95.5 67q24 28 99.5 121t134.5 160t111 118q86 81 150.5 106.5t93 0.5t28.5 -84t-33 -137zM1056 882q0 16 11 27.5t27 11.5t27.5 -11.5t11.5 -27.5t-11.5 -27t-27.5 -11t-27 11t-11 27zM1419 703q9 9 22 9.5t21 -7.5q21 -19 2 -43l-1 -1l-20.5 -20.5t-38.5 -36.5t-39 -33
q-34 -27 -63 -39q-15 -6 -29 -6q-16 0 -26 10t-12 33q-2 20 3 41q0 2 2 7t3 8q-43 -66 -74 -87q-18 -14 -47 -12q-14 0 -24 6q-13 8 -16 19v2v6v3q-73 -39 -128 -15h-1q-16 10 -20 25t-3 32q3 32 21 75q27 67 62 115q20 31 47 20q13 -5 16 -19q3 -13 -7 -28
q-45 -70 -60 -114q-5 -17 -5 -30l1 -5q24 -3 66 25q42 29 63 72q66 183 223 571q15 41 42 44q11 2 19 -6t11 -21q0 -1 1 -3v-11v-2q-2 -8 -19 -55q-17 -45 -48 -126q-94 -238 -166 -418q16 20 26 30q29 29 50 37q32 12 54 -8q9 -9 11 -28q1 -9 -3 -33q-7 -33 -21 -72v-3
t-1 -3q2 1 5 4q35 28 101 91zM926 439q7 -4 12 -10q5 -7 5 -14t-5 -15q-4 -6 -13 -11q-8 -4 -19 -4q-15 0 -23 4q-11 5 -14 11q-5 8 -5 18l12 1q2 -9 4 -12q4 -5 10 -8q5 -2 15 -2q6 0 14 2q5 1 8 6t3 8q0 6 -3 9q-1 1 -9 5q-11 4 -17 5q-11 2 -20 7q-7 3 -10 9q-4 8 -4 12
q0 7 5 14q6 7 12 10q10 4 18 4t20 -4q9 -3 13 -10q5 -8 5 -16l-13 -1q-2 10 -7 14q-7 5 -17 5q-13 0 -18 -4t-5 -11q0 -6 4 -9q4 -4 20 -7t22 -6zM968 474v12h79v-12h-33v-88h-13v88h-33zM1141 428v58h14v-58q0 -11 -4 -23q-3 -9 -12 -15q-7 -5 -23 -5q-13 0 -23 5
q-9 4 -13 13q-4 8 -4 25v58h13v-58q0 -13 3 -19q3 -7 8 -9q6 -3 14 -3q15 0 21 6t6 25zM1258 477q7 -6 12 -17q4 -9 4 -23q0 -11 -3 -20q-4 -13 -6 -15q-5 -6 -9 -9q-6 -4 -12 -5q-10 -2 -16 -2h-36v100h34q10 0 18 -2q6 -1 14 -7zM1258 418q3 8 3 19q0 14 -5 24
q-4 7 -13 11q-8 2 -17 2h-21v-76h21q8 0 16 2q5 1 9 5q3 3 7 13zM1323 386h-13v100h13v-100zM1430 481q11 -6 17 -18t6 -27t-6 -27q-5 -11 -18 -18q-11 -6 -24 -6q-15 0 -25 7q-12 9 -17 18q-5 10 -5 25q0 26 13 39q14 14 34 14q13 0 25 -7zM1430 407q9 11 9 29q0 13 -4 21
q-5 10 -12 14q-8 5 -18 5q-13 0 -24 -9q-10 -9 -10 -32q0 -17 10 -29q9 -10 24 -10q16 0 25 11zM4520 723l375 -536h-749z" />
    <glyph glyph-name="period" unicode="." horiz-adv-x="5136" 
d="M2291 1190q41 -17 69 -62q28 -46 28 -133q0 -63 -15 -106q-16 -46 -40 -70q-17 -17 -49 -28q-30 -10 -86 -10h-117v420h116q63 0 94 -11zM2740 564q15 -11 24 -28q8 -19 8 -41q0 -39 -19 -59q-19 -21 -48 -21t-48 21q-19 20 -19 56q0 43 20 63q19 19 47 19q21 0 35 -10z
M4056 1185q43 -27 66 -77q23 -51 23 -117q0 -106 -53 -165q-51 -57 -136 -57q-80 0 -134 57q-53 56 -53 157q0 125 55 177q56 53 133 53q54 0 99 -28zM1571 1495h3324l-913 -1308h-2411q148 119 230 291t82 363t-82 362.5t-230 291.5zM2321 570h106v23h-132v-197h26v90h92
v23h-92v61zM2448 883q15 48 15 111q0 71 -22 131q-20 56 -65 94q-33 29 -81 39q-35 8 -97 8h-190v-550h198q50 0 89 9q37 8 66 28q27 18 50 50q21 30 37 80zM2787 441q12 24 12 53q0 32 -11 53q-11 22 -34 36q-20 13 -49 13q-43 0 -68 -27q-26 -28 -26 -77q0 -25 11 -49
q11 -23 33 -37q22 -13 50 -13q25 0 48 12q22 12 34 36zM2564 716h411v65h-338v187h305v65h-305v168h325v65h-398v-550zM3145 396v197h-25v-154l-103 154h-27v-197h25v155l103 -155h27zM3488 570v23h-156v-23h65v-174h26v174h65zM3528 716h70v550h-98l-131 -383
q-6 -17 -16.5 -47t-13.5 -41q-7 24 -26 82l-130 389h-110v-550h70v468l160 -468h65l160 460v-460zM4090 740q62 35 96 100t34 150q0 82 -32 148q-31 64 -94 101t-137 37q-117 0 -190 -78q-73 -77 -73 -214q0 -74 31 -137q32 -66 93 -103t139 -37q74 0 133 33zM943 1682
q171 0 326.5 -66.5t268 -179.5t179 -268.5t66.5 -326.5t-66.5 -326.5t-179 -268t-268 -179t-326.5 -66.5t-326.5 66.5t-268.5 179t-179.5 268t-66.5 326.5t66.5 326.5t179.5 268.5t268.5 179.5t326.5 66.5zM943 103q200 0 370 99t269 269t99 370t-99 370t-269 269t-370 99
t-370 -99t-269 -269t-99 -370t99 -370t269 -269t370 -99zM1201 1268q-36 -81 -168.5 -325t-184.5 -388q-37 -103 -46 -191q-2 -21 3 -57.5t7 -56.5t-8 -45q-11 -17 -27 -20.5t-32.5 4.5t-31 19.5t-26.5 25.5q-18 26 -19 69.5t13.5 100.5t36 118t56.5 134.5t67 137.5
t74 139.5t71.5 128t66 115.5t51.5 90q33 60 45.5 98t3 50t-48 -10t-102.5 -79q-175 -163 -444 -511q-94 -126 -188 -247q-22 -30 -43 -30q-31 0 -35 14v12q20 67 55.5 156.5t75.5 175t78.5 158t69.5 113t45 31.5v-4q-41 -96 -73 -166q-41 -91 -21.5 -112t95.5 67
q24 28 99.5 121t134.5 160t111 118q86 81 150.5 106.5t93 0.5t28.5 -84t-33 -137zM1056 882q0 16 11 27.5t27 11.5t27.5 -11.5t11.5 -27.5t-11.5 -27t-27.5 -11t-27 11t-11 27zM1420 703q21 21 42 2t2 -43l-1 -1l-20.5 -20.5t-38.5 -36.5t-39 -33q-34 -27 -63 -39
q-15 -6 -29 -6q-16 0 -26 10t-12 33q-2 20 3 41q0 3 1.5 8t2.5 7q-44 -67 -73 -87q-18 -14 -47 -12q-14 0 -24 6q-13 8 -16 19v2v6v3q-73 -39 -128 -15h-1q-16 10 -20 25t-3 32q3 32 21 75q27 67 62 115q20 31 48 20q12 -4 15 -19q3 -13 -7 -28q-45 -70 -60 -114
q-5 -17 -5 -30l1 -5q24 -3 66 25q42 29 63 72q84 226 223 571q15 41 42 44q12 2 20 -6t11 -21v-3v-11v-2q-2 -8 -19 -55q-17 -45 -48 -126q-94 -238 -166 -418q16 20 26 30q29 29 50 37q32 12 54 -8q9 -9 11 -28q1 -9 -3 -33q-4 -26 -21 -72v-3t-1 -3q2 1 5 4q41 33 102 91z
M926 439q7 -4 12 -10q4 -5 4 -14q0 -8 -4 -15q-4 -6 -13 -11q-8 -4 -19 -4q-15 0 -23 4q-11 5 -14 11q-6 10 -6 18l13 1q2 -9 4 -12q4 -5 10 -8q5 -2 15 -2q6 0 14 2q5 1 8 6t3 8q0 6 -3 9q-1 1 -9 5q-11 4 -17 5q-11 2 -20 7q-7 3 -10 9q-4 8 -4 12q0 7 5 14q6 7 12 10
q10 4 18 4t20 -4q9 -3 13 -10q5 -8 5 -16l-13 -1q-2 10 -7 14q-7 5 -17 5q-13 0 -18 -4t-5 -11q0 -6 4 -9q4 -4 20 -7t22 -6zM968 474v12h79v-12h-33v-88h-13v88h-33zM1141 428v58h13v-58q0 -14 -3 -23t-12 -15q-7 -5 -23 -5q-13 0 -23 5q-9 4 -13 13q-4 8 -4 25v58h13v-58
q0 -13 3 -19q3 -7 8 -9q6 -3 14 -3q15 0 21 6t6 25zM1258 477q7 -6 12 -17q4 -9 4 -23q0 -11 -3 -20q-4 -13 -6 -15q-3 -5 -10 -9q-6 -4 -11 -5q-10 -2 -16 -2h-36v100h34q10 0 18 -2q6 -1 14 -7zM1258 418q3 8 3 19q0 12 -6 24q-4 8 -12 11q-8 2 -17 2h-21v-76h21q8 0 16 2
q5 1 9 5q3 3 7 13zM1323 386h-13v100h13v-100zM1430 481q11 -6 17 -18t6 -27t-6 -27q-5 -11 -18 -18q-11 -6 -24 -6q-15 0 -25 7q-12 9 -17 18q-5 10 -5 25q0 26 13 39q14 14 34 14q13 0 25 -7zM1429 407q10 12 10 29q0 13 -4 21q-5 10 -12 14q-8 5 -18 5q-13 0 -24 -9
q-10 -9 -10 -32q0 -17 10 -29q9 -10 24 -10t24 11zM4520 723l374 -536h-748z" />
    <glyph glyph-name="slash" unicode="/" horiz-adv-x="4999" 
d="M2291 1189q39 -16 68 -63t29 -132q0 -62 -15 -106q-16 -46 -40 -70q-17 -18 -49 -28q-30 -10 -86 -10h-117v420h115q64 0 95 -11zM2740 563q17 -12 24 -28q8 -19 8 -42q0 -38 -19 -58q-19 -21 -48 -21t-48 21q-19 20 -19 55q0 44 20 64q19 19 47 19q21 0 35 -10z
M4056 1184q43 -27 66 -77q23 -51 23 -118q0 -105 -53 -164q-51 -57 -136 -57q-80 0 -134 57q-53 56 -53 156q0 126 55 178q56 53 134 53q53 0 98 -28zM1571 1494h3324l-913 -1308h-2411q148 119 230 291t82 363t-82 362.5t-230 291.5zM2427 568v24h-132v-197h26v89h92v24
h-92v60h106zM2448 882q15 48 15 111q0 70 -22 130q-21 57 -65 95q-33 28 -81 39q-37 8 -98 8h-189v-550h199q49 0 88 9q37 8 66 28q27 18 50 50q21 30 37 80zM2787 440q12 24 12 53q0 31 -12 53q-12 23 -33 36q-20 13 -49 13q-40 0 -68 -28q-26 -28 -26 -76q0 -25 11 -49
q13 -25 33 -37q22 -13 50 -13q25 0 48 12q22 12 34 36zM2565 715h410v65h-338v187h305v64h-305v169h325v65h-397v-550zM3145 395v197h-25v-155l-103 155h-27v-197h25v154l103 -154h27zM3488 568v24h-156v-24h65v-173h26v173h65zM3598 715v550h-98l-131 -383
q-6 -17 -16.5 -47t-13.5 -41q-5 18 -26 81l-130 390h-110v-550h71v468l159 -468h65l160 460v-460h70zM4090 739q64 36 96 100q34 65 34 150q0 82 -32 148q-31 64 -94 101q-61 36 -137 36q-117 0 -190 -77t-73 -214q0 -75 31 -138q31 -65 93 -102q62 -38 139 -38q72 0 133 34
zM943 1680q171 0 326.5 -66.5t268 -179t179 -268t66.5 -326.5t-66.5 -326.5t-179 -268t-268 -179t-326.5 -66.5t-326.5 66.5t-268.5 179t-179.5 268t-66.5 326.5t66.5 326.5t179.5 268t268.5 179t326.5 66.5zM943 102q200 0 370 99t269 269t99 370t-99 370t-269 269t-370 99
t-370 -99t-269 -269t-99 -370t99 -370t269 -269t370 -99zM1201 1267q-36 -81 -168.5 -325t-184.5 -388q-37 -103 -46 -191q-2 -21 3 -57.5t7 -56.5t-8 -45q-11 -17 -27 -20.5t-32.5 4.5t-31 19.5t-26.5 25.5q-18 26 -19.5 69.5t13.5 100.5t36.5 117.5t56.5 135t66.5 137.5
t74 140t71.5 128t66.5 115.5t51.5 89.5q33 60 45.5 98t3 50t-48 -10t-102.5 -79q-175 -163 -444 -511q-94 -126 -188 -247q-23 -31 -43 -31q-31 0 -35 15v12q20 67 55.5 156.5t75.5 175t78.5 158t69.5 113t45 31.5v-4q-41 -96 -73 -166q-41 -91 -21.5 -112t95.5 67
q24 28 99.5 121t134.5 160t111 118q86 81 150.5 106.5t93 0.5t28.5 -84t-33 -137zM1056 881q0 16 11 27.5t27 11.5t27.5 -11.5t11.5 -27.5t-11.5 -27t-27.5 -11t-27 11t-11 27zM1462 704q9 -8 10 -20t-7 -24l-1 -1q-76 -71 -99 -89q-34 -27 -63 -39q-18 -7 -29 -7
q-15 0 -26 11q-10 10 -12 33q-2 20 3 41q0 3 2 8t3 7q-43 -66 -74 -87q-18 -14 -47 -12q-14 0 -24 6q-13 8 -16 19v2v6v3q-73 -39 -128 -15h-1q-16 11 -20 24q-5 15 -3 33q3 32 21 75q26 64 62 114q20 31 47 20q13 -5 16 -18t-7 -28q-45 -70 -60 -114q-5 -18 -5 -30l1 -5
q25 -4 66 24q42 29 63 72q88 238 223 572q15 41 42 44q11 1 19 -7q10 -10 12 -20v-3v-11v-2q-2 -8 -19 -55q-17 -45 -48 -126q-94 -238 -166 -418q12 15 26 29q30 30 50 38q32 12 54 -8v-1q9 -9 11 -27q1 -9 -3 -33q-7 -33 -21 -72v-3.5t-1 -2.5q4 2 5 3q34 27 102 92
q21 21 42 2zM926 438q6 -3 12 -11q4 -5 4 -14q0 -8 -4 -15q-4 -6 -13 -11q-6 -3 -19 -3q-17 0 -23 3q-10 5 -14 12q-6 10 -6 18l13 1q2 -9 4 -12q4 -5 10 -8q8 -3 15 -3q2 0 14 3q5 1 8 6q3 4 3 8q0 5 -3 8t-9 6q-11 4 -17 5q-14 3 -20 6t-10 10q-4 8 -4 12q0 9 4 14
q5 7 13 10t18 3q11 0 20 -3q8 -3 13 -11t5 -15l-13 -1q-2 10 -7 14q-7 5 -17 5q-11 0 -18 -5q-5 -4 -5 -10t4 -9q4 -4 20 -7t22 -6zM968 473v12h79v-12h-33v-88h-13v88h-33zM1141 427h1v58h13v-58q0 -12 -4 -24q-3 -8 -12 -14q-7 -5 -23 -5q-15 0 -23 4t-13 14q-4 8 -4 25
v58h14v-58q0 -15 2 -19q3 -7 8 -9q8 -4 14 -4q14 0 21 7q6 6 6 25zM1258 476q7 -6 12 -17q4 -9 4 -24q0 -11 -3 -20q-4 -11 -6 -14q-5 -6 -9 -9q-6 -4 -12 -5q-10 -2 -16 -2h-36v100h34q10 0 18 -2q6 -1 14 -7zM1258 417q3 7 3 19t-6 24q-4 8 -12 11q-8 2 -17 2h-21v-76h21
q8 0 16 2q5 1 9 5q3 3 7 13zM1323 385h-13v100h13v-100zM1430 480q11 -6 17 -19q6 -12 6 -26q0 -15 -6 -27q-5 -11 -18 -18q-11 -6 -24 -6q-17 0 -25 6q-12 8 -17 19q-5 10 -5 25q0 25 13 38q14 14 34 14q15 0 25 -6zM1430 405q9 11 9 30q0 13 -4 21q-5 10 -12 14
q-8 5 -18 5q-13 0 -24 -9q-10 -9 -10 -32q0 -17 10 -29q9 -10 24 -10q16 0 25 10zM4520 722l375 -536h-749z" />
    <glyph glyph-name="zero" unicode="0" horiz-adv-x="4999" 
d="M2291 1185q41 -17 69 -62q28 -46 28 -133q0 -62 -15 -106t-40 -69q-19 -19 -49 -29t-86 -10h-117v420h116q63 0 94 -11zM2740 559q18 -13 24 -27q8 -19 8 -42q0 -39 -19 -59t-48 -20t-48 20t-19 56q0 43 20 63q19 19 47 19q21 0 35 -10zM4056 1181q43 -26 66 -78
q23 -51 23 -117q0 -105 -53 -164q-52 -58 -136 -58q-80 0 -134 57q-53 56 -53 157q0 125 55 177q56 53 133 53q55 0 99 -27zM1571 1491h3324l-913 -1308h-2411q148 119 230 291t82 363t-82 362.5t-230 291.5zM2321 565h106v23h-132v-196h26v89h92v23h-92v61zM2448 878
q15 48 15 111q0 71 -22 131q-20 56 -65 94q-33 29 -80 39q-37 8 -98 8h-190v-550h199q45 0 88 10q39 9 66 27t50 50q21 30 37 80zM2787 436q12 24 12 54t-12 52q-12 23 -33 36q-20 13 -49 13q-41 0 -68 -27q-26 -28 -26 -77q0 -25 11 -49q13 -24 33 -36q23 -14 50 -14
q25 0 48 12q22 12 34 36zM2564 711h411v65h-338v187h305v65h-305v168h325v65h-398v-550zM3145 392v196h-25v-154l-103 154h-27v-196h25v154l103 -154h27zM3423 565h65v23h-156v-23h65v-173h26v173zM3598 711v550h-98l-131 -382q-5 -14 -16 -46t-14 -43q-7 24 -26 82
l-130 389h-110v-550h71v468l159 -468h65l160 461v-461h70zM4090 736q64 36 96 100q34 65 34 150q0 81 -32 147t-94 102q-61 36 -137 36q-117 0 -190 -77t-73 -215q0 -74 31 -137q32 -66 93 -103t139 -37q72 0 133 34zM943 1677q171 0 326.5 -66.5t268 -179t179 -268
t66.5 -326.5t-66.5 -326.5t-179 -268.5t-268 -179.5t-326.5 -66.5t-326.5 66.5t-268.5 179.5t-179.5 268.5t-66.5 326.5t66.5 326.5t179.5 268t268.5 179t326.5 66.5zM943 99q200 0 370 99t269 269t99 370q0 150 -58.5 286.5t-157.5 235t-235.5 157t-286.5 58.5
t-286.5 -58.5t-235.5 -157t-157.5 -235t-58.5 -286.5q0 -200 99 -370t269 -269t370 -99zM1201 1263q-38 -86 -110 -217t-138 -258t-105 -238q-37 -103 -46 -190q-2 -21 3 -57.5t7 -56.5t-8 -45q-15 -25 -38.5 -21.5t-42.5 16.5t-36 33q-18 26 -19.5 69.5t13.5 100.5
t36.5 118t56.5 135t67 137.5t74 139.5t71.5 127.5t66.5 115.5t52 90q22 40 35 70t16.5 50.5t-4 27.5t-25.5 1t-50 -29t-75 -61q-175 -163 -444 -511q-94 -126 -188 -247q-22 -30 -43 -30q-31 0 -35 15v11q20 67 55.5 156.5t75.5 175t78.5 158t69.5 113t45 31.5v-4
q-35 -82 -73 -165q-42 -91 -21.5 -112.5t95.5 66.5q24 28 99.5 121t134.5 160t111 118q86 81 150.5 106.5t93 0.5t28.5 -84t-33 -137zM1056 878q0 16 11 27t27 11t27.5 -11t11.5 -27t-11.5 -27.5t-27.5 -11.5t-27 11.5t-11 27.5zM1420 698q21 21 42 2q9 -8 10 -19.5
t-7 -23.5l-1 -1l-20 -20q-21 -20 -40.5 -37.5t-38.5 -32.5q-35 -28 -62 -39q-15 -6 -30 -6q-14 0 -25 11t-13 33q-1 16 4 40q1 3 2 8t2 7q-44 -67 -73 -87q-18 -14 -47 -12q-13 0 -24 6q-13 8 -16 19l-1 1v2v5v3q-73 -39 -128 -15l-1 1q-16 11 -20 24q-4 15 -3 32
q3 32 21 75q27 67 62 115q20 31 48 20q13 -5 15 -19q3 -12 -7 -27q-45 -69 -60 -115q-5 -18 -5 -30l1 -4q25 -4 66 24q42 29 63 72q70 193 223 572q15 41 42 44q11 2 19 -7q9 -9 12 -21v-2v-12v-2q-2 -8 -19 -55q-17 -45 -48 -126q-94 -238 -166 -418q16 20 26 30
q29 29 50 37q32 12 54 -8q9 -9 11 -27q1 -10 -3 -34t-21 -71v-1v-2.5t-1 -2.5q4 2 5 3q41 33 102 91zM926 434q7 -4 12 -10q4 -5 4 -14q0 -8 -4 -15q-4 -6 -13 -11q-8 -4 -19 -4q-15 0 -23 4q-10 5 -14 12q-6 10 -6 18l13 1q2 -10 4 -13q3 -4 10 -7q8 -3 15 -3q5 0 13 2
q6 2 9 6t3 9t-3 8t-9 6q-11 4 -17 5q-14 3 -20 6q-7 3 -10 9q-4 8 -4 13q0 9 4 14q5 7 13 10t18 3q8 0 20 -4q9 -3 13 -10q5 -8 5 -16l-13 -1q-2 10 -7 14q-7 5 -17 5q-13 0 -18 -4t-5 -11q0 -5 4 -8q5 -5 20 -8q16 -3 22 -6zM968 469v12h79v-12h-33v-87h-13v87h-33z
M1141 424l1 57h13v-57q0 -12 -4 -24q-3 -8 -12 -14t-23 -6q-13 0 -23 5q-8 4 -13 14q-4 8 -4 25v57h14v-57q0 -15 2 -19q4 -8 8 -10q6 -3 15 -3q14 0 20 6t6 26zM1258 473q7 -6 12 -17q4 -9 4 -24q0 -11 -3 -20q-4 -13 -6 -15q-5 -6 -9 -9q-6 -4 -12 -5q-5 -1 -16 -1h-36v99
h34q14 0 18 -1q6 -1 14 -7zM1258 413q3 8 3 19q0 12 -6 24q-4 8 -12 11q-8 2 -17 2h-21v-76h21q8 0 16 2q5 1 9 5q3 3 7 13zM1323 382h-13v99h13v-99zM1430 476q11 -6 17 -18t6 -27t-6 -27q-5 -11 -18 -18q-11 -6 -24 -6q-15 0 -25 7q-12 9 -17 18q-5 10 -5 25q0 26 13 39
q14 14 34 14q13 0 25 -7zM1429 402q10 12 10 29q0 14 -4 22q-5 10 -12 14q-8 5 -18 5q-12 0 -24 -10q-10 -9 -10 -32q0 -16 10 -28q9 -11 24 -11t24 11zM4520 719l374 -536h-748z" />
    <glyph glyph-name="one" unicode="1" horiz-adv-x="5111" 
d="M2291 1185q41 -17 69 -62q28 -46 28 -133q0 -62 -15 -106t-40 -69q-19 -19 -49 -29t-86 -10h-117v420h115q64 0 95 -11zM2740 559q18 -13 24 -27q8 -19 8 -42q0 -39 -19 -59t-48 -20t-48 20t-19 56q0 43 20 63q19 19 47 19q21 0 35 -10zM4056 1181q43 -26 66 -78
q23 -51 23 -117q0 -105 -53 -164q-52 -58 -135 -58q-81 0 -135 57q-53 56 -53 157q0 124 56 177t133 53q54 0 98 -27zM1571 1491h3323l-912 -1308h-2411q148 119 230 291t82 363t-82 362.5t-230 291.5zM2321 565h106v23h-132v-196h26v89h92v23h-92v61zM2448 878
q15 48 15 111q0 71 -22 131q-20 56 -65 94q-33 28 -81 39q-37 8 -98 8h-189v-550h199q45 0 88 10q39 9 66 27t50 50q21 30 37 80zM2787 436q12 24 12 54t-12 52q-12 23 -33 36q-20 13 -49 13q-41 0 -68 -27q-26 -28 -26 -77q0 -25 11 -49q13 -24 33 -36q23 -14 50 -14
q25 0 48 12q22 12 34 36zM2565 711h410v65h-338v187h305v65h-305v168h325v65h-397v-550zM3145 392v196h-25v-154l-103 154h-27v-196h25v154l103 -154h27zM3423 565h65v23h-156v-23h65v-173h26v173zM3598 711v550h-98l-131 -382q-5 -14 -16 -46t-14 -43q-7 24 -26 82
l-130 389h-110v-550h71v468l159 -468h65l160 461v-461h70zM4090 736q64 36 96 100q34 65 34 150q0 81 -32 147t-94 102q-61 36 -137 36q-117 0 -190 -77t-73 -215q0 -74 31 -137q32 -66 93 -103t139 -37q72 0 133 34zM943 1677q171 0 326.5 -66.5t268 -179t179 -268
t66.5 -326.5t-66.5 -326.5t-179 -268.5t-268 -179.5t-326.5 -66.5t-326.5 66.5t-268.5 179.5t-179.5 268.5t-66.5 326.5t66.5 326.5t179.5 268t268.5 179t326.5 66.5zM943 99q200 0 370 99t269 269t99 370q0 150 -58.5 286.5t-157.5 235t-235.5 157t-286.5 58.5
t-286.5 -58.5t-235.5 -157t-157.5 -235t-58.5 -286.5q0 -200 99 -370t269 -269t370 -99zM1201 1263q-36 -81 -168.5 -325t-184.5 -388q-37 -103 -46 -190q-2 -21 3.5 -58t7 -56.5t-8.5 -44.5q-15 -25 -38.5 -21.5t-42.5 16.5t-36 33q-18 26 -19.5 69.5t13.5 100.5
t36.5 117.5t56.5 135t66.5 137.5t74 140t71.5 128t66.5 115.5t51.5 89.5q33 60 45.5 98t3 50t-48 -10t-102.5 -79q-175 -163 -444 -511q-94 -126 -188 -247q-22 -30 -43 -30q-31 0 -35 15v11q20 67 55.5 156.5t75.5 175t78.5 158t69.5 113t45 31.5v-4q-35 -82 -73 -165
q-42 -91 -21.5 -112.5t95.5 66.5q24 28 99.5 121t134.5 160t111 118q86 81 150.5 106.5t93 0.5t28.5 -84t-33 -137zM1056 878q0 16 11 27t27 11t27.5 -11t11.5 -27t-11.5 -27.5t-27.5 -11.5t-27 11.5t-11 27.5zM1419 698q9 9 22 9.5t21 -7.5q21 -19 2 -43l-1 -1l-20.5 -20.5
t-38.5 -36.5t-39 -33q-34 -27 -63 -39q-15 -6 -29 -6q-15 0 -26 11q-10 10 -12 33q-1 19 3 40q0 3 1.5 8t2.5 7q-44 -67 -73 -87q-18 -14 -47 -12q-14 0 -24 6q-13 8 -16 19v3v5v3q-73 -39 -129 -15l-1 1q-15 10 -19 24q-4 15 -3 32q3 32 21 75q27 67 62 115q20 31 47 20
q13 -5 16 -19q3 -12 -7 -27q-45 -69 -60 -115q-5 -18 -5 -30l1 -4q25 -4 65 24q44 30 64 72q88 238 223 572q15 41 41 44q11 2 20 -7q8 -8 11 -21l1 -1v-1v-12v-2q-2 -8 -19 -55q-17 -45 -48 -126q-94 -238 -166 -418q16 20 26 30q29 29 50 37q32 12 54 -8q9 -9 11 -27
q1 -10 -3 -34t-21 -71v-1v-2.5t-1 -2.5q4 2 5 3q35 28 101 91zM926 434q7 -4 12 -10q4 -5 4 -14q0 -8 -4 -15q-4 -6 -13 -11q-8 -4 -19 -4q-15 0 -23 4q-10 5 -14 12q-6 10 -6 18l13 1q2 -10 4 -13q3 -4 10 -7q8 -3 15 -3q6 0 14 2q5 1 8 6q3 4 3 9t-3 8t-9 6q-11 4 -17 5
q-14 3 -20 6q-7 3 -10 9q-4 8 -4 13q0 9 4 14q5 7 13 10t18 3q8 0 20 -4q9 -3 13 -10q5 -8 5 -16l-13 -1q-2 10 -7 14q-7 5 -17 5q-13 0 -18 -4t-5 -11q0 -5 4 -8q5 -5 20 -8q16 -3 22 -6zM968 469v12h79v-12h-33v-87h-13v87h-33zM1141 424v57h14v-57q0 -12 -4 -24
q-3 -8 -12 -14t-23 -6q-13 0 -23 5q-8 4 -13 14q-4 8 -4 25v57h13v-57q0 -13 3 -19q4 -8 8 -10q6 -3 14 -3q15 0 21 6t6 26zM1258 473q7 -6 12 -17q4 -9 4 -24q0 -11 -3 -20q-4 -13 -6 -15q-5 -6 -9 -9q-6 -4 -12 -5q-5 -1 -16 -1h-36v99h34q14 0 18 -1q6 -1 14 -7z
M1258 413q3 8 3 19q0 14 -5 24q-4 7 -13 11q-8 2 -17 2h-21v-76h21q8 0 16 2q5 1 9 5q3 3 7 13zM1323 382h-13v99h13v-99zM1430 476q11 -6 17 -18t6 -27t-6 -27q-5 -11 -18 -18q-11 -6 -24 -6q-15 0 -25 7q-12 9 -17 18q-5 10 -5 25q0 26 13 39q14 14 34 14q13 0 25 -7z
M1430 402q9 10 9 29q0 14 -4 22q-5 10 -12 14q-8 5 -18 5q-12 0 -24 -10q-10 -9 -10 -32q0 -16 10 -28q9 -11 24 -11q16 0 25 11zM4520 719l375 -536h-749z" />
    <glyph glyph-name="two" unicode="2" horiz-adv-x="5146" 
d="M2291 1185q41 -17 69 -62q28 -46 28 -133q0 -62 -15 -106t-40 -69q-19 -19 -49 -29t-86 -10h-117v420h115q64 0 95 -11zM2740 559q18 -13 24 -27q8 -19 8 -42q0 -39 -19 -59t-48 -20t-48 20t-19 56q0 43 20 63q19 19 47 19q21 0 35 -10zM4056 1181q43 -26 66 -78
q23 -51 23 -117q0 -105 -53 -164q-52 -58 -135 -58q-81 0 -135 57q-53 56 -53 157q0 124 56 177t133 53q54 0 98 -27zM1571 1491h3323l-912 -1308h-2411q148 119 230 291t82 363t-82 362.5t-230 291.5zM2321 565h106v23h-132v-196h26v89h92v23h-92v61zM2448 878
q15 48 15 111q0 71 -22 131q-20 56 -65 94q-33 28 -81 39q-35 8 -97 8h-190v-550h199q45 0 88 10q39 9 66 27t50 50q21 30 37 80zM2787 436q12 24 12 54t-12 52q-12 23 -33 36q-20 13 -49 13q-41 0 -68 -27q-26 -28 -26 -77q0 -25 11 -49q13 -24 33 -36q23 -14 50 -14
q25 0 48 12q22 12 34 36zM2565 711h410v65h-338v187h305v65h-305v168h325v65h-397v-550zM3145 392v196h-25v-154l-103 154h-27v-196h25v154l103 -154h27zM3423 565h65v23h-156v-23h65v-173h26v173zM3598 711v550h-98l-131 -382q-5 -14 -16 -46t-14 -43q-7 24 -26 82
l-130 389h-110v-550h71v468l159 -468h65l160 461v-461h70zM4090 736q64 36 96 100q34 65 34 150q0 81 -32 147t-94 102q-61 36 -137 36q-117 0 -190 -77t-73 -215q0 -74 31 -137q32 -66 93 -103t139 -37q72 0 133 34zM943 1677q171 0 326.5 -66.5t268 -179t179 -268
t66.5 -326.5t-66.5 -326.5t-179 -268.5t-268 -179.5t-326.5 -66.5t-326.5 66.5t-268.5 179.5t-179.5 268.5t-66.5 326.5t66.5 326.5t179.5 268t268.5 179t326.5 66.5zM943 99q200 0 370 99t269 269t99 370q0 150 -58.5 286.5t-157.5 235t-235.5 157t-286.5 58.5
t-286.5 -58.5t-235.5 -157t-157.5 -235t-58.5 -286.5q0 -200 99 -370t269 -269t370 -99zM1201 1263q-36 -81 -168.5 -325t-184.5 -388q-37 -103 -46 -190q-2 -21 3 -57.5t7 -56.5t-8 -45q-15 -25 -38.5 -21.5t-42.5 16.5t-36 33q-18 26 -19.5 69.5t13.5 100.5t36.5 117.5
t56.5 135t66.5 137.5t74 140t71.5 128t66.5 115.5t51.5 89.5q33 60 45.5 98t3 50t-48 -10t-102.5 -79q-175 -163 -444 -511q-94 -126 -188 -247q-22 -30 -43 -30q-31 0 -35 15v11q20 67 55.5 156.5t75.5 175t78.5 158t69.5 113t45 31.5v-4q-35 -82 -73 -165
q-42 -91 -21.5 -112.5t95.5 66.5q24 28 99.5 121t134.5 160t111 118q86 81 150.5 106.5t93 0.5t28.5 -84t-33 -137zM1056 878q0 16 11 27t27 11t27.5 -11t11.5 -27t-11.5 -27.5t-27.5 -11.5t-27 11.5t-11 27.5zM1419 698q9 9 22 9.5t21 -7.5q21 -19 2 -43l-1 -1l-20.5 -20.5
t-38.5 -36.5t-39 -33q-34 -27 -63 -39q-15 -6 -29 -6q-15 0 -26 11q-10 10 -12 33q-1 19 3 40q0 3 1.5 8t2.5 7q-44 -67 -73 -87q-18 -14 -47 -12q-14 0 -24 6q-13 8 -16 19v3v5v3q-73 -39 -129 -15l-1 1q-15 10 -19 24q-4 15 -3 32q3 32 21 75q27 67 62 115q20 31 47 20
q13 -5 16 -19q3 -12 -7 -27q-45 -69 -60 -115q-5 -18 -5 -30l1 -4q25 -4 65 24q44 30 64 72q70 193 223 572q15 41 41 44q11 2 20 -7q8 -8 11 -21l1 -1v-1v-12v-2q-2 -8 -19 -55q-17 -45 -48 -126q-94 -238 -166 -418q16 20 26 30q29 29 50 37q32 12 54 -8q9 -9 11 -27
q1 -10 -3 -34t-21 -71v-1v-2.5t-1 -2.5q4 2 5 3q35 28 101 91zM926 434q7 -4 12 -10q4 -5 4 -14q0 -8 -4 -15q-4 -6 -13 -11q-8 -4 -19 -4q-15 0 -23 4q-10 5 -14 12q-6 10 -6 18l13 1q2 -10 4 -13q3 -4 10 -7q8 -3 15 -3q6 0 14 2q5 1 8 6q3 4 3 9t-3 8t-9 6q-11 4 -17 5
q-14 3 -20 6q-7 3 -10 9q-4 8 -4 13q0 9 4 14q5 7 13 10t18 3q8 0 20 -4q9 -3 13 -10q5 -8 5 -16l-13 -1q-2 10 -7 14q-7 5 -17 5q-13 0 -18 -4t-5 -11q0 -5 4 -8q5 -5 20 -8q16 -3 22 -6zM968 469v12h79v-12h-33v-87h-13v87h-33zM1141 424v57h14v-57q0 -12 -4 -24
q-3 -8 -12 -14t-23 -6q-13 0 -23 5q-8 4 -13 14q-4 8 -4 25v57h13v-57q0 -13 3 -19q4 -8 8 -10q6 -3 14 -3q15 0 21 6t6 26zM1258 473q7 -6 12 -17q4 -9 4 -24q0 -11 -3 -20q-4 -13 -6 -15q-5 -6 -9 -9q-6 -4 -12 -5q-5 -1 -16 -1h-36v99h34q14 0 18 -1q6 -1 14 -7z
M1258 413q3 8 3 19q0 14 -5 24q-4 7 -13 11q-8 2 -17 2h-21v-76h21q8 0 16 2q5 1 9 5q3 3 7 13zM1323 382h-13v99h13v-99zM1430 476q11 -6 17 -18t6 -27t-6 -27q-5 -11 -18 -18q-11 -6 -24 -6q-15 0 -25 7q-12 9 -17 18q-5 10 -5 25q0 26 13 39q14 14 34 14q13 0 25 -7z
M1430 402q9 10 9 29q0 14 -4 22q-5 10 -12 14q-8 5 -18 5q-12 0 -24 -10q-10 -9 -10 -32q0 -16 10 -28q9 -11 24 -11q16 0 25 11zM4520 719l375 -536h-749z" />
    <glyph glyph-name="three" unicode="3" horiz-adv-x="5072" 
d="M2252 1185q41 -17 69 -62q28 -46 28 -133q0 -65 -14 -106q-15 -43 -41 -69q-19 -19 -49 -29t-85 -10h-118v420h116q63 0 94 -11zM2701 559q18 -13 24 -27q8 -19 8 -42q0 -39 -19 -59t-48 -20t-48 20t-19 56q0 43 20 63q19 19 47 19q21 0 35 -10zM4017 1181q43 -26 66 -78
q23 -51 23 -117q0 -105 -53 -164q-52 -58 -135 -58q-81 0 -135 57q-53 56 -53 157q0 124 56 177t133 53q55 0 98 -27zM1532 1491h3324l-913 -1308h-2411q148 119 230 291t82 363t-82 362.5t-230 291.5zM2282 565h106v23h-132v-196h26v89h92v23h-92v61zM2409 878
q15 48 15 111q0 71 -22 131q-20 56 -65 94q-33 29 -80 39q-35 8 -98 8h-190v-550h199q45 0 88 10q39 9 66 27t50 50q21 30 37 80zM2748 436q12 24 12 54t-12 52q-12 23 -33 36q-20 13 -49 13q-41 0 -68 -27q-26 -28 -26 -77q0 -25 11 -49q12 -23 34 -36q23 -14 49 -14t48 12
t34 36zM2526 711h410v65h-338v187h305v65h-305v168h325v65h-397v-550zM3106 392v196h-25v-154l-103 154h-27v-196h25v154l103 -154h27zM3384 565h65v23h-156v-23h65v-173h26v173zM3560 711v550h-98l-132 -382q-23 -69 -29 -89q-2 6 -27 82l-130 389h-109v-550h70v468
l159 -468h65l160 461v-461h71zM4051 736q64 36 96 100q34 65 34 150q0 81 -32 147t-94 102q-61 36 -137 36q-117 0 -190 -77t-73 -215q0 -74 31 -137q32 -66 93 -103t139 -37q72 0 133 34zM904 1677q171 0 326.5 -66.5t268 -179t179 -268t66.5 -326.5t-66.5 -326.5
t-179 -268.5t-268 -179.5t-326.5 -66.5t-326.5 66.5t-268 179.5t-179 268.5t-66.5 326.5t66.5 326.5t179 268t268 179t326.5 66.5zM904 99q200 0 370 99t269 269t99 370q0 150 -58.5 286.5t-157.5 235t-235.5 157t-286.5 58.5t-286.5 -58.5t-235.5 -157t-157.5 -235
t-58.5 -286.5q0 -200 99 -370t269 -269t370 -99zM1162 1263q-36 -81 -168.5 -325t-184.5 -388q-37 -103 -46 -190q-2 -21 3 -57.5t7 -56.5t-8 -45q-15 -25 -38.5 -21.5t-42.5 16.5t-36 33q-18 26 -19.5 69.5t13.5 100.5t36.5 118t56.5 135t67 137.5t74 139.5t71.5 127.5
t66.5 115.5t52 90q22 40 35 70t16.5 50.5t-4 27.5t-25.5 1t-50 -29t-75 -61q-175 -163 -444 -511q-94 -126 -188 -247q-23 -30 -43 -30q-30 0 -35 15v11q20 67 55.5 156.5t75.5 175t78.5 158t69.5 113t45 31.5v-4q-35 -82 -73 -165q-42 -91 -21.5 -112.5t95.5 66.5
q24 28 99.5 121t134.5 160t111 118q86 81 150.5 106.5t93 0.5t28.5 -84t-33 -137zM1017 878q0 16 11.5 27t27.5 11t27 -11t11 -27t-11 -27.5t-27 -11.5t-27.5 11.5t-11.5 27.5zM1381 698q21 21 42 2q9 -8 10 -19.5t-7 -23.5l-1 -1l-21 -20q-20 -20 -39.5 -37.5t-38.5 -32.5
q-34 -27 -63 -39q-15 -6 -29 -6q-15 0 -26 11q-10 10 -12 33q-1 19 3 40q1 3 3 8t2 7q-43 -66 -74 -87q-18 -14 -47 -12q-13 0 -24 6q-13 8 -16 19v3v5v3q-73 -39 -128 -15l-1 1q-16 11 -20 24q-4 15 -3 32q3 32 21 75q27 67 62 115q20 31 47 20q13 -5 16 -19q3 -12 -7 -27
q-45 -69 -60 -115q-5 -18 -5 -30l1 -4q25 -4 66 24q42 29 63 72q70 193 223 572q15 41 42 44q10 2 19 -7t12 -21v-2v-12v-2q-2 -8 -19 -55q-16 -45 -48 -126q-94 -238 -166 -418q16 20 26 30q29 29 50 37q32 12 54 -8q9 -9 11 -27q1 -10 -3 -34t-21 -71v-1q-1 -1 -1 -2.5
v-2.5q4 2 5 3q41 33 102 91zM887 434q7 -4 12 -10q4 -5 4 -14q0 -8 -4 -15q-4 -6 -13 -11q-8 -4 -19 -4q-15 0 -23 4q-10 5 -14 12q-5 8 -5 18l12 1q2 -10 4 -13q3 -4 10 -7q8 -3 15 -3q6 0 14 2q5 1 8 6q3 4 3 9t-3 8t-9 6q-11 4 -17 5q-14 3 -20 6q-7 3 -10 9q-4 8 -4 13
q0 7 5 14q6 7 12 10q7 3 18 3q8 0 20 -4q9 -3 13 -10q5 -8 5 -16l-13 -1q-2 10 -7 14q-7 5 -17 5q-13 0 -18 -4t-5 -11q0 -5 4 -8q5 -5 20 -8q16 -3 22 -6zM930 469v12h78v-12h-32v-87h-14v87h-32zM1103 424v57h13v-57q0 -12 -4 -24q-3 -8 -12 -14t-23 -6q-13 0 -23 5
q-8 4 -13 14q-3 6 -3 25v57h13v-57q0 -15 2 -19q4 -8 8 -10q6 -3 15 -3q14 0 20 6q7 7 7 26zM1220 473q6 -5 11 -17q4 -9 4 -24q0 -14 -2 -20q-3 -10 -7 -15q-4 -6 -9 -9q-6 -4 -12 -5q-5 -1 -16 -1h-36v99h34q14 0 18 -1q7 -1 15 -7zM1219 413q3 8 3 19q0 14 -5 24
q-4 7 -13 11q-8 2 -17 2h-21v-76h21q8 0 16 2q5 1 9 5q3 3 7 13zM1284 382h-13v99h13v-99zM1391 476q11 -6 17 -18t6 -27t-6 -27q-5 -11 -18 -18q-10 -6 -24 -6q-15 0 -25 7q-12 9 -17 18q-5 10 -5 25q0 26 13 39q14 14 34 14q13 0 25 -7zM1391 402q9 10 9 29q0 14 -4 22
q-5 10 -12 14q-8 5 -18 5q-12 0 -24 -10q-10 -9 -10 -32q0 -16 10 -28q9 -11 24 -11q16 0 25 11zM4482 719l374 -536h-749z" />
    <glyph glyph-name="four" unicode="4" horiz-adv-x="5036" 
d="M2215 1185q41 -17 69 -62q28 -46 28 -133q0 -65 -14 -106q-15 -43 -41 -69q-19 -19 -49 -29t-86 -10h-117v420h116q63 0 94 -11zM2664 559q18 -13 24 -27q8 -19 8 -42q0 -39 -19 -59t-48 -20t-48 20t-19 56q0 43 20 63q19 19 48 19q20 0 34 -10zM3980 1181q43 -26 66 -78
q23 -51 23 -117q0 -105 -53 -164q-52 -58 -135 -58q-81 0 -135 57q-53 56 -53 157q0 124 56 177t133 53q54 0 98 -27zM1495 1491h3324l-913 -1308h-2411q148 119 230.5 291t82.5 363q0 190 -82 362t-231 292zM2351 565v23h-132v-196h26v89h92v23h-92v61h106zM2372 878
q15 48 15 111q0 71 -22 131q-20 56 -65 94q-33 29 -80 39q-37 8 -98 8h-190v-550h199q45 0 88 10q39 9 66 27t50 50q21 30 37 80zM2711 436q12 24 12 54q0 31 -11 52q-11 22 -34 36q-20 13 -49 13q-41 0 -68 -27q-26 -28 -26 -77q0 -23 12 -49q13 -24 33 -36q23 -14 49 -14
q25 0 48 12q22 12 34 36zM2489 711h410v65h-338v187h305v65h-305v168h325v65h-397v-550zM3069 392v196h-25v-154l-103 154h-26v-196h25v154l103 -154h26zM3412 565v23h-156v-23h65v-173h26v173h65zM3523 711v550h-98l-132 -382q-23 -69 -29 -89q-2 6 -27 82l-130 389h-109
v-550h70v468l159 -468h65l160 461v-461h71zM4015 736q63 35 95 100q34 65 34 150q0 81 -32 147q-33 67 -93 102q-61 36 -138 36q-117 0 -190 -77t-73 -215q0 -74 31 -137q32 -66 93 -103t139 -37q73 0 134 34zM867 1677q171 0 326.5 -66.5t268 -179t179 -268t66.5 -326.5
t-66.5 -326.5t-179 -268.5t-268 -179.5t-326.5 -66.5t-326.5 66.5t-268 179.5t-179 268.5t-66.5 326.5t66.5 326.5t179 268t268 179t326.5 66.5zM867 99q200 0 370 99t269 269t99 370q0 150 -58.5 286.5t-157.5 235t-235.5 157t-286.5 58.5t-286.5 -58.5t-235.5 -157
t-157.5 -235t-58.5 -286.5q0 -200 99 -370t269 -269t370 -99zM1125 1263q-36 -81 -168.5 -325t-184.5 -388q-37 -103 -46 -190q-2 -21 3 -57.5t7 -56.5t-8 -45q-15 -25 -38.5 -21.5t-42.5 16.5t-36 33q-18 26 -19.5 69.5t13.5 100.5t36.5 118t56.5 135t67 137.5t74 139.5
t71.5 127.5t66.5 115.5t52 90q22 40 35 70t16.5 50.5t-4 27.5t-25.5 1t-50 -29t-75 -61q-172 -160 -443 -511q-71 -95 -189 -247q-22 -30 -43 -30q-29 0 -34 15v11q20 67 55.5 156.5t75.5 175t78.5 158t69.5 113t45 31.5v-4q-22 -51 -74 -165q-42 -91 -21.5 -112.5
t95.5 66.5q24 28 99.5 121t134.5 160t111 118q86 81 150.5 106.5t93 0.5t28.5 -84t-33 -137zM980 878q0 16 11.5 27t27.5 11t27 -11t11 -27t-11 -27.5t-27 -11.5t-27.5 11.5t-11.5 27.5zM1344 698q21 21 42 2q9 -8 10 -19.5t-7 -23.5l-1 -1l-20 -20q-21 -20 -40.5 -37.5
t-38.5 -32.5q-34 -27 -63 -39q-15 -6 -29 -6q-15 0 -26 11q-10 10 -12 33q-1 19 3 40q0 3 2 8t3 7q-43 -66 -74 -87q-18 -14 -46 -12q-15 0 -25 6q-13 8 -16 19v3v5v3q-73 -39 -128 -15l-1 1q-16 11 -20 24q-4 15 -3 32q3 32 21 75q27 67 62 115q20 31 48 20q12 -4 15 -19
q3 -12 -7 -27q-43 -66 -59 -115q-6 -21 -6 -30l1 -4q25 -4 66 24q42 29 63 72q88 238 223 572q15 41 42 44q11 2 20 -7q8 -8 11 -21v-2v-12v-2q-2 -8 -19 -55q-17 -45 -48 -126q-94 -238 -166 -418q16 20 26 30q29 29 50 37q32 12 54 -8q9 -9 11 -27q1 -10 -3 -34
q-6 -31 -21 -71v-1v-2.5t-1 -2.5q4 2 5 3q41 33 102 91zM850 434q7 -4 12 -10q5 -7 5 -14t-5 -15q-4 -6 -13 -11q-8 -4 -19 -4q-15 0 -23 4q-10 5 -14 12q-5 8 -5 18l12 1q2 -10 4 -13q3 -4 10 -7q8 -3 16 -3q5 0 13 2q5 1 8 6q3 4 3 9q0 6 -2 8q-3 3 -9 6q-9 3 -18 5
q-13 3 -19 6q-8 3 -11 9q-4 8 -4 13q0 7 5 14q6 7 12 10q8 3 18 3q8 0 20 -4q9 -3 13 -10q5 -8 5 -16l-13 -1q-2 10 -7 14q-7 5 -17 5q-12 0 -17 -4q-6 -5 -6 -11q0 -5 4 -8q5 -5 20 -8q16 -3 22 -6zM893 469v12h78v-12h-32v-87h-14v87h-32zM1066 424v57h13v-57
q0 -15 -3 -24q-2 -7 -13 -14q-9 -6 -23 -6q-13 0 -23 5q-8 4 -13 14q-3 6 -3 25v57h13v-57q0 -15 2 -19q4 -8 8 -10q6 -3 15 -3q14 0 20 6q7 7 7 26zM1183 473q6 -5 11 -17q4 -9 4 -24q0 -14 -2 -20q-3 -10 -7 -15q-5 -6 -9 -9q-6 -4 -12 -5q-5 -1 -16 -1h-36v99h34
q14 0 18 -1q7 -1 15 -7zM1182 413q3 8 3 19q0 14 -5 24q-4 7 -13 11q-8 2 -17 2h-21v-76h21q8 0 16 2q5 1 9 5q3 3 7 13zM1247 382h-13v99h13v-99zM1354 476q11 -6 17 -18t6 -27t-6 -27t-17 -18q-10 -6 -25 -6t-25 7q-12 9 -17 18q-5 10 -5 25q0 26 13 39q14 14 34 14
q13 0 25 -7zM1354 402q9 10 9 29q0 14 -4 22q-5 10 -12 14q-8 5 -18 5q-12 0 -24 -10q-10 -9 -10 -32q0 -16 10 -28q9 -11 24 -11q16 0 25 11zM4445 719l374 -536h-748z" />
    <glyph glyph-name="five" unicode="5" horiz-adv-x="5036" 
d="M2291 1185q41 -17 69 -62q28 -46 28 -133q0 -62 -15 -106t-40 -69q-19 -19 -49 -29t-86 -10h-117v420h115q64 0 95 -11zM2740 559q18 -13 24 -27q8 -19 8 -42q0 -39 -19 -59t-48 -20t-48 20t-19 56q0 43 20 63q19 19 47 19q21 0 35 -10zM4056 1181q43 -26 66 -78
q23 -51 23 -117q0 -105 -53 -164q-52 -58 -135 -58q-81 0 -135 57q-53 56 -53 157q0 124 56 177t133 53q54 0 98 -27zM1571 1491h3323l-912 -1308h-2411q148 119 230 291t82 363t-82 362.5t-230 291.5zM2427 565v23h-132v-196h26v89h92v23h-92v61h106zM2448 878
q15 48 15 111q0 71 -22 131q-20 56 -65 94q-33 28 -81 39q-37 8 -98 8h-189v-550h199q45 0 88 10q39 9 66 27t50 50q21 30 37 80zM2787 436q12 24 12 54t-12 52q-12 23 -33 36q-20 13 -49 13q-41 0 -68 -27q-26 -28 -26 -77q0 -25 11 -49q13 -24 33 -36q23 -14 50 -14
q25 0 48 12q22 12 34 36zM2565 711h410v65h-338v187h305v65h-305v168h325v65h-397v-550zM3145 392v196h-25v-154l-103 154h-27v-196h25v154l103 -154h27zM3423 565h65v23h-156v-23h65v-173h26v173zM3598 711v550h-98l-131 -382q-5 -14 -16 -46t-14 -43q-7 24 -26 82
l-130 389h-110v-550h71v468l159 -468h65l160 461v-461h70zM4090 736q64 36 96 100q34 65 34 150q0 81 -32 147t-94 102q-61 36 -137 36q-117 0 -190 -77t-73 -215q0 -74 31 -137q32 -66 93 -103t139 -37q72 0 133 34zM943 1677q171 0 326.5 -66.5t268 -179t179 -268
t66.5 -326.5t-66.5 -326.5t-179 -268.5t-268 -179.5t-326.5 -66.5t-326.5 66.5t-268.5 179.5t-179.5 268.5t-66.5 326.5t66.5 326.5t179.5 268t268.5 179t326.5 66.5zM943 99q200 0 370 99t269 269t99 370q0 150 -58.5 286.5t-157.5 235t-235.5 157t-286.5 58.5
t-286.5 -58.5t-235.5 -157t-157.5 -235t-58.5 -286.5q0 -200 99 -370t269 -269t370 -99zM1201 1263q-36 -81 -168.5 -325t-184.5 -388q-37 -103 -46 -190q-2 -21 3.5 -58t7 -56.5t-8.5 -44.5q-15 -25 -38.5 -21.5t-42.5 16.5t-36 33q-18 26 -19.5 69.5t13.5 100.5
t36.5 117.5t56.5 135t66.5 137.5t74 140t71.5 128t66.5 115.5t51.5 89.5q33 60 45.5 98t3 50t-48 -10t-102.5 -79q-175 -163 -444 -511q-94 -126 -188 -247q-22 -30 -43 -30q-31 0 -35 15v11q20 67 55.5 156.5t75.5 175t78.5 158t69.5 113t45 31.5v-4q-35 -82 -73 -165
q-42 -91 -21.5 -112.5t95.5 66.5q24 28 99.5 121t134.5 160t111 118q86 81 150.5 106.5t93 0.5t28.5 -84t-33 -137zM1056 878q0 16 11 27t27 11t27.5 -11t11.5 -27t-11.5 -27.5t-27.5 -11.5t-27 11.5t-11 27.5zM1419 698q9 9 22 9.5t21 -7.5q21 -19 2 -43l-1 -1l-20.5 -20.5
t-38.5 -36.5t-39 -33q-34 -27 -63 -39q-15 -6 -29 -6q-15 0 -26 11q-10 10 -12 33q-1 19 3 40q0 3 1.5 8t2.5 7q-44 -67 -73 -87q-18 -14 -47 -12q-14 0 -24 6q-13 8 -16 19v3v5v3q-73 -39 -129 -15l-1 1q-15 10 -19 24q-4 15 -3 32q3 32 21 75q27 67 62 115q20 31 47 20
q13 -5 16 -19q3 -12 -7 -27q-45 -69 -60 -115q-5 -18 -5 -30l1 -4q25 -4 65 24q44 30 64 72q88 238 223 572q15 41 41 44q11 2 20 -7q8 -8 11 -21l1 -1v-1v-12v-2q-2 -8 -19 -55q-17 -45 -48 -126q-94 -238 -166 -418q16 20 26 30q29 29 50 37q32 12 54 -8q9 -9 11 -27
q1 -10 -3 -34t-21 -71v-1v-2.5t-1 -2.5q4 2 5 3q35 28 101 91zM926 434q7 -4 12 -10q4 -5 4 -14q0 -8 -4 -15q-4 -6 -13 -11q-8 -4 -19 -4q-15 0 -23 4q-10 5 -14 12q-6 10 -6 18l13 1q2 -10 4 -13q3 -4 10 -7q8 -3 15 -3q6 0 14 2q5 1 8 6q3 4 3 9t-3 8t-9 6q-11 4 -17 5
q-14 3 -20 6q-7 3 -10 9q-4 8 -4 13q0 9 4 14q5 7 13 10t18 3q8 0 20 -4q9 -3 13 -10q5 -8 5 -16l-13 -1q-2 10 -7 14q-7 5 -17 5q-13 0 -18 -4t-5 -11q0 -5 4 -8q5 -5 20 -8q16 -3 22 -6zM968 469v12h79v-12h-33v-87h-13v87h-33zM1141 424v57h14v-57q0 -12 -4 -24
q-3 -8 -12 -14t-23 -6q-13 0 -23 5q-8 4 -13 14q-4 8 -4 25v57h13v-57q0 -13 3 -19q4 -8 8 -10q6 -3 14 -3q15 0 21 6t6 26zM1258 473q7 -6 12 -17q4 -9 4 -24q0 -11 -3 -20q-4 -13 -6 -15q-5 -6 -9 -9q-6 -4 -12 -5q-5 -1 -16 -1h-36v99h34q14 0 18 -1q6 -1 14 -7z
M1258 413q3 8 3 19q0 14 -5 24q-4 7 -13 11q-8 2 -17 2h-21v-76h21q8 0 16 2q5 1 9 5q3 3 7 13zM1323 382h-13v99h13v-99zM1430 476q11 -6 17 -18t6 -27t-6 -27q-5 -11 -18 -18q-11 -6 -24 -6q-15 0 -25 7q-12 9 -17 18q-5 10 -5 25q0 26 13 39q14 14 34 14q13 0 25 -7z
M1430 402q9 10 9 29q0 14 -4 22q-5 10 -12 14q-8 5 -18 5q-12 0 -24 -10q-10 -9 -10 -32q0 -16 10 -28q9 -11 24 -11q16 0 25 11zM4520 719l375 -536h-749z" />
    <glyph glyph-name="six" unicode="6" horiz-adv-x="5036" 
d="M2291 1185q41 -17 69 -62q28 -46 28 -133q0 -62 -15 -106t-40 -69q-19 -19 -49 -29t-86 -10h-117v420h115q64 0 95 -11zM2740 559q18 -13 24 -27q8 -19 8 -42q0 -39 -19 -59t-48 -20t-48 20t-19 56q0 43 20 63q19 19 47 19q21 0 35 -10zM4056 1181q43 -26 66 -78
q23 -51 23 -117q0 -105 -53 -164q-52 -58 -136 -58q-80 0 -134 57q-53 56 -53 157q0 125 55 177q56 53 134 53q54 0 98 -27zM1571 1491h3324l-913 -1308h-2411q148 119 230 291t82 363t-82 362.5t-230 291.5zM2427 565v23h-132v-196h26v89h92v23h-92v61h106zM2448 878
q15 48 15 111q0 71 -22 131q-20 56 -65 94q-33 28 -81 39q-37 8 -98 8h-189v-550h199q45 0 88 10q39 9 66 27t50 50q21 30 37 80zM2787 436q12 24 12 54t-12 52q-12 23 -33 36q-20 13 -49 13q-41 0 -68 -27q-26 -28 -26 -77q0 -25 11 -49q12 -23 34 -36q23 -14 49 -14
q25 0 48 12q22 12 34 36zM2565 711h410v65h-338v187h305v65h-305v168h325v65h-397v-550zM3145 392v196h-25v-154l-103 154h-27v-196h25v154l103 -154h27zM3488 565v23h-156v-23h65v-173h26v173h65zM3598 711v550h-98l-131 -382q-5 -14 -16 -46t-14 -43q-7 24 -26 82
l-130 389h-110v-550h71v468l159 -468h65l160 461v-461h70zM4090 736q64 36 96 100q34 65 34 150q0 81 -32 147t-94 102q-61 36 -137 36q-117 0 -190 -77t-73 -215q0 -74 31 -137q32 -66 93 -103t139 -37q72 0 133 34zM943 1677q171 0 326.5 -66.5t268 -179t179 -268
t66.5 -326.5t-66.5 -326.5t-179 -268.5t-268 -179.5t-326.5 -66.5t-326.5 66.5t-268.5 179.5t-179.5 268.5t-66.5 326.5t66.5 326.5t179.5 268t268.5 179t326.5 66.5zM943 99q200 0 370 99t269 269t99 370q0 150 -58.5 286.5t-157.5 235t-235.5 157t-286.5 58.5
t-286.5 -58.5t-235.5 -157t-157.5 -235t-58.5 -286.5q0 -200 99 -370t269 -269t370 -99zM1201 1263q-36 -81 -168.5 -325t-184.5 -388q-37 -103 -46 -190q-2 -21 3 -57.5t7 -56.5t-8 -45q-15 -25 -38.5 -21.5t-42.5 16.5t-36 33q-18 26 -19.5 69.5t13.5 100.5t36.5 117.5
t56.5 135t66.5 137.5t74 140t71.5 128t66.5 115.5t51.5 89.5q33 60 45.5 98t3 50t-48 -10t-102.5 -79q-175 -163 -444 -511q-94 -126 -188 -247q-22 -30 -43 -30q-31 0 -35 15v11q20 67 55.5 156.5t75.5 175t78.5 158t69.5 113t45 31.5v-4q-35 -82 -73 -165
q-42 -91 -21.5 -112.5t95.5 66.5q24 28 99.5 121t134.5 160t111 118q86 81 150.5 106.5t93 0.5t28.5 -84t-33 -137zM1056 878q0 16 11 27t27 11t27.5 -11t11.5 -27t-11.5 -27.5t-27.5 -11.5t-27 11.5t-11 27.5zM1420 698q21 21 42 2t2 -43l-1 -1l-20.5 -20.5t-38.5 -36.5
t-39 -33q-34 -27 -63 -39q-15 -6 -29 -6q-15 0 -26 11q-10 10 -12 33q-1 19 3 40q0 3 1.5 8t2.5 7q-44 -67 -73 -87q-18 -14 -47 -12q-14 0 -24 6q-13 8 -16 19v3v5v3q-73 -39 -128 -15l-1 1q-16 11 -20 24q-4 15 -3 32q3 32 21 75q27 67 62 115q20 31 47 20q13 -5 16 -19
q3 -12 -7 -27q-45 -69 -60 -115q-5 -18 -5 -30l1 -4q25 -4 66 24q42 29 63 72q88 238 223 572q15 41 42 44q11 2 19 -7q8 -8 11 -21l1 -1v-1v-12v-2q-2 -8 -19 -55q-17 -45 -48 -126q-94 -238 -166 -418q16 20 26 30q29 29 50 37q32 12 54 -8q9 -9 11 -27q1 -10 -3 -34
q-6 -31 -21 -71v-1v-2.5t-1 -2.5q4 2 5 3q41 33 102 91zM926 434q7 -4 12 -10q4 -5 4 -14q0 -8 -4 -15q-4 -6 -13 -11q-8 -4 -19 -4q-15 0 -23 4q-10 5 -14 12q-6 10 -6 18l13 1q2 -10 4 -13q3 -4 10 -7q8 -3 15 -3q6 0 14 2q5 1 8 6q3 4 3 9t-3 8t-9 6q-11 4 -17 5
q-14 3 -20 6q-7 3 -10 9q-4 8 -4 13q0 9 4 14q5 7 13 10t18 3q8 0 20 -4q9 -3 13 -10q5 -8 5 -16l-13 -1q-2 10 -7 14q-7 5 -17 5q-13 0 -18 -4t-5 -11q0 -5 4 -8q5 -5 20 -8q16 -3 22 -6zM968 469v12h79v-12h-33v-87h-13v87h-33zM1141 424v57h14v-57q0 -12 -4 -24
q-3 -8 -12 -14t-23 -6q-13 0 -23 5q-8 4 -13 14q-4 8 -4 25v57h13v-57q0 -13 3 -19q4 -8 8 -10q6 -3 14 -3q15 0 21 6t6 26zM1258 473q7 -6 12 -17q4 -9 4 -24q0 -11 -3 -20q-4 -13 -6 -15q-5 -6 -9 -9q-6 -4 -12 -5q-5 -1 -16 -1h-36v99h34q14 0 18 -1q6 -1 14 -7z
M1258 413q3 8 3 19q0 14 -5 24q-4 7 -13 11q-8 2 -17 2h-21v-76h21q8 0 16 2q5 1 9 5q3 3 7 13zM1323 382h-13v99h13v-99zM1430 476q11 -6 17 -18t6 -27t-6 -27q-5 -11 -18 -18q-11 -6 -24 -6q-15 0 -25 7q-12 9 -17 18q-5 10 -5 25q0 26 13 39q14 14 34 14q13 0 25 -7z
M1430 402q9 10 9 29q0 14 -4 22q-5 10 -12 14q-8 5 -18 5q-12 0 -24 -10q-10 -9 -10 -32q0 -16 10 -28q9 -11 24 -11q16 0 25 11zM4520 719l375 -536h-749z" />
    <glyph glyph-name="seven" unicode="7" horiz-adv-x="4960" 
d="M2178 1185q41 -17 69 -62q28 -46 28 -133q0 -65 -14 -106q-15 -43 -41 -69q-19 -19 -49 -29t-85 -10h-118v420h116q63 0 94 -11zM2628 559q15 -10 23 -27q9 -22 9 -42q0 -39 -19 -59t-49 -20q-29 0 -48 20t-19 56q0 43 20 63q19 19 48 19q21 0 35 -10zM3943 1181
q43 -26 66 -78q23 -51 23 -117q0 -105 -53 -164q-52 -58 -135 -58q-80 0 -134 57t-54 157q0 124 56 177t133 53q54 0 98 -27zM1458 1491h3324l-913 -1308h-2411q148 119 230.5 291t82.5 363q0 190 -82 362t-231 292zM2208 565h106v23h-132v-196h26v89h92v23h-92v61z
M2336 878q14 45 14 111q0 74 -21 131q-20 56 -65 94q-33 28 -81 39q-37 8 -98 8h-190v-550h199q45 0 88 10q39 9 66 27t50 50t38 80zM2674 436q12 24 12 54q0 31 -11 52q-11 22 -34 36q-20 13 -49 13q-40 0 -67 -27q-27 -29 -27 -77q0 -23 12 -49q13 -24 33 -36
q23 -14 49 -14t48 12t34 36zM2452 711h410v65h-337v187h304v65h-304v168h325v65h-398v-550zM3032 392v196h-25v-154l-103 154h-26v-196h25v154l103 -154h26zM3310 565h65v23h-155v-23h64v-173h26v173zM3486 711v550h-98l-132 -382q-23 -69 -29 -89q-7 24 -26 82l-131 389
h-109v-550h70v468l159 -468h66l160 461v-461h70zM3978 736q63 35 95 100q34 65 34 150q0 81 -32 147q-33 67 -93 102q-62 36 -138 36q-116 0 -189 -77q-74 -79 -74 -215q0 -71 32 -137q33 -67 92 -103q61 -37 139 -37q73 0 134 34zM830 1677q171 0 326.5 -66.5t268.5 -179
t179.5 -268t66.5 -326.5t-66.5 -326.5t-179.5 -268.5t-268.5 -179.5t-326.5 -66.5t-326.5 66.5t-268 179.5t-179 268.5t-66.5 326.5t66.5 326.5t179 268t268 179t326.5 66.5zM830 99q200 0 370 99t269 269t99 370q0 150 -58.5 286.5t-157.5 235t-235.5 157t-286.5 58.5
t-286.5 -58.5t-235.5 -157t-157.5 -235t-58.5 -286.5q0 -200 99 -370t269 -269t370 -99zM1088 1263q-36 -81 -168.5 -325t-184.5 -388q-37 -103 -46 -190q-2 -21 3.5 -57.5t7.5 -57t-8 -44.5q-15 -25 -38.5 -21.5t-43 16.5t-36.5 33q-18 26 -19.5 69.5t13.5 100.5t36.5 118
t56.5 135t67 137.5t74 139.5t71.5 127.5t66.5 115.5t52 90q22 40 35 70t16.5 50.5t-4 27.5t-25.5 1t-50 -29t-75 -61q-172 -160 -443 -511q-71 -95 -189 -247q-23 -30 -43 -30q-30 0 -34 15v11q20 67 55.5 156.5t75.5 175t78.5 158t69.5 113t45 31.5v-4q-22 -51 -74 -165
q-42 -91 -21.5 -112.5t95.5 66.5q24 28 99.5 121t134.5 160t111 118q86 81 150.5 106.5t93 0.5t28.5 -84t-33 -137zM943 878q0 16 11.5 27t27.5 11t27 -11t11 -27t-11 -27.5t-27 -11.5t-27.5 11.5t-11.5 27.5zM1307 698q21 21 42 2q9 -8 10 -19.5t-7 -23.5l-1 -1l-21 -20
q-20 -20 -39.5 -37.5t-38.5 -32.5q-35 -28 -62 -39q-15 -6 -30 -6q-14 0 -25 11t-13 33q-1 16 4 40q0 3 2 8t2 7q-44 -67 -73 -87q-18 -14 -47 -12q-13 0 -24 6q-15 8 -17 19v3v5v3q-73 -39 -128 -15l-1 1q-15 10 -19 24q-5 17 -4 32q3 32 21 75q27 67 62 115q20 31 48 20
q12 -4 15 -19q3 -14 -6 -27q-45 -69 -60 -115q-6 -21 -6 -30l1 -4h1q25 -4 65 24q42 29 63 72q77 208 224 572q15 41 41 44q11 2 20 -7q8 -8 11 -21v-2v-12v-2q-2 -8 -19 -55q-16 -45 -48 -126q-94 -238 -166 -418q16 20 26 30q28 28 51 37q31 12 53 -8q9 -9 11 -27
q1 -14 -2 -34q-6 -31 -21 -71v-1q-1 -3 -2 -5q4 2 5 3q41 33 102 91zM813 434q9 -4 13 -10q4 -5 4 -14q0 -7 -5 -15q-4 -6 -13 -11q-8 -4 -19 -4q-14 0 -22 4q-11 6 -15 12q-5 8 -5 18l12 1q2 -10 4 -13q3 -4 10 -7t16 -3q5 0 13 2q6 2 9 6q2 3 2 9t-2 8q-3 3 -9 6
q-9 3 -18 5q-13 3 -19 6q-8 3 -11 9t-3 13q0 9 4 14q6 7 12 10q7 3 19 3q7 0 19 -4q9 -3 13 -10q5 -8 5 -16l-13 -1q-2 11 -6 14q-7 5 -18 5q-12 0 -17 -4q-6 -5 -6 -11q0 -5 4 -8q5 -5 20 -8q16 -3 22 -6zM856 469v12h79v-12h-33v-87h-13v87h-33zM1029 424v57h13v-57
q0 -15 -3 -24q-3 -8 -12 -14t-24 -6q-13 0 -23 5q-7 3 -12 14q-4 8 -4 25v57h13v-57q0 -15 2 -19q4 -7 9 -10q6 -3 14 -3q15 0 21 6t6 26zM1146 473q7 -6 12 -17q3 -7 3 -24q0 -14 -2 -20q-3 -10 -7 -15q-4 -6 -9 -9q-6 -4 -12 -5q-5 -1 -16 -1h-36v99h34q14 0 18 -1
q7 -1 15 -7zM1145 413q3 8 3 19q0 14 -5 24q-4 7 -13 11q-8 2 -17 2h-21v-76h22q7 0 15 2q5 1 9 5q3 3 7 13zM1210 382h-13v99h13v-99zM1317 476q11 -6 17 -18t6 -27t-6 -27t-17 -18t-24 -6q-16 0 -26 7q-11 8 -16 18q-6 12 -6 25q0 26 13 39q14 14 35 14q12 0 24 -7z
M1317 402q9 10 9 29q0 14 -4 22q-5 10 -12 14q-8 5 -17 5q-12 0 -24 -10q-11 -9 -11 -32q0 -16 10 -28q9 -11 24 -11q16 0 25 11zM4408 719l374 -536h-748z" />
    <glyph glyph-name="eight" unicode="8" horiz-adv-x="5072" 
d="M2291 1185q41 -17 69 -62q28 -46 28 -133q0 -62 -15 -106t-40 -69q-19 -19 -49 -29t-86 -10h-117v420h115q64 0 95 -11zM2740 559q18 -13 24 -27q8 -19 8 -42q0 -39 -19 -59t-48 -20t-48 20t-19 56q0 43 20 63q19 19 47 19q21 0 35 -10zM4056 1181q43 -26 66 -78
q23 -51 23 -117q0 -105 -53 -164q-52 -58 -136 -58q-80 0 -134 57q-53 56 -53 157q0 125 55 177q56 53 133 53q55 0 99 -27zM1571 1491h3324l-913 -1308h-2411q148 119 230 291t82 363t-82 362.5t-230 291.5zM2427 565v23h-132v-196h26v89h92v23h-92v61h106zM2448 878
q15 48 15 111q0 71 -22 131q-20 56 -65 94q-33 28 -81 39q-37 8 -97 8h-190v-550h199q45 0 88 10q39 9 66 27t50 50q21 30 37 80zM2787 436q12 24 12 54t-12 52q-12 23 -33 36q-20 13 -49 13q-41 0 -68 -27q-26 -28 -26 -77q0 -25 11 -49q13 -24 33 -36q23 -14 50 -14
q25 0 48 12q22 12 34 36zM2565 711h410v65h-338v187h305v65h-305v168h325v65h-397v-550zM3145 392v196h-25v-154l-103 154h-27v-196h25v154l103 -154h27zM3488 565v23h-156v-23h65v-173h26v173h65zM3598 711v550h-98l-131 -382q-5 -14 -16 -46t-14 -43q-7 24 -26 82
l-130 389h-110v-550h71v468l159 -468h65l160 461v-461h70zM4090 736q64 36 96 100q34 65 34 150q0 81 -32 147t-94 102q-61 36 -137 36q-117 0 -190 -77t-73 -215q0 -74 31 -137q32 -66 93 -103t139 -37q72 0 133 34zM943 1677q171 0 326.5 -66.5t268 -179t179 -268
t66.5 -326.5t-66.5 -326.5t-179 -268.5t-268 -179.5t-326.5 -66.5t-326.5 66.5t-268.5 179.5t-179.5 268.5t-66.5 326.5t66.5 326.5t179.5 268t268.5 179t326.5 66.5zM943 99q200 0 370 99t269 269t99 370q0 150 -58.5 286.5t-157.5 235t-235.5 157t-286.5 58.5
t-286.5 -58.5t-235.5 -157t-157.5 -235t-58.5 -286.5q0 -200 99 -370t269 -269t370 -99zM1201 1263q-36 -81 -168.5 -325t-184.5 -388q-37 -103 -46 -190q-2 -21 3 -57.5t7 -56.5t-8 -45q-15 -25 -38.5 -21.5t-42.5 16.5t-36 33q-18 26 -19.5 69.5t13.5 100.5t36.5 117.5
t56.5 135t66.5 137.5t74 140t71.5 128t66.5 115.5t51.5 89.5q33 60 45.5 98t3 50t-48 -10t-102.5 -79q-175 -163 -444 -511q-94 -126 -188 -247q-22 -30 -43 -30q-31 0 -35 15v11q20 67 55.5 156.5t75.5 175t78.5 158t69.5 113t45 31.5v-4q-35 -82 -73 -165
q-42 -91 -21.5 -112.5t95.5 66.5q24 28 99.5 121t134.5 160t111 118q86 81 150.5 106.5t93 0.5t28.5 -84t-33 -137zM1056 878q0 16 11 27t27 11t27.5 -11t11.5 -27t-11.5 -27.5t-27.5 -11.5t-27 11.5t-11 27.5zM1420 698q21 21 42 2q9 -8 10 -19.5t-7 -23.5l-1 -1l-20 -20
q-21 -20 -40.5 -37.5t-38.5 -32.5q-34 -27 -63 -39q-15 -6 -29 -6q-15 0 -26 11q-10 10 -12 33q-1 19 3 40q0 3 1.5 8t2.5 7q-44 -67 -73 -87q-18 -14 -47 -12q-14 0 -24 6q-13 8 -16 19v3v5v3q-73 -39 -128 -15l-1 1q-16 11 -20 24q-4 15 -3 32q3 32 21 75q27 67 62 115
q20 31 47 20q13 -5 16 -19q3 -12 -7 -27q-45 -69 -60 -115q-5 -18 -5 -30l1 -4q25 -4 66 24q42 29 63 72q88 238 223 572q15 41 42 44q11 2 19 -7q9 -9 12 -21v-2v-12v-2q-2 -8 -19 -55q-17 -45 -48 -126q-94 -238 -166 -418q16 20 26 30q29 29 50 37q32 12 54 -8
q9 -9 11 -27q1 -10 -3 -34q-6 -31 -21 -71v-1v-2.5t-1 -2.5q4 2 5 3q41 33 102 91zM926 434q7 -4 12 -10q4 -5 4 -14q0 -8 -4 -15q-4 -6 -13 -11q-8 -4 -19 -4q-15 0 -23 4q-10 5 -14 12q-6 10 -6 18l13 1q2 -10 4 -13q3 -4 10 -7q8 -3 15 -3q6 0 14 2q5 1 8 6q3 4 3 9t-3 8
t-9 6q-11 4 -17 5q-14 3 -20 6q-7 3 -10 9q-4 8 -4 13q0 9 4 14q5 7 13 10t18 3q8 0 20 -4q9 -3 13 -10q5 -8 5 -16l-13 -1q-2 10 -7 14q-7 5 -17 5q-13 0 -18 -4t-5 -11q0 -5 4 -8q5 -5 20 -8q16 -3 22 -6zM968 469v12h79v-12h-33v-87h-13v87h-33zM1141 424h1v57h13v-57
q0 -12 -4 -24q-3 -8 -12 -14t-23 -6q-13 0 -23 5q-8 4 -13 14q-4 8 -4 25v57h14v-57q0 -15 2 -19q4 -8 8 -10q6 -3 15 -3q14 0 20 6t6 26zM1258 473q7 -6 12 -17q4 -9 4 -24q0 -11 -3 -20q-4 -13 -6 -15q-5 -6 -9 -9q-6 -4 -12 -5q-5 -1 -16 -1h-36v99h34q14 0 18 -1
q6 -1 14 -7zM1258 413q3 8 3 19q0 12 -6 24q-4 8 -12 11q-8 2 -17 2h-21v-76h21q8 0 16 2q5 1 9 5q3 3 7 13zM1323 382h-13v99h13v-99zM1430 476q11 -6 17 -18t6 -27t-6 -27q-5 -11 -18 -18q-11 -6 -24 -6q-15 0 -25 7q-12 9 -17 18q-5 10 -5 25q0 26 13 39q14 14 34 14
q13 0 25 -7zM1429 402q10 12 10 29q0 14 -4 22q-5 10 -12 14q-8 5 -18 5q-12 0 -24 -10q-10 -9 -10 -32q0 -16 10 -28q9 -11 24 -11t24 11zM4520 719l374 -536h-748z" />
    <glyph glyph-name="nine" unicode="9" 
d="M2291 1185q41 -17 69 -62q28 -46 28 -133q0 -62 -15 -106t-40 -69q-19 -19 -49 -29t-86 -10h-117v420h115q64 0 95 -11zM2740 559q18 -13 24 -27q8 -19 8 -42q0 -39 -19 -59t-48 -20t-48 20t-19 56q0 43 20 63q19 19 47 19q21 0 35 -10zM4056 1181q43 -26 66 -78
q23 -51 23 -117q0 -105 -53 -164q-52 -58 -136 -58q-80 0 -134 57q-53 56 -53 157q0 125 55 177q56 53 134 53q54 0 98 -27zM1571 1491h3324l-913 -1308h-2411q148 119 230 291t82 363t-82 362.5t-230 291.5zM2427 565v23h-132v-196h26v89h92v23h-92v61h106zM2448 878
q15 48 15 111q0 71 -22 131q-20 56 -65 94q-33 28 -81 39q-37 8 -98 8h-189v-550h199q45 0 88 10q39 9 66 27t50 50q21 30 37 80zM2787 436q12 24 12 54t-12 52q-12 23 -33 36q-20 13 -49 13q-41 0 -68 -27q-26 -28 -26 -77q0 -25 11 -49q12 -23 34 -36q23 -14 49 -14
q25 0 48 12q22 12 34 36zM2565 711h410v65h-338v187h305v65h-305v168h325v65h-397v-550zM3145 392v196h-25v-154l-103 154h-27v-196h25v154l103 -154h27zM3488 565v23h-156v-23h65v-173h26v173h65zM3598 711v550h-98l-131 -382q-5 -14 -16 -46t-14 -43q-7 24 -26 82
l-130 389h-110v-550h71v468l159 -468h65l160 461v-461h70zM4090 736q64 36 96 100q34 65 34 150q0 81 -32 147t-94 102q-61 36 -137 36q-117 0 -190 -77t-73 -215q0 -74 31 -137q32 -66 93 -103t139 -37q72 0 133 34zM943 1677q171 0 326.5 -66.5t268 -179t179 -268
t66.5 -326.5t-66.5 -326.5t-179 -268.5t-268 -179.5t-326.5 -66.5t-326.5 66.5t-268.5 179.5t-179.5 268.5t-66.5 326.5t66.5 326.5t179.5 268t268.5 179t326.5 66.5zM943 99q200 0 370 99t269 269t99 370q0 150 -58.5 286.5t-157.5 235t-235.5 157t-286.5 58.5
t-286.5 -58.5t-235.5 -157t-157.5 -235t-58.5 -286.5q0 -200 99 -370t269 -269t370 -99zM1201 1263q-36 -81 -168.5 -325t-184.5 -388q-37 -103 -46 -190q-2 -21 3 -57.5t7 -56.5t-8 -45q-15 -25 -38.5 -21.5t-42.5 16.5t-36 33q-18 26 -19.5 69.5t13.5 100.5t36.5 117.5
t56.5 135t66.5 137.5t74 140t71.5 128t66.5 115.5t51.5 89.5q33 60 45.5 98t3 50t-48 -10t-102.5 -79q-175 -163 -444 -511q-94 -126 -188 -247q-22 -30 -43 -30q-31 0 -35 15v11q20 67 55.5 156.5t75.5 175t78.5 158t69.5 113t45 31.5v-4q-35 -82 -73 -165
q-42 -91 -21.5 -112.5t95.5 66.5q24 28 99.5 121t134.5 160t111 118q86 81 150.5 106.5t93 0.5t28.5 -84t-33 -137zM1056 878q0 16 11 27t27 11t27.5 -11t11.5 -27t-11.5 -27.5t-27.5 -11.5t-27 11.5t-11 27.5zM1420 698q21 21 42 2q9 -8 10 -19.5t-7 -23.5l-1 -1l-20 -20
q-21 -20 -40.5 -37.5t-38.5 -32.5q-34 -27 -63 -39q-15 -6 -29 -6q-15 0 -26 11q-10 10 -12 33q-1 19 3 40q0 3 2 8t3 7q-43 -66 -74 -87q-18 -14 -47 -12q-14 0 -24 6q-13 8 -16 19v3v5v3q-73 -39 -128 -15l-1 1q-16 11 -20 24q-4 15 -3 32q3 32 21 75q27 67 62 115
q20 31 47 20q13 -5 16 -19q3 -12 -7 -27q-45 -69 -60 -115q-5 -18 -5 -30l1 -4q25 -4 66 24q42 29 63 72q88 238 223 572q15 41 42 44q11 2 19 -7q9 -9 12 -21v-2v-12v-2q-2 -8 -19 -55q-17 -45 -48 -126q-94 -238 -166 -418q16 20 26 30q29 29 50 37q32 12 54 -8
q9 -9 11 -27q1 -10 -3 -34q-6 -31 -21 -71v-1v-2.5t-1 -2.5q4 2 5 3q41 33 102 91zM926 434q7 -4 12 -10q4 -5 4 -14q0 -8 -4 -15q-4 -6 -13 -11q-8 -4 -19 -4q-15 0 -23 4q-10 5 -14 12q-5 8 -5 18l12 1q2 -10 4 -13q3 -4 10 -7q8 -3 15 -3q6 0 14 2q5 1 8 6q3 4 3 9t-3 8
t-9 6q-11 4 -17 5q-14 3 -20 6q-7 3 -10 9q-4 8 -4 13q0 9 4 14q5 7 13 10t18 3q8 0 20 -4q9 -3 13 -10q5 -8 5 -16l-13 -1q-2 10 -7 14q-7 5 -17 5q-13 0 -18 -4t-5 -11q0 -5 4 -8q5 -5 20 -8q16 -3 22 -6zM968 469v12h79v-12h-33v-87h-13v87h-33zM1141 424h1v57h13v-57
q0 -12 -4 -24q-3 -8 -12 -14t-23 -6q-13 0 -23 5q-8 4 -13 14q-4 8 -4 25v57h14v-57q0 -15 2 -19q4 -8 8 -10q6 -3 14 -3q15 0 21 6t6 26zM1258 473q7 -6 12 -17q4 -9 4 -24q0 -11 -3 -20q-4 -13 -6 -15q-5 -6 -9 -9q-6 -4 -12 -5q-5 -1 -16 -1h-36v99h34q14 0 18 -1
q6 -1 14 -7zM1258 413q3 8 3 19q0 12 -6 24q-4 8 -12 11q-8 2 -17 2h-21v-76h21q8 0 16 2q5 1 9 5q3 3 7 13zM1323 382h-13v99h13v-99zM1430 476q11 -6 17 -18t6 -27t-6 -27q-5 -11 -18 -18q-11 -6 -24 -6q-15 0 -25 7q-12 9 -17 18q-5 10 -5 25q0 26 13 39q14 14 34 14
q13 0 25 -7zM1430 402q9 10 9 29q0 14 -4 22q-5 10 -12 14q-8 5 -18 5q-12 0 -24 -10q-10 -9 -10 -32q0 -16 10 -28q9 -11 24 -11q16 0 25 11zM4520 719l375 -536h-749z" />
    <glyph glyph-name="colon" unicode=":" 
d="M2291 1190q41 -17 69 -62q28 -46 28 -133q0 -63 -15 -106q-16 -46 -40 -70q-17 -17 -49 -28q-30 -10 -86 -10h-117v420h116q63 0 94 -11zM2740 564q17 -12 24 -28q8 -19 8 -41q0 -39 -19 -59q-19 -21 -48 -21t-48 21q-19 20 -19 56q0 43 20 63q19 19 47 19q21 0 35 -10z
M4056 1185q43 -27 66 -77q23 -51 23 -117q0 -106 -53 -165q-51 -57 -135 -57q-81 0 -135 57q-53 56 -53 157q0 124 56 177t133 53q53 0 98 -28zM1571 1495h3324l-913 -1308h-2411q148 119 230 291t82 363t-82 362.5t-230 291.5zM2427 570v23h-132v-197h26v90h92v23h-92v61
h106zM2448 883q15 48 15 111q0 71 -22 131q-20 56 -65 94q-33 29 -80 39q-37 8 -98 8h-190v-550h199q49 0 88 9q37 8 66 28q27 18 50 50q21 30 37 80zM2787 441q12 24 12 53q0 30 -12 53t-33 36q-20 13 -49 13q-41 0 -68 -27q-26 -28 -26 -77q0 -25 11 -49q13 -24 34 -37
q22 -13 49 -13q25 0 48 12q22 12 34 36zM2565 716h410v65h-338v187h305v65h-305v168h325v65h-397v-550zM3145 396v197h-25v-154l-103 154h-27v-197h25v155l103 -155h27zM3423 570h65v23h-156v-23h65v-174h26v174zM3598 716v550h-98l-131 -383q-6 -17 -16.5 -47t-13.5 -41
q-7 24 -26 82l-130 389h-110v-550h71v468l159 -468h65l160 460v-460h70zM4090 740q64 36 96 100q34 65 34 150q0 82 -32 148q-31 64 -94 101t-137 37q-117 0 -190 -78q-73 -77 -73 -214q0 -74 31 -137q32 -66 93 -103t139 -37q74 0 133 33zM943 1682q171 0 326.5 -66.5
t268 -179.5t179 -268.5t66.5 -326.5t-66.5 -326.5t-179 -268t-268 -179t-326.5 -66.5t-326.5 66.5t-268.5 179t-179.5 268t-66.5 326.5t66.5 326.5t179.5 268.5t268.5 179.5t326.5 66.5zM943 103q200 0 370 99t269 269t99 370t-99 370t-269 269t-370 99t-370 -99t-269 -269
t-99 -370t99 -370t269 -269t370 -99zM1201 1268q-36 -81 -168.5 -325t-184.5 -388q-37 -103 -46 -191q-2 -21 3.5 -58t7 -56.5t-8.5 -44.5q-11 -17 -27 -20.5t-32.5 4.5t-31 19.5t-26.5 25.5q-18 26 -19.5 69.5t13.5 100.5t36.5 117.5t56.5 135t66.5 137.5t74 140t71.5 128
t66.5 115.5t51.5 89.5q33 60 45.5 98t3 50t-48 -10t-102.5 -79q-175 -163 -444 -511q-94 -126 -188 -247q-22 -30 -43 -30q-31 0 -35 14v12q20 67 55.5 156.5t75.5 175t78.5 158t69.5 113t45 31.5v-4q-41 -96 -73 -166q-41 -91 -21.5 -112t95.5 67q24 28 99.5 121t134.5 160
t111 118q86 81 150.5 106.5t93 0.5t28.5 -84t-33 -137zM1056 882q0 16 11 27.5t27 11.5t27.5 -11.5t11.5 -27.5t-11.5 -27t-27.5 -11t-27 11t-11 27zM1420 703q21 21 42 2t2 -43l-1 -1l-20.5 -20.5t-38.5 -36.5t-39 -33q-34 -27 -63 -39q-15 -6 -29 -6q-16 0 -26 10t-12 33
q-2 20 3 41q0 2 2 7t3 8q-43 -66 -74 -87q-18 -14 -47 -12q-14 0 -24 6q-13 8 -16 19v2v6v3q-73 -39 -128 -15h-1q-16 10 -20 25t-3 32q3 32 21 75q27 67 62 115q20 31 47 20q13 -5 16 -19q3 -13 -7 -28q-45 -70 -60 -114q-5 -17 -5 -30l1 -5q24 -3 66 25q42 29 63 72
q84 226 223 571q15 41 42 44q11 2 19 -6t11 -21q0 -1 1 -3v-11v-2q-2 -8 -19 -55q-17 -45 -48 -126q-94 -238 -166 -418q16 20 26 30q29 29 50 37q32 12 54 -8q9 -9 11 -28q1 -9 -3 -33q-4 -26 -21 -72v-3t-1 -3q2 1 5 4q41 33 102 91zM926 439q7 -4 12 -10q4 -5 4 -14
q0 -8 -4 -15q-4 -6 -13 -11q-8 -4 -19 -4q-15 0 -23 4q-11 5 -14 11q-6 10 -6 18l13 1q2 -9 4 -12q4 -5 10 -8q5 -2 15 -2q6 0 14 2q5 1 8 6t3 8q0 6 -3 9q-1 1 -9 5q-11 4 -17 5q-11 2 -20 7q-7 3 -10 9q-4 8 -4 12q0 9 4 14q5 7 13 10q10 4 18 4t20 -4q9 -3 13 -10
q5 -8 5 -16l-13 -1q-2 10 -7 14q-7 5 -17 5q-13 0 -18 -4t-5 -11q0 -6 4 -9q4 -4 20 -7t22 -6zM968 474v12h79v-12h-33v-88h-13v88h-33zM1141 428l1 58h13v-58q0 -11 -4 -23q-3 -9 -12 -15q-7 -5 -23 -5q-13 0 -23 5q-9 4 -13 13q-4 8 -4 25v58h14v-58q0 -15 2 -19
q3 -7 8 -9q6 -3 15 -3q14 0 20 6t6 25zM1258 477q7 -6 12 -17q4 -9 4 -23q0 -11 -3 -20q-4 -13 -6 -15q-5 -6 -9 -9q-6 -4 -12 -5q-10 -2 -16 -2h-36v100h34q10 0 18 -2q6 -1 14 -7zM1258 418q3 8 3 19q0 14 -5 24q-4 7 -13 11q-8 2 -17 2h-21v-76h21q8 0 16 2q5 1 9 5
q3 3 7 13zM1323 386h-13v100h13v-100zM1430 481q11 -6 17 -18t6 -27t-6 -27q-5 -11 -18 -18q-11 -6 -24 -6q-15 0 -25 7q-12 9 -17 18q-5 10 -5 25q0 26 13 39q14 14 34 14q13 0 25 -7zM1430 407q9 11 9 29q0 13 -4 21q-5 10 -12 14q-8 5 -18 5q-13 0 -24 -9q-10 -9 -10 -32
q0 -17 10 -29q9 -10 24 -10q16 0 25 11zM4520 723l375 -536h-749z" />
    <glyph glyph-name="semicolon" unicode=";" horiz-adv-x="4999" 
d="M2291 1190q41 -17 69 -62q28 -46 28 -133q0 -63 -15 -106q-16 -46 -40 -70q-17 -17 -49 -28q-30 -10 -86 -10h-117v420h115q64 0 95 -11zM2740 564q17 -12 24 -28q8 -19 8 -41q0 -39 -19 -59q-19 -21 -48 -21t-48 21q-19 20 -19 56q0 43 20 63q19 19 47 19q21 0 35 -10z
M4056 1185q43 -27 66 -77q23 -51 23 -117q0 -106 -53 -165q-51 -57 -136 -57q-80 0 -134 57q-53 56 -53 157q0 125 55 177q56 53 133 53q54 0 99 -28zM1571 1495h3324l-913 -1308h-2411q148 119 230 291t82 363t-82 362.5t-230 291.5zM2427 570v23h-132v-197h26v90h92v23
h-92v61h106zM2448 883q15 48 15 111q0 71 -22 131q-20 56 -65 94q-33 29 -81 39q-37 8 -97 8h-190v-550h199q49 0 88 9q37 8 66 28q27 18 50 50q21 30 37 80zM2787 441q12 24 12 53q0 30 -12 53t-33 36q-20 13 -49 13q-41 0 -68 -27q-26 -28 -26 -77q0 -25 11 -49
q13 -25 33 -37q22 -13 50 -13q25 0 48 12q22 12 34 36zM2565 716h410v65h-338v187h305v65h-305v168h325v65h-397v-550zM3145 396v197h-25v-154l-103 154h-27v-197h25v155l103 -155h27zM3488 570v23h-156v-23h65v-174h26v174h65zM3598 716v550h-98l-131 -383
q-6 -17 -16.5 -47t-13.5 -41q-7 24 -26 82l-130 389h-110v-550h71v468l159 -468h65l160 460v-460h70zM4090 740q64 36 96 100q34 65 34 150q0 82 -32 148q-31 64 -94 101t-137 37q-117 0 -190 -78q-73 -77 -73 -214q0 -74 31 -137q32 -66 93 -103t139 -37q74 0 133 33z
M943 1682q171 0 326.5 -66.5t268 -179.5t179 -268.5t66.5 -326.5t-66.5 -326.5t-179 -268t-268 -179t-326.5 -66.5t-326.5 66.5t-268.5 179t-179.5 268t-66.5 326.5t66.5 326.5t179.5 268.5t268.5 179.5t326.5 66.5zM943 103q200 0 370 99t269 269t99 370t-99 370t-269 269
t-370 99t-370 -99t-269 -269t-99 -370t99 -370t269 -269t370 -99zM1201 1268q-36 -81 -168.5 -325t-184.5 -388q-37 -103 -46 -191q-2 -21 3 -57.5t7 -56.5t-8 -45q-11 -17 -27 -20.5t-32.5 4.5t-31 19.5t-26.5 25.5q-18 26 -19.5 69.5t13.5 100.5t36.5 117.5t56.5 135
t66.5 137.5t74 140t71.5 128t66.5 115.5t51.5 89.5q33 60 45.5 98t3 50t-48 -10t-102.5 -79q-175 -163 -444 -511q-94 -126 -188 -247q-22 -30 -43 -30q-31 0 -35 14v12q20 67 55.5 156.5t75.5 175t78.5 158t69.5 113t45 31.5v-4q-41 -96 -73 -166q-41 -91 -21.5 -112
t95.5 67q24 28 99.5 121t134.5 160t111 118q86 81 150.5 106.5t93 0.5t28.5 -84t-33 -137zM1056 882q0 16 11 27.5t27 11.5t27.5 -11.5t11.5 -27.5t-11.5 -27t-27.5 -11t-27 11t-11 27zM1420 703q21 21 42 2q9 -8 10 -19.5t-7 -23.5l-1 -1l-20 -20q-21 -20 -40.5 -37.5
t-38.5 -32.5q-34 -27 -63 -39q-15 -6 -29 -6q-16 0 -26 10t-12 33q-2 20 3 41q0 3 1.5 8t2.5 7q-44 -67 -73 -87q-18 -14 -47 -12q-14 0 -24 6q-13 8 -16 19v2v6v3q-73 -39 -128 -15h-1q-16 10 -20 25t-3 32q3 32 21 75q27 67 62 115q20 31 47 20q13 -5 16 -19q3 -13 -7 -28
q-45 -70 -60 -114q-5 -17 -5 -30l1 -5q24 -3 66 25q42 29 63 72q84 226 223 571q15 41 42 44q11 2 19 -6q9 -9 12 -21v-3v-11v-2q-2 -8 -19 -55q-17 -45 -48 -126q-94 -238 -166 -418q16 20 26 30q29 29 50 37q32 12 54 -8q9 -9 11 -28q1 -9 -3 -33q-7 -33 -21 -72v-3t-1 -3
q2 1 5 4q41 33 102 91zM926 439q7 -4 12 -10q4 -5 4 -14q0 -8 -4 -15q-4 -6 -13 -11q-8 -4 -19 -4q-15 0 -23 4q-11 5 -14 11q-6 10 -6 18l13 1q2 -9 4 -12q4 -5 10 -8q5 -2 15 -2q6 0 14 2q5 1 8 6t3 8q0 6 -3 9q-1 1 -9 5q-11 4 -17 5q-11 2 -20 7q-7 3 -10 9q-4 8 -4 12
q0 9 4 14q5 7 13 10q10 4 18 4t20 -4q9 -3 13 -10q5 -8 5 -16l-13 -1q-2 10 -7 14q-7 5 -17 5q-13 0 -18 -4t-5 -11q0 -6 4 -9q4 -4 20 -7t22 -6zM968 474v12h79v-12h-33v-88h-13v88h-33zM1141 428h1v58h13v-58q0 -11 -4 -23q-3 -9 -12 -15q-7 -5 -23 -5q-13 0 -23 5
q-9 4 -13 13q-4 8 -4 25v58h14v-58q0 -15 2 -19q3 -7 8 -9q6 -3 15 -3q14 0 20 6t6 25zM1258 477q7 -6 12 -17q4 -9 4 -23q0 -11 -3 -20q-4 -13 -6 -15q-5 -6 -9 -9q-6 -4 -12 -5q-10 -2 -16 -2h-36v100h34q10 0 18 -2q6 -1 14 -7zM1258 418q3 8 3 19q0 12 -6 24
q-4 8 -12 11q-8 2 -17 2h-21v-76h21q8 0 16 2q5 1 9 5q3 3 7 13zM1323 386h-13v100h13v-100zM1430 481q11 -6 17 -18t6 -27t-6 -27q-5 -11 -18 -18q-11 -6 -24 -6q-15 0 -25 7q-12 9 -17 18q-5 10 -5 25q0 26 13 39q14 14 34 14q13 0 25 -7zM1430 407q9 11 9 29q0 13 -4 21
q-5 10 -12 14q-8 5 -18 5q-13 0 -24 -9q-10 -9 -10 -32q0 -17 10 -29q9 -10 24 -10q16 0 25 11zM4520 723l374 -536h-748z" />
    <glyph glyph-name="less" unicode="&#x3c;" horiz-adv-x="5201" 
d="M2291 1189q39 -16 68 -63t29 -132q0 -62 -15 -106q-16 -46 -40 -70q-17 -18 -49 -28q-30 -10 -86 -10h-117v420h116q63 0 94 -11zM2740 563q15 -11 24 -28q8 -19 8 -42q0 -38 -19 -58q-19 -21 -48 -21t-48 21q-19 20 -19 55q0 44 20 64q19 19 47 19q21 0 35 -10z
M4056 1184q43 -27 66 -77q23 -51 23 -118q0 -105 -53 -164q-51 -57 -136 -57q-80 0 -134 57q-53 56 -53 156q0 126 55 178q56 53 133 53q54 0 99 -28zM1571 1494h3324l-913 -1308h-2411q148 119 230 291t82 363t-82 362.5t-230 291.5zM2427 568v24h-132v-197h26v89h92v24
h-92v60h106zM2448 882q15 48 15 111q0 70 -22 130q-21 57 -65 95q-33 29 -80 39q-37 8 -98 8h-190v-550h199q49 0 88 9q37 8 66 28q27 18 50 50q21 30 37 80zM2787 440q12 24 12 53q0 31 -12 53q-12 23 -33 36q-20 13 -49 13q-42 0 -68 -28t-26 -76q0 -25 11 -49
q11 -23 34 -37q22 -13 49 -13q25 0 48 12q22 12 34 36zM2565 715h410v65h-338v187h305v64h-305v169h325v65h-397v-550zM3118 395h27v197h-25v-155l-103 155h-27v-197h25v154zM3423 568h65v24h-156v-24h65v-173h26v173zM3598 715v550h-98l-131 -383q-6 -17 -16.5 -47
t-13.5 -41q-2 7 -10.5 34t-15.5 47l-130 390h-110v-550h71v468l159 -468h65l160 460v-460h70zM4090 739q64 36 96 100q34 65 34 150q0 82 -32 148q-31 64 -94 101q-61 36 -137 36q-117 0 -190 -77t-73 -214q0 -75 31 -138q31 -65 93 -102q62 -38 139 -38q72 0 133 34z
M943 1680q171 0 326.5 -66.5t268 -179t179 -268t66.5 -326.5t-66.5 -326.5t-179 -268t-268 -179t-326.5 -66.5t-326.5 66.5t-268.5 179t-179.5 268t-66.5 326.5t66.5 326.5t179.5 268t268.5 179t326.5 66.5zM943 102q200 0 370 99t269 269t99 370t-99 370t-269 269t-370 99
t-370 -99t-269 -269t-99 -370t99 -370t269 -269t370 -99zM1201 1267q-36 -81 -168.5 -325t-184.5 -388q-37 -103 -46 -191q-2 -21 3 -57.5t7 -56.5t-8 -45q-11 -17 -27 -20.5t-32.5 4.5t-31 19.5t-26.5 25.5q-18 26 -19 69.5t13.5 100.5t36 118t56.5 134.5t67 137.5
t74 139.5t71.5 128t66 115.5t51.5 90q33 60 45.5 98t3 50t-48 -10t-102.5 -79q-175 -163 -444 -511q-94 -126 -188 -247q-23 -31 -43 -31q-31 0 -35 15v12q20 67 55.5 156.5t75.5 175t78.5 158t69.5 113t45 31.5v-4q-41 -96 -73 -166q-41 -91 -21.5 -112t95.5 67
q24 28 99.5 121t134.5 160t111 118q86 81 150.5 106.5t93 0.5t28.5 -84t-33 -137zM1056 881q0 16 11 27.5t27 11.5t27.5 -11.5t11.5 -27.5t-11.5 -27t-27.5 -11t-27 11t-11 27zM1462 704q9 -8 10 -20t-7 -24l-1 -1q-76 -71 -99 -89q-34 -27 -63 -39q-18 -7 -29 -7
q-15 0 -26 11q-10 10 -12 33q-1 16 4 41q1 3 2 8t2 7q-43 -66 -74 -87q-18 -14 -46 -12q-15 0 -25 6q-13 8 -16 19v2v6v3q-73 -39 -128 -15h-1q-16 11 -20 24q-5 15 -3 33q3 32 21 75q26 64 62 114q20 31 48 20q12 -4 15 -18t-6 -28q-45 -70 -60 -114q-6 -17 -6 -30l1 -5
q25 -4 66 24q42 29 63 72q77 208 224 572q15 41 41 44q11 2 20 -7q8 -8 11 -20v-3v-11v-2q-2 -8 -19 -55q-17 -45 -48 -126q-94 -238 -166 -418q12 15 26 29q30 30 50 38q32 12 54 -8v-1q9 -9 11 -27q1 -9 -3 -33q-4 -26 -21 -72v-3.5t-1 -2.5q4 2 5 3q34 27 102 92
q21 21 42 2zM926 438q6 -3 12 -11q4 -5 4 -14q0 -8 -4 -15q-4 -6 -13 -11q-6 -3 -19 -3q-17 0 -23 3q-10 5 -14 12q-6 10 -6 18l13 1q2 -9 4 -12q4 -5 10 -8q8 -3 15 -3q2 0 14 3q5 1 8 6q3 4 3 8q0 5 -3 8t-9 6q-11 4 -17 5q-14 3 -20 6t-10 10q-4 8 -4 12q0 9 4 14
q5 7 13 10t18 3q11 0 20 -3q8 -3 13 -11t5 -15l-13 -1q-2 10 -7 14q-7 5 -17 5q-11 0 -18 -5q-5 -4 -5 -10t4 -9q4 -4 20 -7t22 -6zM968 473v12h79v-12h-33v-88h-13v88h-33zM1141 427v58h13v-58q0 -15 -3 -24q-3 -8 -12 -14q-7 -5 -23 -5q-15 0 -23 4t-13 14q-4 8 -4 25v58
h13v-58q0 -13 3 -19q3 -7 8 -9q8 -4 14 -4q14 0 21 7q6 6 6 25zM1258 476q7 -6 12 -17q4 -9 4 -24q0 -11 -3 -20q-4 -11 -6 -14q-5 -6 -9 -9q-6 -4 -12 -5q-10 -2 -16 -2h-36v100h34q10 0 18 -2q6 -1 14 -7zM1258 417q3 7 3 19t-6 24q-4 8 -12 11q-8 2 -17 2h-21v-76h21
q8 0 16 2q5 1 9 5q3 3 7 13zM1323 385h-13v100h13v-100zM1430 480q11 -6 17 -19q6 -12 6 -26q0 -15 -6 -27q-5 -11 -18 -18q-11 -6 -24 -6q-17 0 -25 6q-12 8 -17 19q-5 10 -5 25q0 25 13 38q14 14 34 14q15 0 25 -6zM1429 405q10 12 10 30q0 13 -4 21q-5 10 -12 14
q-8 5 -18 5q-13 0 -24 -9q-10 -9 -10 -32q0 -17 10 -29q10 -10 24 -10q15 0 24 10zM4520 722l375 -536h-749z" />
    <glyph glyph-name="equal" unicode="=" horiz-adv-x="5074" 
d="M2291 1189q39 -16 68 -63t29 -132q0 -62 -15 -106q-16 -46 -40 -70q-17 -18 -49 -28q-30 -10 -86 -10h-117v420h115q64 0 95 -11zM2740 563q17 -12 24 -28q8 -19 8 -42q0 -38 -19 -58q-19 -21 -48 -21t-48 21q-19 20 -19 55q0 44 20 64q19 19 47 19q21 0 35 -10z
M4056 1184q43 -27 66 -77q23 -51 23 -118q0 -105 -53 -164q-51 -57 -136 -57q-80 0 -134 57q-53 56 -53 156q0 126 55 178q56 53 133 53q54 0 99 -28zM1571 1494h3324l-913 -1308h-2411q148 119 230 291t82 363t-82 362.5t-230 291.5zM2427 568v24h-132v-197h26v89h92v24
h-92v60h106zM2448 882q15 48 15 111q0 70 -22 130q-21 57 -65 95q-33 29 -80 39q-35 8 -98 8h-190v-550h199q49 0 88 9q37 8 66 28q27 18 50 50q21 30 37 80zM2787 440q12 24 12 53q0 31 -12 53q-11 22 -33 36q-20 13 -49 13q-40 0 -68 -28q-26 -28 -26 -76q0 -25 11 -49
q11 -23 34 -37q20 -13 49 -13q25 0 48 12q22 12 34 36zM2565 715h410v65h-338v187h305v64h-305v169h325v65h-397v-550zM3118 395h27v197h-25v-155l-103 155h-27v-197h25v154zM3423 568h65v24h-156v-24h65v-173h26v173zM3528 715h70v550h-97l-132 -383q-26 -78 -29 -88
l-27 81l-130 390h-110v-550h71v468l159 -468h65l160 460v-460zM4090 739q64 36 96 100q34 65 34 150q0 82 -32 148q-31 64 -94 101q-61 36 -137 36q-117 0 -190 -77t-73 -214q0 -75 31 -138q31 -65 93 -102q62 -38 139 -38q72 0 133 34zM943 1680q171 0 326.5 -66.5
t268 -179t179 -268t66.5 -326.5t-66.5 -326.5t-179 -268t-268 -179t-326.5 -66.5t-326.5 66.5t-268.5 179t-179.5 268t-66.5 326.5t66.5 326.5t179.5 268t268.5 179t326.5 66.5zM943 102q200 0 370 99t269 269t99 370t-99 370t-269 269t-370 99t-370 -99t-269 -269t-99 -370
t99 -370t269 -269t370 -99zM1201 1267q-36 -81 -168.5 -325t-184.5 -388q-37 -103 -46 -191q-2 -21 3 -57.5t7 -56.5t-8 -45q-11 -17 -27 -20.5t-32.5 4.5t-31 19.5t-26.5 25.5q-18 26 -19.5 69.5t13.5 100.5t36.5 117.5t56.5 135t66.5 137.5t74 140t71.5 128t66.5 115.5
t51.5 89.5q33 60 45.5 98t3 50t-48 -10t-102.5 -79q-175 -163 -444 -511q-94 -126 -188 -247q-23 -31 -43 -31q-31 0 -35 15v12q20 67 55.5 156.5t75.5 175t78.5 158t69.5 113t45 31.5v-4q-41 -96 -73 -166q-41 -91 -21.5 -112t95.5 67q24 28 99.5 121t134.5 160t111 118
q86 81 150.5 106.5t93 0.5t28.5 -84t-33 -137zM1056 881q0 16 11 27.5t27 11.5t27.5 -11.5t11.5 -27.5t-11.5 -27t-27.5 -11t-27 11t-11 27zM1462 704q9 -8 10 -20t-7 -24l-1 -1q-76 -71 -99 -89q-34 -27 -63 -39q-18 -7 -29 -7q-15 0 -26 11q-10 10 -12 33q-2 20 3 41
q0 3 2 8t3 7q-43 -66 -74 -87q-18 -14 -47 -12q-14 0 -24 6q-13 8 -16 19v2v6v3q-73 -39 -128 -15h-1q-16 9 -20 24q-5 15 -3 33q3 32 21 75q26 64 62 114q20 31 47 20q13 -5 16 -18t-7 -28q-45 -70 -60 -114q-5 -18 -5 -30l1 -5q25 -4 66 24q42 29 63 72q88 238 223 572
q15 41 42 44q11 1 19 -7q10 -10 12 -20v-3v-11v-2q-2 -8 -19 -55q-17 -45 -48 -126q-94 -238 -166 -418q12 15 26 29q30 30 50 38q32 12 54 -8v-1q9 -9 11 -27q1 -9 -3 -33q-4 -26 -21 -72v-3.5t-1 -2.5q4 2 5 3q34 27 102 92q21 21 42 2zM926 438q6 -3 12 -11q5 -7 5 -14
t-5 -15q-4 -6 -13 -11q-6 -3 -19 -3q-17 0 -23 3q-10 5 -14 12q-5 8 -5 18l12 1q2 -9 4 -12q4 -5 10 -8q8 -3 15 -3q2 0 14 3q5 1 8 6q3 4 3 8q0 5 -3 8t-9 6q-11 4 -17 5q-13 3 -19 6q-8 3 -11 10q-4 8 -4 12q0 7 5 14q6 7 12 10q9 3 18 3q11 0 20 -3q8 -3 13 -11t5 -15
l-13 -1q-2 10 -7 14q-7 5 -17 5q-11 0 -18 -5q-5 -4 -5 -10t4 -9q4 -4 20 -7t22 -6zM968 473v12h79v-12h-33v-88h-13v88h-33zM1141 427v58h14v-58q0 -12 -4 -24q-3 -8 -12 -14q-7 -5 -23 -5q-15 0 -23 4t-13 14q-4 12 -4 25v58h14v-58q0 -15 2 -19q3 -7 8 -9q8 -4 15 -4
q13 0 20 7q6 6 6 25zM1258 476q7 -6 12 -17q4 -9 4 -24q0 -11 -3 -20q-4 -11 -6 -14q-5 -6 -9 -9q-6 -4 -12 -5q-10 -2 -16 -2h-36v100h34q10 0 18 -2q6 -1 14 -7zM1258 417q3 7 3 19t-6 24q-4 8 -12 11q-8 2 -17 2h-21v-76h21q8 0 16 2q5 1 9 5q3 3 7 13zM1323 385h-13v100
h13v-100zM1430 480q11 -6 17 -19q6 -12 6 -26q0 -15 -6 -27q-5 -11 -18 -18q-11 -6 -24 -6q-17 0 -25 6q-12 8 -17 19q-5 10 -5 25q0 25 13 38q14 14 34 14q15 0 25 -6zM1430 405q9 11 9 30q0 13 -4 21q-5 10 -12 14q-8 5 -18 5q-13 0 -24 -9q-10 -9 -10 -32q0 -17 10 -29
q9 -10 24 -10q16 0 25 10zM4520 722l374 -536h-748z" />
    <glyph glyph-name="greater" unicode="&#x3e;" 
d="M2291 1189q39 -16 68 -63t29 -132q0 -62 -15 -106q-16 -46 -40 -70q-17 -18 -49 -28q-30 -10 -86 -10h-117v420h116q63 0 94 -11zM2740 563q17 -12 24 -28q8 -19 8 -42q0 -38 -19 -58q-19 -21 -48 -21t-48 21q-19 20 -19 55q0 44 20 64q19 19 47 19q21 0 35 -10z
M4056 1184q43 -27 66 -77q23 -51 23 -118q0 -105 -53 -164q-51 -57 -136 -57q-80 0 -134 57q-53 56 -53 156q0 126 55 178q56 53 133 53q54 0 99 -28zM1571 1494h3324l-913 -1308h-2411q148 119 230 291t82 363t-82 362.5t-230 291.5zM2427 568v24h-132v-197h26v89h92v24
h-92v60h106zM2448 882q15 48 15 111q0 70 -22 130q-21 57 -65 95q-33 29 -80 39q-37 8 -98 8h-190v-550h199q49 0 88 9q37 8 66 28q27 18 50 50q21 30 37 80zM2787 440q12 24 12 53q0 31 -12 53q-12 23 -33 36q-20 13 -49 13q-42 0 -68 -28t-26 -76q0 -25 11 -49t33 -37
t50 -13q25 0 48 12q22 12 34 36zM2565 715h410v65h-338v187h305v64h-305v169h325v65h-397v-550zM3118 395h27v197h-25v-155l-103 155h-27v-197h25v154zM3423 568h65v24h-156v-24h65v-173h26v173zM3598 715v550h-98l-131 -383q-6 -17 -16.5 -47t-13.5 -41q-2 7 -10.5 34
t-15.5 47l-130 390h-110v-550h71v468l159 -468h65l160 460v-460h70zM4090 739q64 36 96 100q34 65 34 150q0 82 -32 148q-31 64 -94 101q-61 36 -137 36q-117 0 -190 -77t-73 -214q0 -75 31 -138q31 -65 93 -102q62 -38 139 -38q72 0 133 34zM943 1680q171 0 326.5 -66.5
t268 -179t179 -268t66.5 -326.5t-66.5 -326.5t-179 -268t-268 -179t-326.5 -66.5t-326.5 66.5t-268.5 179t-179.5 268t-66.5 326.5t66.5 326.5t179.5 268t268.5 179t326.5 66.5zM943 102q200 0 370 99t269 269t99 370t-99 370t-269 269t-370 99t-370 -99t-269 -269t-99 -370
t99 -370t269 -269t370 -99zM1201 1267q-36 -81 -168.5 -325t-184.5 -388q-37 -103 -46 -191q-2 -21 3 -57.5t7 -56.5t-8 -45q-11 -17 -27 -20.5t-32.5 4.5t-31 19.5t-26.5 25.5q-18 26 -19 69.5t13.5 100.5t36 118t56.5 134.5t67 137.5t74 139.5t71.5 128t66 115.5t51.5 90
q33 60 45.5 98t3 50t-48 -10t-102.5 -79q-175 -163 -444 -511q-94 -126 -188 -247q-23 -31 -43 -31q-31 0 -35 15v12q20 67 55.5 156.5t75.5 175t78.5 158t69.5 113t45 31.5v-4q-41 -96 -73 -166q-41 -91 -21.5 -112t95.5 67q24 28 99.5 121t134.5 160t111 118
q86 81 150.5 106.5t93 0.5t28.5 -84t-33 -137zM1056 881q0 16 11 27.5t27 11.5t27.5 -11.5t11.5 -27.5t-11.5 -27t-27.5 -11t-27 11t-11 27zM1462 704q9 -8 10 -20t-7 -24l-1 -1q-76 -71 -99 -89q-34 -27 -63 -39q-18 -7 -29 -7q-15 0 -26 11q-10 10 -12 33q-1 16 4 41
q1 3 2 8t2 7q-43 -66 -74 -87q-18 -14 -46 -12q-15 0 -25 6q-13 8 -16 19v2v6v3q-73 -39 -128 -15h-1q-16 11 -20 24q-5 15 -3 33q3 32 21 75q26 64 62 114q20 31 48 20q12 -4 15 -18q3 -13 -7 -28q-43 -67 -59 -114q-6 -17 -6 -30l1 -5q25 -4 66 24q42 29 63 72
q77 208 224 572q15 41 41 44q11 2 20 -7q8 -8 11 -20v-3v-11v-2q-2 -8 -19 -55q-17 -45 -48 -126q-94 -238 -166 -418q12 15 26 29q30 30 50 38q32 12 54 -8v-1q9 -9 11 -27q1 -9 -3 -33q-4 -26 -21 -72v-3.5t-1 -2.5q4 2 5 3q34 27 102 92q21 21 42 2zM926 438q6 -3 12 -11
q4 -5 4 -14q0 -8 -4 -15q-4 -6 -13 -11q-6 -3 -19 -3q-17 0 -23 3q-10 5 -14 12q-6 10 -6 18l13 1q2 -9 4 -12q4 -5 10 -8q8 -3 15 -3q2 0 14 3q5 1 8 6q3 4 3 8q0 5 -3 8t-9 6q-11 4 -17 5q-14 3 -20 6t-10 10q-4 8 -4 12q0 9 4 14q5 7 13 10t18 3q11 0 20 -3q8 -3 13 -11
t5 -15l-13 -1q-2 10 -7 14q-7 5 -17 5q-11 0 -18 -5q-5 -4 -5 -10t4 -9q4 -4 20 -7t22 -6zM968 473v12h79v-12h-33v-88h-13v88h-33zM1141 427v58h14v-58q0 -12 -4 -24q-3 -8 -12 -14q-7 -5 -23 -5q-15 0 -23 4t-13 14q-4 8 -4 25v58h13v-58q0 -13 3 -19q3 -7 8 -9
q8 -4 15 -4q13 0 20 7q6 6 6 25zM1258 476q7 -6 12 -17q4 -9 4 -24q0 -14 -2 -20q-3 -8 -7 -14q-5 -6 -9 -9q-6 -4 -12 -5q-10 -2 -16 -2h-36v100h34q10 0 18 -2q6 -1 14 -7zM1258 417q3 7 3 19t-6 24q-4 8 -12 11q-8 2 -17 2h-21v-76h21q8 0 16 2q5 1 9 5q3 3 7 13z
M1323 385h-13v100h13v-100zM1430 480q11 -6 17 -19q6 -12 6 -26q0 -15 -6 -27q-5 -11 -18 -18q-11 -6 -24 -6q-17 0 -25 6q-12 8 -17 19q-5 10 -5 25q0 25 13 38q14 14 34 14q15 0 25 -6zM1430 405q9 11 9 30q0 13 -4 21q-5 10 -12 14q-8 5 -18 5q-13 0 -24 -9
q-10 -9 -10 -32q0 -17 10 -29q10 -10 24 -10q16 0 25 10zM4520 722l374 -536h-748z" />
    <glyph glyph-name="question" unicode="?" horiz-adv-x="4737" 
d="M2029 1189q39 -16 68 -63t29 -132q0 -62 -15 -106q-16 -46 -40 -70q-18 -18 -49 -28q-30 -10 -86 -10h-117v420h115q64 0 95 -11zM2478 563q17 -12 24 -28q8 -19 8 -42q0 -38 -19 -58q-19 -21 -48 -21t-48 21q-19 20 -19 55q0 44 20 64q19 19 47 19q21 0 35 -10z
M3793 1184q45 -28 67 -77q23 -51 23 -118q0 -105 -53 -164q-51 -57 -136 -57q-80 0 -134 57q-53 56 -53 156q0 126 55 178q56 53 133 53q53 0 98 -28zM1308 1494h3324l-912 -1308h-2412q148 119 230.5 291t82.5 363q0 190 -82 362t-231 292zM2165 568v24h-133v-197h27v89h92
v24h-92v60h106zM2186 882q15 48 15 111q0 70 -22 130q-21 57 -65 95q-33 28 -81 39q-37 8 -98 8h-189v-550h198q50 0 89 9q35 8 65 28q29 19 51 50q21 30 37 80zM2525 440q12 24 12 53q0 31 -12 53q-12 23 -33 36q-20 13 -49 13q-40 0 -68 -28q-26 -28 -26 -76q0 -25 11 -49
q13 -25 33 -37q22 -13 50 -13q25 0 48 12q22 12 34 36zM2302 715h411v65h-338v187h304v64h-304v169h325v65h-398v-550zM2883 395v197h-25v-155l-103 155h-27v-197h25v154l103 -154h27zM3226 568v24h-156v-24h65v-173h26v173h65zM3336 715v550h-98l-131 -383
q-6 -17 -16.5 -47t-13.5 -41q-5 18 -26 81l-130 390h-110v-550h70v468l159 -468h66l160 460v-460h70zM3828 739q64 36 96 100q34 65 34 150q0 80 -33 148q-32 65 -93 101q-62 36 -137 36q-117 0 -190 -77t-73 -214q0 -75 31 -138q31 -65 93 -102q62 -38 139 -38q72 0 133 34
zM681 1680q171 0 326.5 -66.5t268 -179t179 -268t66.5 -326.5t-66.5 -326.5t-179 -268t-268 -179t-326.5 -66.5t-326.5 66.5t-268.5 179t-179.5 268t-66.5 326.5t66.5 326.5t179.5 268t268.5 179t326.5 66.5zM681 102q200 0 370 99t269 269t99 370t-99 370t-269 269t-370 99
t-370 -99t-269 -269t-99 -370t99 -370t269 -269t370 -99zM939 1267q-36 -81 -168.5 -325t-184.5 -388q-39 -106 -47 -191q-2 -21 3.5 -57.5t7.5 -57t-8 -44.5q-11 -17 -27 -20.5t-32.5 4.5t-31 19.5t-26.5 25.5q-18 26 -19.5 69.5t13.5 100.5t36.5 117.5t56.5 135
t66.5 137.5t74 140t71.5 128t66.5 115.5t51.5 89.5q33 60 45.5 98t3 50t-48 -10t-102.5 -79q-175 -163 -444 -511q-71 -95 -189 -247q-23 -31 -42 -31q-31 0 -35 15v12q20 67 55.5 156.5t75.5 175t78.5 158t69.5 113t45 31.5v-4q-41 -96 -73 -166q-41 -91 -21.5 -112
t95.5 67q24 28 99.5 121t134.5 160t111 118q86 81 150.5 106.5t93 0.5t28.5 -84t-33 -137zM794 881q0 16 11 27.5t27 11.5t27.5 -11.5t11.5 -27.5t-11.5 -27t-27.5 -11t-27 11t-11 27zM1200 704q9 -8 10 -20t-8 -24l-1 -1q-81 -76 -98 -89q-34 -27 -63 -39q-18 -7 -29 -7
q-15 0 -26 11t-13 33q-1 16 4 41q1 3 2.5 8t1.5 7q-44 -67 -73 -87q-18 -14 -47 -12q-14 0 -24 6q-13 8 -16 19v2v6v3q-73 -39 -129 -15h-1q-15 10 -19 24q-5 15 -3 33q3 32 21 75q26 64 62 114q20 31 47 20q13 -5 16 -18t-7 -28q-45 -70 -60 -114q-5 -18 -5 -30l1 -5
q25 -4 65 24q44 30 64 72q88 238 223 572q15 41 41 44q11 2 20 -7q8 -8 11 -20l1 -1v-2v-11v-2q-2 -8 -19 -55q-17 -45 -48 -126q-94 -238 -166 -418q12 15 26 29q30 30 50 38q32 12 54 -8v-1q9 -9 11 -27q1 -9 -3 -33q-7 -33 -21 -72v-3.5t-1 -2.5q4 2 5 3q28 22 101 92
q9 9 22 9.5t21 -7.5zM663 438q8 -4 13 -11q4 -5 4 -14q0 -8 -4 -15q-4 -6 -13 -11q-6 -3 -19 -3q-17 0 -23 3q-10 5 -14 12q-6 10 -6 18l13 1q2 -9 4 -12q4 -5 10 -8q8 -3 15 -3q1 0 13 3q6 2 9 6t3 8q0 5 -3 8t-9 6q-9 3 -18 5q-13 3 -19 6t-10 10q-4 8 -4 12q0 9 4 14
q5 7 13 10t18 3q11 0 20 -3q8 -3 13 -11q4 -7 4 -15l-12 -1q-2 10 -7 14q-7 5 -17 5q-11 0 -18 -5q-5 -4 -5 -10t4 -9q4 -4 19 -7q16 -3 22 -6zM706 473v12h79v-12h-33v-88h-13v88h-33zM879 427v58h13v-58q0 -15 -3 -24q-3 -8 -12 -14q-7 -5 -23 -5q-15 0 -23 4t-13 14
q-4 8 -4 25v58h13v-58q0 -13 3 -19q3 -7 8 -9q8 -4 14 -4q14 0 21 7q6 6 6 25zM996 476q7 -6 12 -17q4 -9 4 -24q0 -11 -3 -20q-3 -8 -7 -14t-9 -9q-6 -4 -11 -5q-10 -2 -16 -2h-36v100h34q10 0 18 -2q6 -1 14 -7zM996 417q3 7 3 19t-6 24q-4 8 -12 11q-8 2 -17 2h-21v-76
h21q8 0 16 2q4 1 8 5q5 5 8 13zM1061 385h-13v100h13v-100zM1168 480q10 -6 17 -19q6 -12 6 -26q0 -13 -7 -27q-6 -12 -17 -18t-24 -6q-17 0 -25 6q-12 8 -17 19q-6 12 -6 25q0 24 14 38t34 14q15 0 25 -6zM1167 405q10 12 10 30q0 13 -4 21q-5 10 -12 14q-8 5 -18 5
q-13 0 -24 -9q-10 -9 -10 -32q0 -17 10 -29q9 -10 24 -10t24 10zM4258 722l374 -536h-748z" />
    <glyph glyph-name="at" unicode="@" horiz-adv-x="5033" 
d="M2252 1190q41 -17 69 -62q28 -46 28 -133q0 -63 -15 -106q-16 -46 -40 -70q-18 -17 -49 -28q-30 -10 -86 -10h-117v420h116q63 0 94 -11zM2701 564q17 -12 24 -28q8 -19 8 -41q0 -39 -19 -59q-20 -21 -48 -21t-48 21q-19 20 -19 56q0 43 20 63q19 19 47 19q21 0 35 -10z
M4017 1185q43 -27 66 -77q23 -51 23 -117q0 -106 -53 -165q-51 -57 -135 -57q-81 0 -135 57q-53 56 -53 157q0 124 56 177t133 53q53 0 98 -28zM1532 1495h3324l-913 -1308h-2411q148 119 230 291t82 363t-82 362.5t-230 291.5zM2388 570v23h-132v-197h26v90h92v23h-92v61
h106zM2409 883q15 48 15 111q0 71 -22 131q-20 56 -65 94q-33 29 -80 39q-37 8 -98 8h-190v-550h199q49 0 88 9q37 8 66 28q27 18 50 50q21 30 37 80zM2748 441q12 24 12 53q0 30 -12 53t-33 36q-20 13 -49 13q-41 0 -68 -27q-26 -28 -26 -77q0 -25 11 -49q13 -24 34 -37
q22 -13 49 -13q26 0 48 12t34 36zM2526 716h410v65h-338v187h305v65h-305v168h325v65h-397v-550zM3106 396v197h-25v-154l-103 154h-27v-197h25v155l103 -155h27zM3384 570h65v23h-156v-23h65v-174h26v174zM3560 716v550h-98l-132 -383q-26 -78 -29 -88q-2 6 -27 82
l-130 389h-109v-550h70v468l159 -468h65l160 460v-460h71zM4051 740q64 36 96 100q34 65 34 150q0 82 -32 148q-31 64 -94 101t-137 37q-116 0 -190 -78q-73 -77 -73 -214q0 -74 31 -137q32 -66 93 -103t139 -37q74 0 133 33zM904 1682q171 0 326.5 -66.5t268 -179.5
t179 -268.5t66.5 -326.5t-66.5 -326.5t-179 -268t-268 -179t-326.5 -66.5t-326.5 66.5t-268 179t-179 268t-66.5 326.5t66.5 326.5t179 268.5t268 179.5t326.5 66.5zM904 103q200 0 370 99t269 269t99 370t-99 370t-269 269t-370 99t-370 -99t-269 -269t-99 -370t99 -370
t269 -269t370 -99zM1162 1268q-36 -81 -168.5 -325t-184.5 -388q-37 -103 -46 -191q-2 -21 3 -57.5t7 -56.5t-8 -45q-11 -17 -27 -20.5t-32.5 4.5t-31 19.5t-26.5 25.5q-18 26 -19.5 69.5t13.5 100.5t36.5 117.5t56.5 135t66.5 137.5t74 140t71.5 128t66.5 115.5t51.5 89.5
q33 60 45.5 98t3 50t-48 -10t-102.5 -79q-175 -163 -444 -511q-94 -126 -188 -247q-23 -30 -43 -30q-31 0 -35 14v12q20 67 55.5 156.5t75.5 175t78.5 158t69.5 113t45 31.5v-4q-41 -96 -73 -166q-41 -91 -21.5 -112t95.5 67q24 28 99.5 121t134.5 160t111 118
q86 81 150.5 106.5t93 0.5t28.5 -84t-33 -137zM1017 882q0 16 11.5 27.5t27.5 11.5t27 -11.5t11 -27.5t-11 -27t-27 -11t-27.5 11t-11.5 27zM1381 703q9 9 22 9.5t20 -7.5q21 -19 2 -43l-1 -1l-20.5 -20.5t-38.5 -36.5t-39 -33q-34 -27 -63 -39q-15 -6 -29 -6q-16 0 -26 10
t-12 33q-2 20 3 41q1 3 2 8t2 7q-44 -67 -73 -87q-18 -14 -47 -12q-13 0 -24 6q-13 8 -16 19v2v6v3q-73 -39 -128 -15h-1q-16 10 -20 25t-3 32q3 32 21 75q27 67 62 115q20 31 47 20q13 -5 16 -19q3 -13 -7 -28q-45 -70 -60 -114q-5 -17 -5 -30l1 -5q24 -3 66 25
q42 29 63 72q84 226 223 571q15 41 42 44q11 2 19 -6q9 -9 12 -21v-3v-11v-2q-2 -8 -19 -55q-16 -45 -48 -126q-94 -238 -166 -418q16 20 26 30q29 29 50 37q32 12 54 -8q9 -9 11 -28q1 -9 -3 -33q-4 -26 -21 -72q-1 -1 -1 -3v-3q2 1 5 4q41 33 102 91zM887 439q7 -4 12 -10
q4 -5 4 -14q0 -8 -4 -15q-4 -6 -13 -11q-8 -4 -19 -4q-15 0 -23 4q-11 5 -14 11q-6 10 -6 18l13 1q2 -9 4 -12q4 -5 10 -8q5 -2 15 -2q6 0 14 2q5 1 8 6t3 8q0 6 -3 9q-1 1 -9 5q-11 4 -17 5q-11 2 -20 7q-7 3 -10 9q-4 8 -4 12q0 7 5 14q6 7 12 10q10 4 18 4t20 -4
q9 -3 13 -10q5 -8 5 -16l-13 -1q-2 10 -7 14q-7 5 -17 5q-13 0 -18 -4t-5 -11q0 -6 4 -9q4 -4 20 -7t22 -6zM930 474v12h78v-12h-32v-88h-14v88h-32zM1103 428v58h13v-58q0 -11 -4 -23q-3 -9 -12 -15q-8 -5 -23 -5q-13 0 -23 5q-9 4 -13 13q-3 6 -3 25v58h13v-58
q0 -15 2 -19q3 -7 8 -9q6 -3 15 -3q14 0 20 6q7 7 7 25zM1220 477q6 -5 11 -17q4 -9 4 -23t-2 -20q-3 -10 -7 -15q-4 -6 -9 -9q-6 -4 -12 -5q-10 -2 -16 -2h-36v100h34q10 0 18 -2q7 -1 15 -7zM1219 418q3 8 3 19q0 14 -5 24q-4 7 -13 11q-8 2 -17 2h-21v-76h21q8 0 16 2
q5 1 9 5q3 3 7 13zM1284 386h-13v100h13v-100zM1391 481q11 -6 17 -18t6 -27t-6 -27q-5 -11 -18 -18q-10 -6 -24 -6q-15 0 -25 7q-12 9 -17 18q-5 10 -5 25q0 26 13 39q14 14 34 14q13 0 25 -7zM1391 407q9 11 9 29q0 13 -4 21q-5 10 -12 14q-8 5 -18 5q-14 0 -24 -9
t-10 -32q0 -17 10 -29q9 -10 24 -10q16 0 25 11zM4482 723l374 -536h-749z" />
    <glyph glyph-name="A" unicode="A" horiz-adv-x="1847" 
d="M1252 0l20 28q49 70 18 151l-133 347h-715l-110 -288q-23 -61 -2.5 -123t75.5 -97l28 -18h-443l36 19q74 38 130 100.5t86 141.5l453 1184q19 49 -3.5 95t-72.5 63l-36 12h122q126 -5 271 33l40 14l570 -1483q31 -79 85 -148l25 -31h-444zM480 625h639l-320 833z" />
    <glyph glyph-name="A" unicode="&#xc1;" horiz-adv-x="1847" 
d="M1252 0l20 28q49 70 18 151l-133 347h-715l-110 -288q-23 -61 -2.5 -123t75.5 -97l28 -18h-443l36 19q74 38 130 100.5t86 141.5l453 1184q19 49 -3.5 95t-72.5 63l-36 12h122q126 -5 271 33l40 14l570 -1483q31 -79 85 -148l25 -31h-444zM480 625h639l-320 833z" />
    <glyph glyph-name="B" unicode="B" horiz-adv-x="1650" 
d="M1208 854q138 -40 226 -155t88 -262q0 -181 -127.5 -309t-308.5 -128h-1059q74 99 74 222v1218q0 123 -74 222h955q181 0 308.5 -128t127.5 -309q0 -116 -57 -214t-153 -157zM396 1564v-677h388q145 0 245 105.5t93 251.5q-7 135 -112.5 227.5t-244.5 92.5h-369zM869 99
q139 0 244.5 92t112.5 227q7 146 -92.5 251.5t-244.5 105.5h-493v-676h473z" />
    <glyph glyph-name="C" unicode="C" horiz-adv-x="1431" 
d="M750 99q210 -20 362 121.5t216 393.5q-54 -323 -213 -473t-397 -141q-233 8 -404 106.5t-253 259.5t-70 360q8 133 47 251.5t99.5 208.5t139 166t166 128.5t180 92t182 59.5t170 28t146 1t109.5 -25q70 -30 29 -116q-27 -57 -147 -208l-1 -1l-1 -1l-1 -1v-1l-1 -1l-1 -1
l-1 -1v-1l-1 -1l-1 -1l-1 -1l-1 -1v-1l-2 -1q-31 -40 -48 -61q10 44 9.5 95.5t-14 104.5t-45 91.5t-82.5 56t-126 -2.5q-41 -11 -84.5 -28.5t-99 -52t-104 -79t-95.5 -112.5t-78.5 -148.5t-47.5 -192t-8 -238.5q16 -245 156 -430t317 -202z" />
    <glyph glyph-name="D" unicode="D" horiz-adv-x="1650" 
d="M716 1661q166 -5 315.5 -72.5t257.5 -178t171.5 -262t63.5 -318.5q0 -226 -111.5 -417.5t-303.5 -302.5t-418 -111l-664 3l24 32q50 65 50 150l2 1297q0 83 -50 150l-24 32l687 -1v-1zM509 98q192 0 356.5 94t261.5 256t101 354q3 127 -16.5 239t-65 208t-112.5 165.5
t-165.5 109t-218.5 40.5h-251l-3 -1464z" />
    <glyph glyph-name="E" unicode="E" horiz-adv-x="1517" 
d="M1126 99q94 0 159 67l55 56l-22 -221h-1291l7 9q67 90 67 200v1242q0 111 -67 201l-7 9h1291l22 -222l-56 57q-64 66 -158 66l-730 1v-691h436q52 0 97 26.5t71 72.5l44 81v-444l-43 73q-25 43 -69.5 68t-94.5 25h-441v-676h730z" />
    <glyph glyph-name="F" unicode="F" horiz-adv-x="1331" 
d="M1324 1662l22 -222l-28 28q-92 95 -226 95l-690 1v-691h415q62 0 115.5 31.5t83.5 86.5l33 62v-444l-32 55q-31 52 -83 81.5t-112 29.5h-420v-549q0 -127 79 -226h-454q79 99 79 226v1218q0 121 -71 215l-3 3h1292z" />
    <glyph glyph-name="G" unicode="G" horiz-adv-x="1710" 
d="M750 99q210 -20 362 122t216 394q-54 -323 -213 -473.5t-397 -141.5q-233 8 -404 106.5t-253 259.5t-70 360q8 133 47 251.5t99.5 208.5t139 166t166 128.5t180 92t182 59.5t170 28t146 1t109.5 -25q70 -30 29 -116q-27 -57 -147 -208l-1 -1l-1 -1l-1 -1v-1l-1 -1l-1 -1
l-1 -1v-1l-1 -1l-1 -1l-1 -1l-1 -1v-1l-2 -1q-31 -40 -48 -61q10 44 9.5 95.5t-14 104.5t-45 91.5t-82.5 56t-126 -2.5q-41 -11 -84.5 -28.5t-99 -52t-104 -79t-95.5 -112.5t-78.5 -148.5t-47.5 -192t-8 -238.5q16 -245 156 -430t317 -202zM1376 156q-2 -33 14 -68.5t44 -64
t71.5 -44t90.5 -9.5q3 1 -39.5 -30t-89.5 -62.5t-56 -32.5q-63 -10 -124.5 16t-76.5 83q-11 41 4 86t58 114t47 77q139 260 41 505q-27 66 -87.5 113t-133.5 60q-48 8 -95 7t-94.5 -10.5t-93.5 -24.5t-92.5 -35t-90 -42t-87 -46t-83.5 -47q-27 -16 -40 -23q26 17 155 104
t214 137t166 83q73 29 145.5 44t150 14t143 -38t104.5 -110q30 -57 38.5 -120t-4 -127t-32.5 -119t-52 -119q-6 -12 -28.5 -53.5t-38.5 -73t-31 -73.5t-17 -71z" />
    <glyph glyph-name="H" unicode="H" horiz-adv-x="1757" 
d="M1507 1440v-1218q0 -123 74 -222h-444q74 99 74 222v553h-815v-553q0 -123 74 -222h-443q74 99 74 222v1185q0 102 -74 201q117 -3 221 9q66 8 121.5 19t78.5 18l22 8q-74 -99 -74 -222v-567h815v534q0 102 -74 201q118 -3 222 9q66 8 121.5 19t77.5 18l23 8
q-74 -99 -74 -222z" />
    <glyph glyph-name="I" unicode="I" horiz-adv-x="645" 
d="M396 1440v-1218q0 -123 74 -222h-443q74 99 74 222v1185q0 102 -74 201q117 -3 221 9q66 8 121.5 19t78.5 18l22 8q-74 -99 -74 -222z" />
    <glyph glyph-name="J" unicode="J" horiz-adv-x="858" 
d="M712 1662q-73 -97 -73 -222l1 -1440q0 -132 -96.5 -213t-222.5 -66q-137 16 -219 265q35 -75 77 -121t74 -50q43 -5 65.5 18t24.5 57l1 56l-1 1461q0 102 -74 201q118 -3 222 9q66 8 121 19t78 18z" />
    <glyph glyph-name="K" unicode="K" horiz-adv-x="1648" 
d="M1610 360q19 24 15 11q-8 -23 -26 -49q-222 -327 -475 -326q-47 0 -90 16.5t-75.5 41t-63 65t-51 75.5t-42 87t-33.5 85t-28 82q-112 339 -40 686q10 49 26 102q-1 0 -2 -2l-1 -2q-108 -174 -158 -264q-118 -211 -170 -442v-304q0 -123 74 -222h-443q74 99 74 222v1185
q0 102 -74 201q117 -3 221 9q66 8 121.5 19t78.5 18l22 8q-74 -99 -74 -222v-754q37 107 99 225q145 280 258 440q18 25 43 54.5t63 67t79.5 71t92.5 61.5t100.5 43.5t105.5 13t106 -26.5q133 -64 72 -280q-29 -104 -78 -182l-7 -10v1q1 4 -5.5 24.5t-20.5 52t-33 63.5
t-48 60t-61 40q-52 19 -103.5 20.5t-92.5 -10t-80.5 -33.5t-67 -45t-51.5 -50q-9 -33 -9 -70q0 -76 16 -186q17 -112 57.5 -224t105.5 -257q25 -57 51 -101.5t61 -88.5t81 -76.5t100 -50.5q224 -73 380 128z" />
    <glyph glyph-name="L" unicode="L" horiz-adv-x="1515" 
d="M1326 208l14 14l-22 -222h-1291l10 14q64 86 64 191v1202q0 102 -74 201q117 -3 221 9q66 8 121.5 19t78.5 18l22 8q-74 -99 -74 -222v-1341h671q73 0 140.5 28.5t118.5 80.5z" />
    <glyph glyph-name="M" unicode="M" horiz-adv-x="2158" 
d="M1538 0l13 17q65 82 65 186l-62 1230l-533 -1375l-666 1397l-52 -1230q0 -58 30 -108t81 -79l67 -38h-454l64 36q53 29 83.5 81t30.5 112l52 1194q0 62 -37 113.5t-96 70.5l-46 15l81 -5q174 -10 348 34l45 11l550 -1146l429 1086l54 -3q127 -9 254 33l90 30l-22 -28
q-57 -71 -57 -162l62 -1260q0 -113 71 -201l9 -11h-454z" />
    <glyph glyph-name="N" unicode="N" horiz-adv-x="1730" 
d="M1407 303q0 -94 47.5 -175t130.5 -127l-474 -1l-808 1481v-1178q0 -94 47.5 -175t130.5 -127h-454q83 46 130.5 127t47.5 175v1062q0 81 -41.5 151t-112.5 110l91 -8q156 -14 311 31l47 13l808 -1481v1217q0 74 -43.5 134t-113.5 82l-21 7l130 -3q102 -3 202 18l123 26
l-61 -34q-54 -30 -85.5 -83.5t-31.5 -115.5v-1126z" />
    <glyph glyph-name="O" unicode="O" horiz-adv-x="1701" 
d="M781 1663q157 0 301 -66t248 -177.5t165.5 -265t61.5 -322.5t-61.5 -322.5t-165.5 -265t-248 -177.5t-301 -66q-210 0 -388.5 111.5t-282.5 303t-104 416.5t104 416.5t282.5 303t388.5 111.5zM984 76q76 17 135 73t95.5 140.5t54 189t12.5 222t-31 234.5
q-32 145 -105 277.5t-165 224t-198.5 137t-200.5 24.5t-163 -104.5t-100.5 -203.5t-35.5 -267t31 -294q32 -144 105.5 -275.5t165.5 -221t198.5 -133.5t201.5 -23z" />
    <glyph glyph-name="P" unicode="P" horiz-adv-x="1648" 
d="M1070 1662q173 0 304.5 -113.5t147.5 -281.5q9 -96 -22 -184.5t-90.5 -153t-144 -103t-178.5 -38.5l-689 1l-1 -601q0 -90 45 -163l15 -24l-430 1l12 16q62 84 62 185l2 1273q0 90 -53 160l-21 27zM871 887q139 0 244.5 92.5t112.5 227.5q7 146 -92.5 251t-244.5 105
l-175 1h-317l-1 -676z" />
    <glyph glyph-name="Q" unicode="Q" horiz-adv-x="1757" 
d="M1269 -89q24 -13 63.5 -25.5t106 -10.5t112.5 38l-39 -50q-137 -159 -247 -190q-19 -5 -37 -6q-27 -1 -48.5 5.5t-42 26.5t-28.5 30t-31 41q-12 17 -37 46t-30 35q-11 13 -36 34t-35 32q-12 13 -37 29q-7 4 -21.5 16t-21.5 16q-30 19 -55 26q-2 0 -7.5 0.5t-10.5 1.5
t-10 1.5t-8 1t-3 1.5q-186 29 -337.5 144t-239 293.5t-87.5 383.5q0 169 61.5 322.5t165.5 265t248 177.5t301 66q210 0 388.5 -111.5t282.5 -303t104 -416.5q0 -193 -78 -363.5t-214.5 -286.5t-306.5 -159q23 -10 43 -17q31 -11 87 -40q16 -8 44 -27.5t41 -26.5zM878 99
q130 0 240.5 98t174.5 266.5t64 367.5t-64 367.5t-174.5 266.5t-240.5 98t-240.5 -98t-175 -266.5t-64.5 -367.5t64.5 -367.5t175 -266.5t240.5 -98z" />
    <glyph glyph-name="R" unicode="R" horiz-adv-x="1742" 
d="M1675 186q8 7 8 4q0 -2 -1 -8q-2 -4 -2 -6q-1 -7 -5.5 -16t-8.5 -15t-11.5 -16t-9.5 -13q-42 -60 -89.5 -96t-114.5 -51t-134.5 5t-115.5 69q-19 20 -37 41.5t-37 50t-29 44t-32.5 53l-28.5 47.5q-77 124 -195 288q-63 86 -150 197q-176 9 -256 54q-10 5 -30 17v-606
q0 -130 85 -229h-454l4 6q70 95 70 210v1224q0 123 -74 222h973q181 0 308.5 -128t127.5 -309q0 -154 -95.5 -272t-242.5 -152v-1q-1 0 -3.5 -0.5t-3.5 -0.5q-1 -1 -4 -1t-5 -1q-64 -13 -126 -21q120 -136 262 -345q106 -157 220 -229q38 -23 76.5 -37t84 -11t76.5 32z
M453 859q57 -31 188 -42q-3 5 -11 14.5t-12 14.5q-9 12 -33 45.5t-39 52t-38.5 43.5t-49 39.5t-52.5 20.5q-3 1 -10 1v-154q20 -15 57 -35zM905 833q27 6 50 15q1 0 2 0.5t2 0.5q94 36 141 118.5t41 235.5q-7 168 -101.5 264.5t-236.5 96.5h-407v-450q19 8 45 13
q36 6 73 -1.5t77.5 -31.5t63.5 -40.5t64 -49.5q5 -4 7 -5.5t5.5 -4.5t6.5 -5q75 -59 167 -156z" />
    <glyph glyph-name="S" unicode="S" horiz-adv-x="1359" 
d="M335 1345q5 -56 38.5 -107t86 -90.5t119.5 -79.5t139 -74t146 -75t140 -82.5t120 -95.5t87 -114.5t41 -139.5t-18 -171q-36 -129 -138.5 -205.5t-247.5 -97t-313.5 -2t-351.5 73.5q-43 13 -64 36.5t-15 60.5t15 67t44 82t54 78t62 81q1 1 1.5 2t1.5 2q-6 -97 42 -200
t134 -174t180 -77q153 -9 262.5 66.5t115.5 217.5q3 74 -29.5 138.5t-89.5 113t-131 93.5t-155 86.5t-160.5 85t-148.5 95t-118 110t-69.5 137.5t-2.5 171q20 104 116.5 177t236 102.5t313 20t345.5 -61.5q43 -13 64 -36.5t15 -60.5t-15 -67t-44 -82t-54 -78t-62 -81
q-1 -1 -1.5 -2t-1.5 -2q24 400 -277 429q-114 11 -209.5 -15.5t-153.5 -93t-49 -161.5z" />
    <glyph glyph-name="T" unicode="T" horiz-adv-x="1378" 
d="M1684 1662l22 -222l-52 53q-68 70 -167 70h-473v-1355q0 -122 74 -221h-443q74 99 74 221v1355h-474q-99 0 -167 -70l-51 -53l22 222h1635z" />
    <glyph glyph-name="U" unicode="U" horiz-adv-x="1683" 
d="M1357 1617q66 8 121.5 19t77.5 18l23 8q-74 -99 -74 -222v-739q0 -191 -94 -352.5t-255.5 -255.5t-352.5 -94t-352.5 94t-255.5 255.5t-94 352.5v706q0 102 -74 201q117 -3 221 9q66 8 121.5 19t78.5 18l22 8q-74 -99 -74 -222v-935q0 -168 119.5 -287.5t287.5 -119.5
t287 119.5t119 287.5v902q0 102 -74 201q118 -3 222 9z" />
    <glyph glyph-name="U" unicode="&#xda;" horiz-adv-x="1683" 
d="M1357 1617q66 8 121.5 19t77.5 18l23 8q-74 -99 -74 -222v-739q0 -191 -94 -352.5t-255.5 -255.5t-352.5 -94t-352.5 94t-255.5 255.5t-94 352.5v706q0 102 -74 201q117 -3 221 9q66 8 121.5 19t78.5 18l22 8q-74 -99 -74 -222v-935q0 -168 119.5 -287.5t287.5 -119.5
t287 119.5t119 287.5v902q0 102 -74 201q118 -3 222 9z" />
    <glyph glyph-name="V" unicode="V" horiz-adv-x="1589" 
d="M1382 1602q62 8 115.5 23t75.5 26l22 11l-24 -15q-65 -40 -105 -95.5t-69 -143.5l-409 -1408h-297l-533 1407q-28 80 -54.5 123t-76.5 78q140 -3 242 9q64 8 117.5 19t75.5 18l21 8q-6 -11 -20.5 -32.5t-18.5 -31t-8.5 -31t-0.5 -49t14 -67.5l485 -1301l359 1242
q15 58 -1 103t-56 67l-84 45q13 -2 35 -4t86.5 -5.5t108.5 4.5z" />
    <glyph glyph-name="W" unicode="W" horiz-adv-x="2109" 
d="M1882 1602q62 8 115.5 23t75.5 26l22 11l-24 -15q-137 -85 -174 -239l-323 -1408h-321l-191 1148l-157 -1148h-321l-426 1407q-23 72 -51.5 118.5t-79.5 81.5q140 -2 242 10q64 8 117.5 19t75.5 18l21 8q-2 -3 -12 -20t-11.5 -20l-9 -18t-8 -21t-5 -20.5t-3.5 -25
t1.5 -26.5t4 -33.5t8.5 -37.5l391 -1286l150 1053q23 191 -74 340q-28 43 -53 61q140 -3 242 9q123 14 203 41l7 4l-5 -3l9 3q-19 -33 -25 -45t-14 -39t-6 -58.5t10 -79.5l225 -1285l293 1263q10 43 -8 83t-57 61l-84 45q13 -2 35 -4t86.5 -5.5t108.5 4.5z" />
    <glyph glyph-name="X" unicode="X" horiz-adv-x="1658" 
d="M995 0l32 32q51 52 13 145l-397 586l-295 -553q-30 -46 -17.5 -100t59.5 -83l43 -27h-443l117 62q70 36 113 103l373 684l-391 586q-39 51 -57 72.5t-52.5 50.5t-76.5 49q15 -2 39.5 -3.5t93 -3.5t107.5 5q64 8 118 22t76 25l21 10q-30 -44 -28 -92.5t46 -122.5l258 -395
l205 341q5 8 13.5 23.5t13 23.5t11 21t9 20t5.5 17.5t2.5 17t-2.5 13.5t-7.5 12.5t-14.5 10.5l-99 55q14 -2 35.5 -4t86.5 -5.5t109 4.5q113 13 196 52l14 8l-13 -8l15 8l-24 -15q-13 -8 -44 -25.5t-47 -28.5q-60 -44 -107 -114q-10 -16 -32 -52l-267 -446l532 -807
q51 -76 127 -127l70 -47h-539z" />
    <glyph glyph-name="Y" unicode="Y" horiz-adv-x="1626" 
d="M1450 1602q118 15 209 53q-87 -50 -194 -247l-452 -847v-341q0 -123 74 -222h-444q74 99 74 222v341l-514 843q-56 93 -104 136.5t-146 67.5q199 -3 301 9q64 8 139.5 19t118.5 18l43 8q-70 -54 -72.5 -110.5t60.5 -170.5l415 -682l348 632q31 76 37.5 123.5t-3.5 67.5
t-36 40l-84 45q13 -2 35 -4t86.5 -5.5t108.5 4.5z" />
    <glyph glyph-name="Z" unicode="Z" horiz-adv-x="1384" 
d="M1170 181l42 42l-24 -222v-1h-1157v99l852 1464h-638q-99 0 -167 -70l-51 -53l22 222h1160v-55l-875 -1508h640q114 0 196 82z" />
    <glyph glyph-name="bracketleft" unicode="[" horiz-adv-x="5146" 
d="M2291 1189q41 -17 69 -63t28 -132q0 -62 -15 -106q-16 -46 -40 -70q-17 -18 -49 -28q-30 -10 -86 -10h-117v420h116q63 0 94 -11zM2740 563q15 -11 24 -28q8 -19 8 -42q0 -38 -19 -58q-19 -21 -48 -21t-48 21q-19 20 -19 55q0 44 20 64q19 19 47 19q21 0 35 -10z
M4056 1184q43 -27 66 -77q23 -51 23 -118q0 -105 -53 -164q-51 -57 -136 -57q-80 0 -134 57q-53 56 -53 156q0 125 56 178t133 53q53 0 98 -28zM1571 1494h3324l-913 -1308h-2411q148 119 230 291t82 363t-82 362.5t-230 291.5zM2321 568h106v24h-132v-197h26v89h92v24h-92
v60zM2448 882q15 48 15 111q0 70 -22 130q-21 57 -65 95q-33 29 -80 39q-37 8 -98 8h-190v-550h199q49 0 88 9q37 8 66 28q27 18 50 50q21 30 37 80zM2787 440q12 24 12 53q0 31 -12 53q-12 23 -33 36q-20 13 -49 13q-40 0 -68 -28q-26 -28 -26 -76q0 -25 11 -49
q13 -24 34 -37q22 -13 49 -13q25 0 48 12q22 12 34 36zM2565 715h410v65h-338v187h305v64h-305v169h325v65h-397v-550zM3145 395v197h-25v-155l-103 155h-27v-197h25v154l103 -154h27zM3423 568h65v24h-156v-24h65v-173h26v173zM3598 715v550h-98l-131 -383
q-6 -17 -16.5 -47t-13.5 -41q-5 18 -26 81l-130 390h-110v-550h71v468l159 -468h65l160 460v-460h70zM4090 739q64 36 96 100q34 65 34 150q0 82 -32 148q-31 64 -94 101q-61 36 -137 36q-117 0 -190 -77t-73 -214q0 -75 31 -138q31 -65 93 -102q62 -38 139 -38q72 0 133 34
zM943 1680q171 0 326.5 -66.5t268 -179t179 -268t66.5 -326.5t-66.5 -326.5t-179 -268t-268 -179t-326.5 -66.5t-326.5 66.5t-268.5 179t-179.5 268t-66.5 326.5t66.5 326.5t179.5 268t268.5 179t326.5 66.5zM943 102q200 0 370 99t269 269t99 370t-99 370t-269 269t-370 99
t-370 -99t-269 -269t-99 -370t99 -370t269 -269t370 -99zM1201 1267q-36 -81 -168.5 -325t-184.5 -388q-37 -103 -46 -191q-2 -21 3 -57.5t7 -56.5t-8 -45q-11 -17 -27 -20.5t-32.5 4.5t-31 19.5t-26.5 25.5q-18 26 -19.5 69.5t13.5 100.5t36.5 117.5t56.5 135t66.5 137.5
t74 140t71.5 128t66.5 115.5t51.5 89.5q33 60 45.5 98t3 50t-48 -10t-102.5 -79q-175 -163 -444 -511q-94 -126 -188 -247q-23 -31 -43 -31q-31 0 -35 15v12q20 67 55.5 156.5t75.5 175t78.5 158t69.5 113t45 31.5v-4q-41 -96 -73 -166q-41 -91 -21.5 -112t95.5 67
q24 28 99.5 121t134.5 160t111 118q86 81 150.5 106.5t93 0.5t28.5 -84t-33 -137zM1056 881q0 16 11 27.5t27 11.5t27.5 -11.5t11.5 -27.5t-11.5 -27t-27.5 -11t-27 11t-11 27zM1462 704q9 -8 10 -20t-7 -24l-1 -1q-76 -71 -99 -89q-34 -27 -63 -39q-18 -7 -29 -7
q-15 0 -26 11q-10 10 -12 33q-2 20 3 41q0 3 2 8t3 7q-43 -66 -74 -87q-18 -14 -47 -12q-14 0 -24 6q-13 8 -16 19v2v6v3q-73 -39 -128 -15h-1q-16 11 -20 24q-5 15 -3 33q3 32 21 75q26 64 62 114q20 31 47 20q13 -5 16 -18t-7 -28q-45 -70 -60 -114q-5 -18 -5 -30l1 -5
q25 -4 66 24q42 29 63 72q70 193 223 572q15 41 42 44q11 1 19 -7q10 -10 12 -20v-3v-11v-2q-2 -8 -19 -55q-17 -45 -48 -126q-94 -238 -166 -418q12 15 26 29q30 30 50 38q32 12 54 -8v-1q9 -9 11 -27q1 -9 -3 -33q-4 -26 -21 -72v-3.5t-1 -2.5q4 2 5 3q34 27 102 92
q21 21 42 2zM926 438q6 -3 12 -11q5 -7 5 -14t-5 -15q-4 -6 -13 -11q-6 -3 -19 -3q-17 0 -23 3q-10 5 -14 12q-5 8 -5 18l12 1q2 -9 4 -12q4 -5 10 -8q8 -3 15 -3q2 0 14 3q5 1 8 6q3 4 3 8q0 5 -3 8t-9 6q-11 4 -17 5q-14 3 -20 6t-10 10q-4 8 -4 12q0 7 5 14q6 7 12 10
q8 3 18 3q11 0 20 -3q8 -3 13 -11t5 -15l-13 -1q-2 10 -7 14q-7 5 -17 5q-11 0 -18 -5q-5 -4 -5 -10t4 -9q4 -4 20 -7t22 -6zM968 473v12h79v-12h-33v-88h-13v88h-33zM1141 427v58h14v-58q0 -12 -4 -24q-3 -8 -12 -14q-7 -5 -23 -5q-15 0 -23 4t-13 14q-4 8 -4 25v58h13v-58
q0 -13 3 -19q3 -7 8 -9q8 -4 14 -4q14 0 21 7q6 6 6 25zM1258 476q7 -6 12 -17q4 -9 4 -24q0 -11 -3 -20q-4 -11 -6 -14q-5 -6 -9 -9q-6 -4 -12 -5q-10 -2 -16 -2h-36v100h34q10 0 18 -2q6 -1 14 -7zM1258 417q3 7 3 19q0 14 -5 24q-4 7 -13 11q-8 2 -17 2h-21v-76h21
q8 0 16 2q5 1 9 5q3 3 7 13zM1323 385h-13v100h13v-100zM1430 480q11 -6 17 -19q6 -12 6 -26q0 -15 -6 -27q-5 -11 -18 -18q-11 -6 -24 -6q-17 0 -25 6q-12 8 -17 19q-5 10 -5 25q0 25 13 38q14 14 34 14q15 0 25 -6zM1430 405q9 11 9 30q0 13 -4 21q-5 10 -12 14
q-8 5 -18 5q-13 0 -24 -9q-10 -9 -10 -32q0 -17 10 -29q9 -10 24 -10q16 0 25 10zM4520 722l375 -536h-749z" />
    <glyph glyph-name="backslash" unicode="\" horiz-adv-x="5187" 
d="M2292 1189q40 -17 69 -63q28 -46 28 -132q0 -62 -15 -106q-16 -46 -40 -70q-18 -18 -49 -28q-30 -10 -86 -10h-117v420h116q63 0 94 -11zM2742 563q16 -11 23 -28q8 -19 8 -42q0 -39 -18 -58q-19 -21 -49 -21q-28 0 -48 21q-19 20 -19 55q0 44 20 64q19 19 48 19
q21 0 35 -10zM4058 1184q43 -27 66 -77q23 -51 23 -118q0 -105 -53 -164q-51 -57 -136 -57q-80 0 -134 57q-53 56 -53 156q0 126 55 178q56 53 133 53q54 0 99 -28zM1571 1494h3326l-913 -1308h-2413q148 119 230.5 291t82.5 363q0 190 -82 362t-231 292zM2322 568h106v24
h-132v-197h26v89h92v24h-92v60zM2449 882q15 48 15 111q0 73 -21 130q-21 56 -66 95q-33 29 -80 39q-35 8 -98 8h-190v-550h199q49 0 88 9q37 8 66 28q27 18 50 50q21 30 37 80zM2788 440q12 24 12 53q0 32 -11 53q-11 22 -34 36q-20 13 -49 13q-39 0 -67 -28
q-27 -29 -27 -76q0 -23 12 -49q11 -24 33 -37t49 -13q26 0 48 12t34 36zM2977 715v65h-338v187h304v64h-304v169h325v65h-398v-550h411zM3120 395h27v197h-25v-155l-103 155h-27v-197h25v154zM3490 568v24h-156v-24h65v-173h26v173h65zM3530 715h70v550h-98l-132 -383
q-26 -78 -29 -88q-2 7 -10.5 34t-15.5 47l-130 390h-110v-550h70v468l159 -468h66l160 460v-460zM4092 739q62 35 96 100t34 150q0 82 -32 148q-31 64 -94 101q-62 36 -137 36q-117 0 -190 -77t-73 -214q0 -75 31 -138q31 -65 93 -102q62 -38 139 -38q72 0 133 34zM943 1680
q171 0 326.5 -66.5t268.5 -179t179.5 -268t66.5 -326.5t-66.5 -326.5t-179.5 -268t-268.5 -179t-326.5 -66.5t-326.5 66.5t-268.5 179t-179.5 268t-66.5 326.5t66.5 326.5t179.5 268t268.5 179t326.5 66.5zM943 102q150 0 287 58.5t235.5 157.5t157 235.5t58.5 286.5
t-58.5 286.5t-157 235.5t-235.5 157.5t-287 58.5t-287 -58.5t-235.5 -157.5t-157 -235.5t-58.5 -286.5t58.5 -286.5t157 -235.5t235.5 -157.5t287 -58.5zM1201 1267q-38 -86 -110 -216.5t-137 -258t-105 -238.5q-39 -113 -47 -191q-2 -21 3.5 -57.5t7.5 -57t-8 -44.5
q-15 -25 -38.5 -21.5t-43 17t-36.5 33.5q-18 26 -19.5 69.5t13.5 100.5t36.5 118t56.5 135t67 137.5t74 139.5t71.5 127.5t66.5 115.5t52 90q22 40 35 70t16.5 50.5t-4 27.5t-25.5 1t-50 -29t-75 -61q-172 -160 -443 -511q-71 -95 -189 -247q-23 -31 -43 -31q-29 0 -34 15
v12q20 67 55.5 156.5t75.5 175t78.5 158t69.5 113t45 31.5v-4q-28 -65 -74 -166q-41 -91 -21.5 -112t95.5 67q22 25 99.5 120t135.5 161.5t111 117.5q86 81 150.5 106.5t92.5 0.5t28 -84t-33 -137zM1056 881q0 16 11.5 27.5t27.5 11.5t27 -11.5t11 -27.5t-11 -27t-27 -11
t-27.5 11t-11.5 27zM1463 704q9 -8 10 -20t-7 -24l-1 -1q-76 -71 -99 -89q-34 -27 -63 -39q-17 -7 -29 -7q-15 0 -26 11q-10 10 -12 33q-2 20 3 41q1 3 2 8t2 7q-44 -67 -73 -87q-18 -14 -47 -12q-13 0 -24 6q-13 8 -16 19v2v6v3q-73 -39 -129 -15h-1q-14 9 -19 24
q-4 15 -3 33q3 32 21 75q26 64 62 114q20 31 47 20q13 -5 16 -18t-7 -28q-45 -70 -60 -114q-6 -21 -6 -30l1 -5h1q25 -4 65 24q44 30 64 72q88 238 223 572q15 41 41 44q11 2 20 -7q8 -8 11 -20v-1q1 -1 1 -2v-11v-2q-2 -8 -19 -55q-16 -45 -48 -126q-94 -238 -166 -418
q16 20 25 29q30 30 51 38q31 12 53 -8l1 -1q9 -9 11 -27q1 -9 -3 -33q-4 -26 -21 -72l-2 -6q4 2 5 3q34 27 102 92q9 9 22 9.5t21 -7.5zM926 438q8 -4 13 -11q4 -5 4 -14q0 -7 -5 -15q-4 -6 -13 -11q-6 -3 -19 -3q-16 0 -22 3q-11 6 -15 12q-5 8 -5 18l12 1q2 -9 4 -12
q4 -5 10 -8q8 -3 16 -3q1 0 13 3q6 2 9 6q2 3 2 8q0 6 -2 8q-3 3 -9 6q-9 3 -18 5q-13 3 -19 6q-8 3 -11 10q-3 6 -3 12q0 9 4 14q6 7 12 10q8 3 19 3q10 0 19 -3q8 -3 13 -11t5 -15l-13 -1q-2 11 -6 14q-7 5 -18 5q-10 0 -17 -5q-6 -4 -6 -10t4 -9q4 -4 20 -7t22 -6z
M969 473v12h79v-12h-33v-88h-13v88h-33zM1142 427v58h13v-58q0 -15 -3 -24q-3 -8 -12 -14q-8 -5 -24 -5q-15 0 -23 4q-7 3 -12 14q-4 8 -4 25v58h13v-58q0 -15 2 -19q3 -6 9 -9q8 -4 14 -4q14 0 21 7q6 6 6 25zM1259 476q9 -7 12 -17q4 -9 4 -24q0 -11 -3 -20q-3 -8 -7 -14
q-5 -6 -9 -9q-6 -4 -12 -5q-10 -2 -16 -2h-36v100h35q9 0 17 -2q7 -1 15 -7zM1258 417q3 7 3 19q0 14 -5 24q-4 8 -12 11q-8 2 -17 2h-21v-76h21q7 0 15 2q5 1 9 5q3 3 7 13zM1324 385h-14v100h14v-100zM1431 480q11 -6 17 -19q5 -10 5 -26q0 -15 -6 -27t-17 -18
q-10 -6 -24 -6q-17 0 -25 6q-12 8 -17 19q-6 12 -6 25q0 24 14 38t34 14q14 0 25 -6zM1430 405q10 12 10 30q0 13 -4 21q-5 10 -12 14q-8 5 -18 5q-14 0 -24 -9t-10 -33q0 -17 9 -28q9 -10 25 -10q15 0 24 10zM4523 722l374 -536h-749z" />
    <glyph glyph-name="bracketright" unicode="]" horiz-adv-x="5146" 
d="M2291 1189q41 -17 69 -63t28 -132q0 -62 -15 -106q-16 -46 -40 -70q-17 -18 -49 -28q-30 -10 -86 -10h-117v420h115q64 0 95 -11zM2740 563q17 -12 24 -28q8 -19 8 -42q0 -38 -19 -58q-19 -21 -48 -21t-48 21q-19 20 -19 55q0 44 20 64q19 19 47 19q21 0 35 -10z
M4056 1184q43 -27 66 -77q23 -51 23 -118q0 -105 -53 -164q-51 -57 -136 -57q-80 0 -134 57q-53 56 -53 156q0 126 55 178q56 53 134 53q53 0 98 -28zM1571 1494h3324l-913 -1308h-2411q148 119 230 291t82 363t-82 362.5t-230 291.5zM2427 568v24h-132v-197h26v89h92v24
h-92v60h106zM2448 882q15 48 15 111q0 70 -22 130q-21 57 -65 95q-33 29 -80 39q-37 8 -98 8h-190v-550h199q49 0 88 9q37 8 66 28q27 18 50 50q21 30 37 80zM2787 440q12 24 12 53q0 31 -12 53q-12 23 -33 36q-20 13 -49 13q-40 0 -68 -28q-26 -28 -26 -76q0 -25 11 -49
q13 -24 34 -37q22 -13 49 -13q25 0 48 12q22 12 34 36zM2565 715h410v65h-338v187h305v64h-305v169h325v65h-397v-550zM3145 395v197h-25v-155l-103 155h-27v-197h25v154l103 -154h27zM3423 568h65v24h-156v-24h65v-173h26v173zM3598 715v550h-98l-131 -383
q-6 -17 -16.5 -47t-13.5 -41q-5 18 -26 81l-130 390h-110v-550h71v468l159 -468h65l160 460v-460h70zM4090 739q64 36 96 100q34 65 34 150q0 82 -32 148q-31 64 -94 101q-61 36 -137 36q-117 0 -190 -77t-73 -214q0 -75 31 -138q31 -65 93 -102q62 -38 139 -38q72 0 133 34
zM943 1680q171 0 326.5 -66.5t268 -179t179 -268t66.5 -326.5t-66.5 -326.5t-179 -268t-268 -179t-326.5 -66.5t-326.5 66.5t-268.5 179t-179.5 268t-66.5 326.5t66.5 326.5t179.5 268t268.5 179t326.5 66.5zM943 102q200 0 370 99t269 269t99 370t-99 370t-269 269t-370 99
t-370 -99t-269 -269t-99 -370t99 -370t269 -269t370 -99zM1201 1267q-36 -81 -168.5 -325t-184.5 -388q-37 -103 -46 -191q-2 -21 3 -57.5t7 -56.5t-8 -45q-11 -17 -27 -20.5t-32.5 4.5t-31 19.5t-26.5 25.5q-18 26 -19.5 69.5t13.5 100.5t36.5 117.5t56.5 135t66.5 137.5
t74 140t71.5 128t66.5 115.5t51.5 89.5q33 60 45.5 98t3 50t-48 -10t-102.5 -79q-175 -163 -444 -511q-94 -126 -188 -247q-23 -31 -43 -31q-31 0 -35 15v12q20 67 55.5 156.5t75.5 175t78.5 158t69.5 113t45 31.5v-4q-41 -96 -73 -166q-41 -91 -21.5 -112t95.5 67
q24 28 99.5 121t134.5 160t111 118q86 81 150.5 106.5t93 0.5t28.5 -84t-33 -137zM1056 881q0 16 11 27.5t27 11.5t27.5 -11.5t11.5 -27.5t-11.5 -27t-27.5 -11t-27 11t-11 27zM1462 704q9 -8 10 -20t-8 -24l-1 -1q-81 -76 -98 -89q-34 -27 -63 -39q-18 -7 -29 -7
q-15 0 -26 11q-10 10 -12 33q-2 20 3 41q0 3 1.5 8t2.5 7q-44 -67 -73 -87q-18 -14 -47 -12q-14 0 -24 6q-13 8 -16 19v2v6v3q-73 -39 -128 -15h-1q-16 11 -20 24q-5 15 -3 33q3 32 21 75q26 64 62 114q20 31 47 20q13 -5 16 -18t-7 -28q-45 -70 -60 -114q-5 -18 -5 -30
l1 -5q25 -4 66 24q42 29 63 72q88 238 223 572q15 41 42 44q11 1 19 -7t11 -20l1 -1v-2v-11v-2q-2 -8 -19 -55q-17 -45 -48 -126q-94 -238 -166 -418q12 15 26 29q30 30 50 38q32 12 54 -8v-1q9 -9 11 -27q1 -9 -3 -33q-4 -26 -21 -72v-3.5t-1 -2.5q4 2 5 3q34 27 102 92
q21 21 42 2zM926 438q6 -3 12 -11q4 -5 4 -14q0 -8 -4 -15q-4 -6 -13 -11q-6 -3 -19 -3q-17 0 -23 3q-10 5 -14 12q-6 10 -6 18l13 1q2 -9 4 -12q4 -5 10 -8q8 -3 15 -3q2 0 14 3q5 1 8 6q3 4 3 8q0 5 -3 8t-9 6q-11 4 -17 5q-14 3 -20 6t-10 10q-4 8 -4 12q0 9 4 14
q5 7 13 10t18 3q11 0 20 -3q8 -3 13 -11t5 -15l-13 -1q-2 10 -7 14q-7 5 -17 5q-11 0 -18 -5q-5 -4 -5 -10t4 -9q4 -4 20 -7t22 -6zM968 473v12h79v-12h-33v-88h-13v88h-33zM1141 427l1 58h13v-58q0 -12 -4 -24q-3 -8 -12 -14q-7 -5 -23 -5q-15 0 -23 4t-13 14q-4 8 -4 25
v58h14v-58q0 -15 2 -19q3 -7 8 -9q8 -4 15 -4q13 0 20 7q6 6 6 25zM1258 476q7 -6 12 -17q4 -9 4 -24q0 -11 -3 -20q-4 -11 -6 -14q-5 -6 -9 -9q-6 -4 -12 -5q-10 -2 -16 -2h-36v100h34q10 0 18 -2q6 -1 14 -7zM1258 417q3 7 3 19q0 14 -5 24q-4 7 -13 11q-8 2 -17 2h-21
v-76h21q8 0 16 2q5 1 9 5q3 3 7 13zM1323 385h-13v100h13v-100zM1430 480q11 -6 17 -19q6 -12 6 -26q0 -15 -6 -27q-5 -11 -18 -18q-11 -6 -24 -6q-17 0 -25 6q-12 8 -17 19q-5 10 -5 25q0 25 13 38q14 14 34 14q15 0 25 -6zM1430 405q9 11 9 30q0 13 -4 21q-5 10 -12 14
q-8 5 -18 5q-13 0 -24 -9q-10 -9 -10 -32q0 -17 10 -29q9 -10 24 -10q16 0 25 10zM4520 722l375 -536h-749z" />
    <glyph glyph-name="asciicircum" unicode="^" horiz-adv-x="4999" 
d="M2291 1189q39 -16 68 -63t29 -132q0 -62 -15 -106q-16 -46 -40 -70q-17 -18 -49 -28q-30 -10 -86 -10h-117v420h115q64 0 95 -11zM2740 563q15 -11 24 -28q8 -19 8 -42q0 -38 -19 -58q-19 -21 -48 -21t-48 21q-19 20 -19 55q0 44 20 64q19 19 47 19q21 0 35 -10z
M4056 1184q43 -27 66 -77q23 -51 23 -118q0 -105 -53 -164q-51 -57 -136 -57q-80 0 -134 57q-53 56 -53 156q0 126 55 178q56 53 133 53q54 0 99 -28zM1571 1494h3324l-913 -1308h-2411q148 119 230 291t82 363t-82 362.5t-230 291.5zM2321 568h106v24h-132v-197h26v89h92
v24h-92v60zM2448 882q15 48 15 111q0 70 -22 130q-21 57 -65 95q-33 29 -80 39q-35 8 -98 8h-190v-550h199q49 0 88 9q37 8 66 28q27 18 50 50q21 30 37 80zM2787 440q12 24 12 53q0 32 -11 53q-11 22 -34 36q-20 13 -49 13q-40 0 -68 -28q-26 -28 -26 -76q0 -25 11 -49
q11 -23 34 -37q20 -13 49 -13q25 0 48 12q22 12 34 36zM2564 715h411v65h-338v187h305v64h-305v169h325v65h-398v-550zM3145 395v197h-25v-155l-103 155h-27v-197h25v154l103 -154h27zM3423 568h65v24h-156v-24h65v-173h26v173zM3598 715v550h-98l-131 -383
q-6 -17 -16.5 -47t-13.5 -41q-2 7 -10.5 34t-15.5 47l-130 390h-110v-550h70v468l160 -468h65l160 460v-460h70zM4090 739q62 35 96 100t34 150q0 82 -32 148q-31 64 -94 101q-61 36 -137 36q-117 0 -190 -77t-73 -214q0 -75 31 -138q31 -65 93 -102q62 -38 139 -38
q72 0 133 34zM943 1680q171 0 326.5 -66.5t268 -179t179 -268t66.5 -326.5t-66.5 -326.5t-179 -268t-268 -179t-326.5 -66.5t-326.5 66.5t-268.5 179t-179.5 268t-66.5 326.5t66.5 326.5t179.5 268t268.5 179t326.5 66.5zM943 102q200 0 370 99t269 269t99 370t-99 370
t-269 269t-370 99t-370 -99t-269 -269t-99 -370t99 -370t269 -269t370 -99zM1201 1267q-36 -81 -168.5 -325t-184.5 -388q-37 -103 -46 -191q-2 -21 3 -57.5t7 -56.5t-8 -45q-11 -17 -27 -20.5t-32.5 4.5t-31 19.5t-26.5 25.5q-18 26 -19 69.5t13.5 100.5t36 118t56.5 134.5
t67 137.5t74 139.5t71.5 128t66 115.5t51.5 90q33 60 45.5 98t3 50t-48 -10t-102.5 -79q-175 -163 -444 -511q-94 -126 -188 -247q-23 -31 -43 -31q-31 0 -35 15v12q20 67 55.5 156.5t75.5 175t78.5 158t69.5 113t45 31.5v-4q-41 -96 -73 -166q-41 -91 -21.5 -112t95.5 67
q24 28 99.5 121t134.5 160t111 118q86 81 150.5 106.5t93 0.5t28.5 -84t-33 -137zM1056 881q0 16 11 27.5t27 11.5t27.5 -11.5t11.5 -27.5t-11.5 -27t-27.5 -11t-27 11t-11 27zM1462 704q9 -8 10 -20t-7 -24l-1 -1q-76 -71 -99 -89q-34 -27 -63 -39q-18 -7 -29 -7
q-15 0 -26 11q-10 10 -12 33q-2 20 3 41q0 3 2 8t3 7q-43 -66 -74 -87q-18 -14 -47 -12q-14 0 -24 6q-13 8 -16 19v2v6v3q-73 -39 -128 -15h-1q-16 9 -20 24q-5 15 -3 33q3 32 21 75q26 64 62 114q20 31 47 20q13 -5 16 -18t-7 -28q-45 -70 -60 -114q-5 -18 -5 -30l1 -5
q25 -4 66 24q42 29 63 72q88 238 223 572q15 41 42 44q11 1 19 -7q10 -10 12 -20v-3v-11v-2q-2 -8 -19 -55q-17 -45 -48 -126q-94 -238 -166 -418q12 15 26 29q30 30 50 38q32 12 54 -8v-1q9 -9 11 -27q1 -9 -3 -33q-4 -26 -21 -72v-3.5t-1 -2.5q4 2 5 3q34 27 102 92
q21 21 42 2zM926 438q6 -3 12 -11q4 -5 4 -14q0 -8 -4 -15q-4 -6 -13 -11q-6 -3 -19 -3q-17 0 -23 3q-10 5 -14 12q-6 10 -6 18l13 1q2 -9 4 -12q4 -5 10 -8q8 -3 15 -3q2 0 14 3q5 1 8 6q3 4 3 8q0 5 -3 8t-9 6q-11 4 -17 5q-14 3 -20 6t-10 10q-4 8 -4 12q0 7 5 14
q6 7 12 10q9 3 18 3q11 0 20 -3q8 -3 13 -11t5 -15l-13 -1q-2 10 -7 14q-7 5 -17 5q-11 0 -18 -5q-5 -4 -5 -10t4 -9q4 -4 20 -7t22 -6zM968 473v12h79v-12h-33v-88h-13v88h-33zM1141 427v58h14v-58q0 -12 -4 -24q-3 -8 -12 -14q-7 -5 -23 -5q-15 0 -23 4t-13 14
q-4 12 -4 25v58h13v-58q0 -13 3 -19q3 -7 8 -9q8 -4 15 -4q13 0 20 7q6 6 6 25zM1258 476q7 -6 12 -17q4 -9 4 -24q0 -11 -3 -20q-4 -11 -6 -14q-3 -5 -10 -9q-6 -4 -11 -5q-10 -2 -16 -2h-36v100h34q10 0 18 -2q6 -1 14 -7zM1258 417q3 7 3 19t-6 24q-4 8 -12 11
q-8 2 -17 2h-21v-76h21q8 0 16 2q5 1 9 5q3 3 7 13zM1323 385h-13v100h13v-100zM1430 480q11 -6 17 -19q6 -12 6 -26q0 -15 -6 -27q-5 -11 -18 -18q-11 -6 -24 -6q-17 0 -25 6q-12 8 -17 19q-5 10 -5 25q0 25 13 38q14 14 34 14q15 0 25 -6zM1429 405q10 12 10 30
q0 13 -4 21q-5 10 -12 14q-8 5 -18 5q-13 0 -24 -9q-10 -9 -10 -32q0 -17 10 -29q9 -10 24 -10t24 10zM4520 722l374 -536h-748z" />
    <glyph glyph-name="underscore" unicode="_" horiz-adv-x="5146" 
d="M2291 1189q39 -16 68 -63t29 -132q0 -62 -15 -106q-16 -46 -40 -70q-17 -18 -49 -28q-30 -10 -86 -10h-117v420h115q64 0 95 -11zM2740 563q15 -11 24 -28q8 -19 8 -42q0 -38 -19 -58q-19 -21 -48 -21t-48 21q-19 20 -19 55q0 44 20 64q19 19 47 19q21 0 35 -10z
M4056 1184q43 -27 66 -77q23 -51 23 -118q0 -105 -53 -164q-51 -57 -136 -57q-80 0 -134 57q-53 56 -53 156q0 126 55 178q56 53 133 53q54 0 99 -28zM1571 1494h3324l-913 -1308h-2411q148 119 230 291t82 363t-82 362.5t-230 291.5zM2427 568v24h-132v-197h26v89h92v24
h-92v60h106zM2448 882q15 48 15 111q0 70 -22 130q-21 57 -65 95q-33 28 -81 39q-37 8 -97 8h-190v-550h199q49 0 88 9q37 8 66 28q27 18 50 50q21 30 37 80zM2787 440q12 24 12 53q0 31 -12 53q-12 23 -33 36q-20 13 -49 13q-42 0 -68 -28t-26 -76q0 -25 11 -49t33 -37
t50 -13q25 0 48 12q22 12 34 36zM2564 715h411v65h-338v187h305v64h-305v169h325v65h-398v-550zM3118 395h27v197h-25v-155l-103 155h-27v-197h25v154zM3423 568h65v24h-156v-24h65v-173h26v173zM3598 715v550h-98l-131 -383q-6 -17 -16.5 -47t-13.5 -41q-2 7 -10.5 34
t-15.5 47l-130 390h-110v-550h70v468l160 -468h65l160 460v-460h70zM4090 739q64 36 96 100q34 65 34 150q0 82 -32 148q-31 64 -94 101q-61 36 -137 36q-117 0 -190 -77t-73 -214q0 -75 31 -138q31 -65 93 -102q62 -38 139 -38q72 0 133 34zM943 1680q171 0 326.5 -66.5
t268 -179t179 -268t66.5 -326.5t-66.5 -326.5t-179 -268t-268 -179t-326.5 -66.5t-326.5 66.5t-268.5 179t-179.5 268t-66.5 326.5t66.5 326.5t179.5 268t268.5 179t326.5 66.5zM943 102q200 0 370 99t269 269t99 370t-99 370t-269 269t-370 99t-370 -99t-269 -269t-99 -370
t99 -370t269 -269t370 -99zM1201 1267q-36 -81 -168.5 -325t-184.5 -388q-37 -103 -46 -191q-2 -21 3 -57.5t7 -56.5t-8 -45q-11 -17 -27 -20.5t-32.5 4.5t-31 19.5t-26.5 25.5q-18 26 -19 69.5t13.5 100.5t36 118t56.5 134.5t67 137.5t74 139.5t71.5 128t66 115.5t51.5 90
q33 60 45.5 98t3 50t-48 -10t-102.5 -79q-175 -163 -444 -511q-94 -126 -188 -247q-23 -31 -43 -31q-31 0 -35 15v12q20 67 55.5 156.5t75.5 175t78.5 158t69.5 113t45 31.5v-4q-41 -96 -73 -166q-41 -91 -21.5 -112t95.5 67q24 28 99.5 121t134.5 160t111 118
q86 81 150.5 106.5t93 0.5t28.5 -84t-33 -137zM1056 881q0 16 11 27.5t27 11.5t27.5 -11.5t11.5 -27.5t-11.5 -27t-27.5 -11t-27 11t-11 27zM1462 704q9 -8 10 -20t-7 -24l-1 -1q-76 -71 -99 -89q-34 -27 -63 -39q-18 -7 -29 -7q-15 0 -26 11q-10 10 -12 33q-1 16 4 41
q1 3 2 8t2 7q-43 -66 -74 -87q-18 -14 -46 -12q-15 0 -25 6q-13 8 -16 19v2v6v3q-73 -39 -128 -15h-1q-16 11 -20 24q-5 15 -3 33q3 32 21 75q26 64 62 114q20 31 48 20q12 -4 15 -18q3 -13 -7 -28q-43 -67 -59 -114q-6 -17 -6 -30l1 -5q25 -4 66 24q42 29 63 72
q88 238 223 572q15 41 42 44q11 2 20 -7q8 -8 11 -20v-3v-11v-2q-2 -8 -19 -55q-17 -45 -48 -126q-94 -238 -166 -418q12 15 26 29q30 30 50 38q32 12 54 -8v-1q9 -9 11 -27q1 -9 -3 -33q-4 -26 -21 -72v-3.5t-1 -2.5q4 2 5 3q34 27 102 92q21 21 42 2zM926 438q6 -3 12 -11
q4 -5 4 -14q0 -8 -4 -15q-4 -6 -13 -11q-6 -3 -19 -3q-17 0 -23 3q-10 5 -14 12q-6 10 -6 18l13 1q2 -9 4 -12q4 -5 10 -8q8 -3 15 -3q1 0 13 3q6 2 9 6t3 8q0 5 -3 8t-9 6q-9 3 -18 5q-13 3 -19 6t-10 10q-4 8 -4 12q0 9 4 14q5 7 13 10t18 3q11 0 20 -3q8 -3 13 -11t5 -15
l-13 -1q-2 10 -7 14q-7 5 -17 5q-11 0 -18 -5q-5 -4 -5 -10t4 -9q4 -4 20 -7t22 -6zM968 473v12h79v-12h-33v-88h-13v88h-33zM1141 427v58h13v-58q0 -15 -3 -24q-3 -8 -12 -14q-7 -5 -23 -5q-15 0 -23 4t-13 14q-4 8 -4 25v58h13v-58q0 -13 3 -19q3 -7 8 -9q8 -4 14 -4
q14 0 21 7q6 6 6 25zM1258 476q7 -6 12 -17q4 -9 4 -24q0 -11 -3 -20q-4 -11 -6 -14q-5 -6 -9 -9q-6 -4 -12 -5q-10 -2 -16 -2h-36v100h34q10 0 18 -2q6 -1 14 -7zM1258 417q3 7 3 19t-6 24q-4 8 -12 11q-8 2 -17 2h-21v-76h21q8 0 16 2q5 1 9 5q3 3 7 13zM1323 385h-13v100
h13v-100zM1430 480q11 -6 17 -19q6 -12 6 -26q0 -15 -6 -27q-5 -11 -18 -18q-11 -6 -24 -6q-17 0 -25 6q-12 8 -17 19q-6 12 -6 25q0 24 14 38t34 14q15 0 25 -6zM1429 405q10 12 10 30q0 13 -4 21q-5 10 -12 14q-8 5 -18 5q-13 0 -24 -9q-10 -9 -10 -32q0 -17 10 -29
q10 -10 24 -10q15 0 24 10zM4520 722l374 -536h-748z" />
    <glyph glyph-name="a" unicode="a" horiz-adv-x="1062" 
d="M864 83q30 1 67.5 50t75.5 129q-81 -248 -218 -265q-83 -10 -157.5 25t-117.5 103q-307 -159 -456 -116q-81 24 -124 86q-37 54 -34 130q2 41 21.5 82t43 71.5t64.5 67t66 55.5t68 49q86 61 172 158.5t135 194.5v67q-2 64 -26 103t-73 36q-43 -2 -69.5 -46.5t-28.5 -99.5
t8 -107q-102 116 -126 148t3.5 66t97.5 57t157 23q50 0 96 -8.5t94 -33t83 -62.5t57 -102t22 -147l1 -575v-15.5t4.5 -33.5t13 -42.5t29.5 -33.5t51 -14zM159 252q21 -56 60.5 -87.5t88.5 -37.5t95.5 -0.5t96.5 21.5q-30 60 -30 128v586q-31 -51 -67.5 -104.5t-66 -93
t-60.5 -81.5t-53.5 -74.5t-41 -67t-27 -64.5t-8 -62t12.5 -63z" />
    <glyph glyph-name="b" unicode="b" horiz-adv-x="1120" 
d="M961 752q42 -133 45.5 -250.5t-23 -199.5t-72.5 -146t-97.5 -99t-103.5 -49q-62 -16 -118.5 0t-104 61t-84.5 96.5t-76 123.5v-290l-370 1q74 99 74 222v1185q0 29 -6 49t-12 29.5t-25 31.5t-31 38q118 -3 222 9q66 8 121.5 19t77.5 19l23 7q-74 -99 -74 -222v-325
q104 87 230 87q142 0 245 -109.5t159 -287.5zM702 40q61 20 79.5 107t0 206.5t-65.5 255.5q-39 110 -85.5 207.5t-103 171t-103.5 80.5q-37 5 -59.5 -0.5t-37.5 -26.5v-610q7 -44 29.5 -101t59.5 -115.5t80.5 -104t98.5 -66.5t107 -4z" />
    <glyph glyph-name="c" unicode="c" horiz-adv-x="1079" 
d="M529 91q138 -8 267.5 100t177.5 276q-8 -113 -49.5 -204.5t-106 -149t-145 -87t-168.5 -26.5q-129 4 -237.5 44.5t-181 107.5t-109 158t-26.5 193q10 111 57.5 208.5t117 166.5t155.5 123.5t175.5 86t173.5 48t153 15t112 -17.5q57 -22 17 -90q-22 -38 -125 -156
q-16 -18 -27 -31q8 30 7.5 66t-11 72.5t-34.5 63t-63 39t-96 -1.5q-40 -9 -84 -40.5t-87.5 -86t-77.5 -122t-53 -157t-15 -184.5q7 -169 91 -288.5t192 -125.5z" />
    <glyph glyph-name="d" unicode="d" horiz-adv-x="1150" 
d="M933 1387v-1165q0 -123 74 -222l-370 -1v88q-104 -87 -230 -87q-142 0 -245 109.5t-159 287.5q-42 133 -45.5 250.5t23 199.5t72.5 146t97.5 99t103.5 49q62 16 118.5 0t104 -61t84.5 -96.5t76 -123.5v494q0 102 -74 201q118 -3 222 9q66 8 121.5 19t77.5 19l23 7
q-74 -99 -74 -222zM637 108v611q-7 44 -29.5 101t-59.5 115t-80.5 103.5t-98.5 66.5t-107 4q-61 -20 -80 -107t-0.5 -207t66.5 -255q39 -110 85.5 -207.5t103 -171t103.5 -80.5q37 -5 59.5 0.5t37.5 26.5z" />
    <glyph glyph-name="e" unicode="e" horiz-adv-x="1042" 
d="M482 94q138 -8 268 103.5t177 283.5q-8 -117 -49.5 -211t-106 -153t-145 -89.5t-168.5 -27.5q-129 4 -237.5 46t-181 110.5t-109 162.5t-26.5 199q10 115 50.5 213t99 165.5t131 119.5t148.5 80.5t149 42t135 10t105 -20.5q176 -69 176 -247q0 -58 -23 -128.5
t-65.5 -138.5t-96 -124t-121.5 -90t-135 -32q-132 4 -157.5 133t64.5 330q11 16 10 9q0 -2 -1 -4q-17 -68 13 -139.5t94 -71.5q52 0 104.5 44.5t85.5 110.5t48 135t-7 125.5t-81 74.5q-36 11 -80 6q-42 -4 -89.5 -29.5t-97.5 -76t-88.5 -118t-60.5 -166.5t-15 -211
q10 -175 92.5 -297t190.5 -129z" />
    <glyph glyph-name="f" unicode="f" horiz-adv-x="778" 
d="M761 1637q57 -22 17 -90q-22 -38 -127 -157q-15 -18 -26 -30q6 22 1.5 93.5t-15.5 94.5q-26 54 -80.5 71t-103 -10t-57.5 -86l-1 -19v-354h199v-98h-199v-852q0 -102 74 -201h-444q74 99 74 222v831h-163v98h163v207q0 256 408 301q65 7 155 -0.5t125 -20.5z" />
    <glyph glyph-name="g" unicode="g" horiz-adv-x="1148" 
d="M1004 -21q69 -95 19 -222q-30 -78 -79.5 -153t-109.5 -128q-34 -30 -76 -59.5t-95 -56t-102.5 -42t-99 -13t-84.5 27.5q-45 32 -64.5 95.5t-15 136.5t18.5 139.5t35 120.5q8 22 18 32q11 11 10 7v-2q-14 -46 -1.5 -106.5t45.5 -115.5t82.5 -99t112 -58.5t132.5 7.5
q63 22 101 75t26 114q-9 52 -42.5 90.5t-74.5 59.5t-99.5 34t-104.5 17.5t-103 5.5q-13 0 -51.5 0.5t-58 1.5t-51 3.5t-57 9.5t-48.5 18q-56 27 -78.5 89t-11.5 128q19 117 105 235q3 6 14 18q-146 51 -231.5 148t-72.5 211q10 89 50.5 165t99 128t131 92.5t148.5 62.5
t149 32.5t135 7.5t105 -16q77 -23 126.5 -69.5t49.5 -121.5q0 -56 -37 -126t-96 -131t-142.5 -101.5t-166.5 -38.5q-132 3 -157 103t65 255q8 12 10 8q0 -1 -1 -4q-17 -52 13 -107.5t94 -55.5q86 0 163 84q70 76 79 159q9 92 -71 122q-10 3 -21 6q-36 8 -80 5
q-97 -8 -191.5 -92t-123.5 -182q-36 -119 -36 -183q0 -137 76 -234t183 -97q103 0 176.5 71t84.5 193q59 22 139.5 124.5t89.5 163.5q40 -77 51 -158.5t0 -136t-32 -86.5q-71 -108 -207 -175.5t-302 -67.5q-116 0 -229 35q-42 -31 -46 -77q-4 -60 45 -111q24 -26 54.5 -41.5
t71.5 -22t66 -7.5t73 -2q39 -1 77.5 0t79 -1t78.5 -5t76 -13t71.5 -25t65 -40t55.5 -58z" />
    <glyph glyph-name="h" unicode="h" horiz-adv-x="1142" 
d="M649 219v706v15.5t-4.5 33.5t-13.5 42.5t-30 33.5t-51 14q-39 -1 -84.5 -85t-80.5 -198t-58 -231v-328q0 -125 73 -222h-443q74 99 74 222v1086q0 102 -74 201q118 -3 222 9q66 8 121.5 19t77.5 19l23 7q-74 -99 -74 -222v-652q116 461 299 461q133 0 226 -75t93 -204
v-671q0 -57 18 -103t56 -97l-444 -3q74 99 74 222z" />
    <glyph glyph-name="i" unicode="i" horiz-adv-x="544" 
d="M401 1150q-74 -99 -74 -221v-707q0 -125 73 -222h-443q74 99 74 222v674q0 57 -18 103t-56 97q118 -2 222 10q66 8 121.5 19t77.5 18zM159 1193q-76 0 -129.5 53.5t-53.5 129.5t53.5 129.5t129.5 53.5t129.5 -53.5t53.5 -129.5t-53.5 -129.5t-129.5 -53.5z" />
    <glyph glyph-name="j" unicode="j" horiz-adv-x="579" 
d="M174 1193q-76 0 -129.5 53.5t-53.5 129.5t53.5 129.5t129.5 53.5t130 -53.5t54 -129.5t-54 -129.5t-130 -53.5zM213 1106q66 8 121.5 19t77.5 18l23 7q-74 -99 -74 -221v-1113q0 -132 -96.5 -213t-222.5 -66q-55 7 -100.5 46t-81 107.5t-62 146.5t-52.5 182
q39 -150 105 -272.5t115 -123.5q30 -1 51 13.5t30 35t13.5 41t4.5 35.5v14v1134q0 57 -18 103t-56 97q118 -2 222 10z" />
    <glyph glyph-name="k" unicode="k" horiz-adv-x="1245" 
d="M327 281v-59q0 -125 73 -222h-443q74 99 74 222v1086q0 102 -74 201q118 -3 222 9q66 8 121.5 19t77.5 19l23 7q-74 -99 -74 -222v-696l3 9q65 214 109 301q85 168 220 192l17 3q56 6 135.5 0.5t109.5 -17.5q57 -22 18 -89q-22 -37 -125 -154q-17 -20 -29 -34
q11 50 10 93t-24.5 77t-67.5 47q-38 12 -80 7q-4 0 -8.5 -1t-10 -2.5t-8.5 -2.5q-36 -10 -70 -55t-59.5 -103.5t-50 -137.5t-39 -140.5t-28.5 -128.5q-22 -110 -22 -228zM971 222q28 -8 53.5 -9.5t47.5 4t38 11t34 18.5t26 19.5t23.5 21.5t17.5 17q-22 -55 -36 -73
q-38 -51 -73 -88.5t-81.5 -74.5t-100.5 -56t-112 -17q-45 2 -85 22t-68 48.5t-53 70t-40.5 77.5t-31.5 81q-32 91 -47.5 199.5t-11 212.5t42 186t104.5 109q-14 -11 -25 -29t-20.5 -49.5t-7 -81.5t18.5 -112q28 -109 144 -319q80 -144 243 -188z" />
    <glyph glyph-name="l" unicode="l" horiz-adv-x="544" 
d="M327 1341v-1119q0 -125 73 -222h-443q74 99 74 222v1086q0 102 -74 201q118 -3 222 9q66 8 121.5 19t77.5 19l23 7q-74 -99 -74 -222z" />
    <glyph glyph-name="m" unicode="m" horiz-adv-x="1787" 
d="M1272 219v706v15.5t-4.5 33.5t-13.5 42.5t-30 33.5t-51 14q-40 -1 -87 -90.5t-83 -209.5t-58 -238v-326q0 -102 74 -201l-444 -2q74 99 74 222v706v15.5t-4.5 33.5t-13.5 42.5t-30 33.5t-51 14q-39 -1 -84.5 -85t-80.5 -198t-58 -231v-328q0 -125 73 -222h-443
q74 99 74 222v674q0 57 -18 103t-56 97q118 -2 222 10q66 8 121.5 19t77.5 18l23 7q-74 -99 -74 -221v-240q116 461 299 461q133 0 226 -75t93 -204v-202q117 481 304 481q133 0 226 -75t93 -204v-671q0 -57 18 -103t56 -97l-444 -3q74 99 74 222z" />
    <glyph glyph-name="n" unicode="n" horiz-adv-x="1163" 
d="M649 219v706v15.5t-4.5 33.5t-13.5 42.5t-30 33.5t-51 14q-39 -1 -84.5 -85t-80.5 -198t-58 -231v-328q0 -125 73 -222h-443q74 99 74 222v674q0 57 -18 103t-56 97q118 -2 222 10q66 8 121.5 19t77.5 18l23 7q-74 -99 -74 -221v-240q116 461 299 461q133 0 226 -75
t93 -204v-671q0 -57 18 -103t56 -97l-444 -3q74 99 74 222z" />
    <glyph glyph-name="o" unicode="o" horiz-adv-x="1120" 
d="M462 1148q150 0 278 -77t202.5 -209t74.5 -287t-74.5 -287t-202.5 -209t-278 -77t-278 77t-202 209t-74 287t74 287t202 209t278 77zM660 69q65 22 90.5 118t12.5 222.5t-56 251.5q-42 122 -117.5 229.5t-162 164t-151.5 34.5t-93.5 -118.5t-18 -224.5t52.5 -252
q41 -121 120.5 -228t168 -163t154.5 -34z" />
    <glyph glyph-name="p" unicode="p" horiz-adv-x="1060" 
d="M912 752q42 -133 45.5 -250.5t-23 -199.5t-72.5 -146t-97.5 -99t-103.5 -49q-61 -16 -117 -0.5t-103.5 59t-84.5 94.5t-75 121v-525q0 -123 74 -222h-443q74 99 74 222v1139q0 57 -18 103t-56 97q66 -1 144 3q70 5 136 24l90 27v-86q104 85 226 85q142 0 245 -109.5
t159 -287.5zM653 40q61 20 79.5 107t0 206.5t-65.5 255.5q-39 110 -85.5 207.5t-103 171t-103.5 80.5q-67 10 -93 -22v-636q11 -46 34.5 -101t60.5 -110t79.5 -96.5t94.5 -60.5t102 -2z" />
    <glyph glyph-name="q" unicode="q" horiz-adv-x="1101" 
d="M904 929v-1172q0 -123 74 -222h-443q74 99 74 222v310q-96 -67 -202 -67q-142 0 -245 109.5t-159 287.5q-42 133 -45.5 250.5t23 199.5t72.5 146t97.5 99t103.5 49q40 8 73.5 7.5t67 -16t61 -35.5t55 -51t50.5 -63t46 -71q-5 95 -72 184q118 -2 222 10q66 8 121 19t78 18
l22 7q-74 -99 -74 -221zM609 84v731q-24 60 -59.5 117t-80.5 104.5t-99.5 68.5t-107.5 4q-61 -20 -79.5 -107t0 -206.5t65.5 -255.5q39 -110 85.5 -207.5t103 -171t103.5 -80.5q42 -7 69 3z" />
    <glyph glyph-name="r" unicode="r" horiz-adv-x="1046" 
d="M897 1133q57 -22 17 -90q-22 -38 -127 -157q-15 -18 -26 -30q22 71 2 134.5t-85 82.5q-36 11 -80 6q-5 -1 -14.5 -3.5t-11.5 -2.5q-46 -13 -87 -62.5t-70.5 -122.5t-51 -150.5t-36.5 -160.5v-355q0 -125 73 -222h-443q74 99 74 222v674q0 57 -18 103t-56 97
q118 -2 222 10q66 8 121.5 19t77.5 18l23 7q-74 -99 -74 -221v-159q17 74 40.5 131.5t60 111t91 88.5t124.5 49h2q11 2 29 4q14 2 38 4h-1q110 4 186 -25z" />
    <glyph glyph-name="s" unicode="s" horiz-adv-x="933" 
d="M250 917q9 -54 49.5 -98.5t96 -76.5t120.5 -64t125 -70t106.5 -85t68 -119t6.5 -163t-93.5 -149.5t-194.5 -78t-250 -13.5t-270 37q-106 24 -31 159q22 40 86 128q0 -68 37.5 -139.5t101.5 -120t133 -48.5q102 0 145 57.5t41 166.5q-1 51 -23 94.5t-58 75t-82.5 59.5
t-96 53t-99 51.5t-92 59.5t-73 71.5t-44.5 92t-5 118.5q8 59 58.5 106.5t130 76.5t177 43.5t206 9.5t210.5 -28q32 -7 48 -23t14.5 -40t-9 -48t-28 -57.5t-36.5 -57t-41 -58.5q-2 -3 -3 -4q0 53 -12 103t-35 92.5t-63.5 69.5t-91.5 29q-123 5 -184.5 -52.5t-44.5 -159.5z
" />
    <glyph glyph-name="t" unicode="t" horiz-adv-x="696" 
d="M411 83q49 1 115.5 124t105.5 272q-26 -104 -52.5 -182t-62 -146.5t-81 -107.5t-100.5 -46q-126 -15 -222.5 66t-96.5 213v776h-132v98h27q108 5 224 92q52 39 115 107.5t99 117.5l37 49q-74 -99 -74 -222v-144h231v-98h-231v-830v-15.5t4.5 -33.5t13 -42.5t29.5 -33.5
t51 -14z" />
    <glyph glyph-name="u" unicode="u" horiz-adv-x="1120" 
d="M976 1150q-74 -99 -74 -221v-707q0 -123 74 -222h-444q74 99 74 222v332q-122 -557 -322 -557q-133 0 -226 75t-93 204v620q0 57 -18 103t-56 97q118 -2 222 10q66 8 121.5 19t77.5 18l23 7q-74 -99 -74 -221v-707v-15.5t4.5 -33.5t13.5 -42.5t30 -33.5t51 -14
q49 1 107.5 131t96.5 288.5t42 258.5v135q0 57 -18 103t-56 97q118 -2 222 10q66 8 121.5 19t78.5 18z" />
    <glyph glyph-name="v" unicode="v" horiz-adv-x="1185" 
d="M868 1091q62 8 115.5 23t75.5 26l22 11l-24 -15q-137 -85 -174 -239l-267 -897h-297l-323 896q-23 72 -51.5 118.5t-79.5 81.5q140 -2 242 10q64 8 117.5 19t75.5 19l21 7q-2 -3 -12 -20t-11.5 -20l-9 -18t-8 -21t-5 -20.5t-3.5 -25t1.5 -26.5t4 -33.5t8.5 -37.5
l276 -780l225 757q10 43 -8 83.5t-57 61.5l-84 45q13 -2 35 -4t86.5 -5.5t108.5 4.5z" />
    <glyph glyph-name="w" unicode="w" horiz-adv-x="1669" 
d="M1351 1091q62 8 115.5 22.5t75.5 25.5l22 11l-24 -14q-138 -86 -175 -240l-185 -897h-322l-170 638l-131 -638h-322l-239 897q-23 72 -51.5 118.5t-79.5 81.5q140 -2 242 10q64 8 117.5 19t75.5 18l21 7q-2 -4 -11.5 -20t-11.5 -20l-9 -18t-8.5 -20.5t-5 -20.5t-3 -25
t1 -26.5t4 -33t8.5 -37.5l204 -775l143 690l-14 52q-23 72 -51.5 118.5t-79.5 81.5q140 -2 242 10q123 14 203 41l8 4l-5 -3l8 3q-2 -3 -12 -20t-11.5 -20l-9 -18t-8 -21t-5 -20.5t-3.5 -25t1.5 -26.5t4 -33.5t8.5 -37.5l204 -775l156 752q11 43 -7 83.5t-57 61.5l-85 45
q14 -2 35.5 -4t86.5 -5.5t109 4.5z" />
    <glyph glyph-name="x" unicode="x" horiz-adv-x="1198" 
d="M520 0l31 32q50 51 10 145l-160 227l-103 -194q-29 -46 -15.5 -100t60.5 -83l44 -27h-443l116 62q69 36 111 103l178 314l-266 433q-71 92 -101 120q-42 38 -95 64q15 -2 39.5 -3.5t93 -3.5t107.5 5q64 8 118 22t75 24l22 10q-30 -44 -28 -89.5t46 -119.5l153 -228
l89 179q5 11 13 29.5t12.5 29t9.5 25.5t6 24t0 19.5t-7.5 18t-17.5 13.5l-85 45q14 -2 35.5 -4t86.5 -5.5t109 4.5q62 8 115 22.5t75 25.5l22 11l-24 -14q-138 -85 -199 -146q-44 -44 -92 -139l-96 -212l308 -465q54 -77 129 -127l71 -47h-553z" />
    <glyph glyph-name="y" unicode="y" horiz-adv-x="1183" 
d="M868 1091q62 8 115.5 22.5t75.5 25.5l22 11l-24 -14q-65 -41 -110.5 -103t-63.5 -137l-242 -814q-10 -33 -40 -137.5t-50 -174.5q-61 -205 -106 -283q-68 -116 -172 -169t-203 -4q-62 31 -91 88.5t-25.5 120t21.5 120t46 99.5q83 124 188 179t163 21q108 -63 38 -263
q-32 -92 -73 -150l-5 -6v1q13 53 -4.5 111.5t-55.5 98.5q-30 32 -66.5 49t-78 8.5t-72.5 -50.5q-44 -68 -29.5 -131.5t71.5 -110t126 -52.5q48 -4 85.5 16t65 56.5t54 101.5t48 135.5t51.5 175.5q12 45 19 68h-227l-323 896q-23 72 -51.5 118.5t-79.5 81.5q140 -2 242 10
q64 8 117.5 19t75.5 19l21 7q-2 -3 -12 -20t-11.5 -20l-9 -18t-8 -21t-5 -20.5t-3.5 -25t1.5 -26.5t4 -33.5t8.5 -37.5l276 -780l225 757q10 43 -8 83.5t-57 61.5l-84 45q13 -2 35 -4t86.5 -5.5t108.5 4.5z" />
    <glyph glyph-name="z" unicode="z" horiz-adv-x="1013" 
d="M826 180l41 42l-24 -221v-1l-861 -1v100l557 953h-343q-99 0 -167 -70l-52 -53l22 221h865v-54l-579 -997h344q116 0 197 81z" />
    <glyph glyph-name="braceleft" unicode="{" 
d="M2178 1189q40 -17 69 -63q28 -46 28 -132q0 -65 -14 -106q-16 -46 -40 -70q-17 -17 -50 -28q-30 -10 -85 -10h-118v420h116q63 0 94 -11zM2628 563q16 -11 23 -28q9 -22 9 -42q0 -38 -19 -58q-19 -21 -49 -21q-28 0 -48 21q-19 20 -19 55q0 44 20 64q19 19 48 19
q21 0 35 -10zM3943 1184q45 -28 67 -77q22 -48 22 -118q0 -105 -53 -164q-51 -57 -135 -57q-80 0 -134 57t-54 156q0 125 56 178t133 53q53 0 98 -28zM1458 1494h3324l-913 -1308h-2411q148 119 230.5 291t82.5 363q0 190 -82 362t-231 292zM2208 568h106v24h-132v-197h26
v89h92v24h-92v60zM2336 882q14 45 14 111q0 73 -21 130t-65 95q-33 28 -81 39q-35 8 -98 8h-190v-550h199q49 0 88 9q37 8 66 28q27 18 50 50t38 80zM2674 440q12 24 12 53q0 32 -11 53q-11 22 -34 36q-20 13 -49 13q-39 0 -67 -28q-26 -28 -26 -76q0 -25 11 -49
q13 -25 33 -37q22 -13 49 -13q26 0 48 12t34 36zM2452 715h410v65h-337v187h304v64h-304v169h325v65h-398v-550zM3032 395v197h-25v-155l-103 155h-26v-197h25v154l103 -154h26zM3310 568h65v24h-155v-24h64v-173h26v173zM3486 715v550h-98l-132 -383q-26 -78 -29 -88
q-5 18 -26 81l-131 390h-109v-550h70v468l159 -468h66l160 460v-460h70zM3978 739q63 35 95 100q34 65 34 150q0 82 -32 148q-32 65 -93 101q-62 36 -138 36q-116 0 -189 -77q-74 -79 -74 -214q0 -72 32 -138q32 -65 92 -102q62 -38 139 -38q73 0 134 34zM830 1680
q171 0 326.5 -66.5t268.5 -179t179.5 -268t66.5 -326.5t-66.5 -326.5t-179.5 -268t-268.5 -179t-326.5 -66.5t-326.5 66.5t-268 179t-179 268t-66.5 326.5t66.5 326.5t179 268t268 179t326.5 66.5zM830 102q200 0 370 99t269 269t99 370t-99 370t-269 269t-370 99t-370 -99
t-269 -269t-99 -370t99 -370t269 -269t370 -99zM1088 1267q-36 -81 -168.5 -325t-184.5 -388q-37 -103 -46 -191q-2 -21 3.5 -58t7.5 -56.5t-8 -44.5q-15 -25 -38.5 -21.5t-43 17t-36.5 33.5q-18 26 -19.5 69.5t13.5 100.5t36.5 118t56.5 135t67 137.5t74 139.5t71.5 127.5
t66.5 115.5t52 90q22 40 35 70t16.5 50.5t-4 27.5t-25.5 1t-50 -29t-75 -61q-172 -160 -443 -511q-71 -95 -189 -247q-23 -31 -43 -31q-30 0 -34 15v12q20 67 55.5 156.5t75.5 175t78.5 158t69.5 113t45 31.5v-4q-41 -96 -73 -166q-42 -91 -22 -112t95 67q24 28 99.5 121
t134.5 160t111 118q86 81 150.5 106.5t93 0.5t28.5 -84t-33 -137zM943 881q0 16 11.5 27.5t27.5 11.5t27 -11.5t11 -27.5t-11 -27t-27 -11t-27.5 11t-11.5 27zM1349 704q9 -8 10 -20t-7 -24l-1 -1q-76 -71 -99 -89q-35 -28 -62 -39q-18 -7 -30 -7q-15 0 -26 11
q-10 10 -12 33q-1 16 4 41q0 3 2 8t2 7q-44 -67 -73 -87q-18 -14 -47 -12q-15 0 -25 6q-13 8 -16 19v2v6v3q-73 -39 -128 -15h-1q-16 11 -20 24q-4 15 -3 33q3 32 21 75q26 64 62 114q20 31 48 20q12 -4 15 -18q3 -13 -7 -28q-43 -67 -59 -114q-6 -21 -6 -30l1 -5h1
q25 -4 65 24q42 29 63 72q61 169 224 572q15 41 41 44q11 2 20 -7q8 -8 11 -20v-3v-11v-2q-2 -8 -19 -55q-16 -45 -48 -126q-94 -238 -166 -418q12 15 26 29q30 30 51 38q31 12 53 -8v-1q9 -9 11 -27q1 -13 -2 -33q-4 -26 -21 -72l-2 -6q4 2 5 3q34 27 102 92q21 21 42 2z
M813 438q8 -4 13 -11q4 -5 4 -14q0 -7 -5 -15q-4 -6 -13 -11q-6 -3 -19 -3q-17 0 -23 3q-10 5 -14 12q-5 8 -5 18l12 1q2 -9 4 -12q4 -5 10 -8q7 -3 16 -3q1 0 13 3q6 2 9 6q2 3 2 8q0 6 -2 8q-3 3 -9 6q-9 3 -18 5q-13 3 -19 6q-7 3 -11 10q-3 6 -3 12q0 9 4 14q6 7 12 10
q7 3 19 3q10 0 19 -3q8 -3 13 -11t5 -15l-13 -1q-2 10 -7 14q-7 5 -17 5t-17 -5q-6 -4 -6 -10t4 -9q4 -4 20 -7t22 -6zM856 473v12h79v-12h-33v-88h-13v88h-33zM1029 427v58h13v-58q0 -15 -3 -24q-2 -7 -13 -14q-8 -5 -23 -5t-23 4q-7 3 -12 14q-4 8 -4 25v58h13v-58
q0 -15 2 -19q3 -6 9 -9q8 -4 14 -4q14 0 21 7q6 6 6 25zM1146 476q7 -6 12 -17q4 -9 4 -24q0 -11 -3 -20q-3 -8 -7 -14t-9 -9q-6 -4 -12 -5q-10 -2 -16 -2h-36v100h35q9 0 17 -2q7 -1 15 -7zM1145 417q3 7 3 19q0 14 -5 24q-4 8 -12 11q-8 2 -17 2h-21v-76h21q7 0 15 2
q5 1 9 5q3 3 7 13zM1210 385h-13v100h13v-100zM1317 480q11 -6 17 -19q6 -12 6 -26q0 -15 -6 -27t-17 -18t-24 -6q-18 0 -26 6q-10 7 -16 19t-6 25q0 25 13 38q14 14 35 14q13 0 24 -6zM1317 405q10 12 10 30q0 11 -5 21t-12 14q-8 5 -17 5q-13 0 -24 -9q-10 -9 -10 -32
q0 -18 9 -29q9 -10 24 -10q16 0 25 10zM4408 722l374 -536h-748z" />
    <glyph glyph-name="verticalbar" unicode="|" horiz-adv-x="5169" 
d="M2291 1190q41 -17 69 -62q28 -46 28 -133q0 -63 -15 -106q-16 -46 -40 -70q-17 -17 -49 -28q-30 -10 -86 -10h-117v420h116q63 0 94 -11zM2740 564q17 -12 24 -28q8 -19 8 -41q0 -39 -19 -59q-19 -21 -48 -21t-48 21q-19 20 -19 56q0 43 20 63q19 19 47 19q21 0 35 -10z
M4056 1185q43 -27 66 -77q23 -51 23 -117q0 -106 -53 -165q-51 -57 -135 -57q-81 0 -135 57q-53 56 -53 157q0 124 56 177t133 53q53 0 98 -28zM1571 1495h3323l-912 -1308h-2411q148 119 230 291t82 363t-82 362.5t-230 291.5zM2321 570h106v23h-132v-197h26v90h92v23h-92
v61zM2448 883q15 48 15 111q0 71 -22 131q-20 56 -65 94q-33 29 -81 39q-35 8 -97 8h-190v-550h199q49 0 88 9q37 8 66 28q27 18 50 50q21 30 37 80zM2787 441q12 24 12 53q0 30 -12 53t-33 36q-20 13 -49 13q-41 0 -68 -27q-26 -28 -26 -77q0 -25 11 -49q13 -24 34 -37
q22 -13 49 -13q25 0 48 12q22 12 34 36zM2565 716h410v65h-338v187h305v65h-305v168h325v65h-397v-550zM3145 396v197h-25v-154l-103 154h-27v-197h25v155l103 -155h27zM3423 570h65v23h-156v-23h65v-174h26v174zM3598 716v550h-98l-131 -383q-6 -17 -16.5 -47t-13.5 -41
q-7 24 -26 82l-130 389h-110v-550h71v468l159 -468h65l160 460v-460h70zM4090 740q64 36 96 100q34 65 34 150q0 82 -32 148q-31 64 -94 101t-137 37q-117 0 -190 -78q-73 -77 -73 -214q0 -74 31 -137q32 -66 93 -103t139 -37q74 0 133 33zM943 1682q171 0 326.5 -66.5
t268 -179.5t179 -268.5t66.5 -326.5t-66.5 -326.5t-179 -268t-268 -179t-326.5 -66.5t-326.5 66.5t-268.5 179t-179.5 268t-66.5 326.5t66.5 326.5t179.5 268.5t268.5 179.5t326.5 66.5zM943 103q200 0 370 99t269 269t99 370t-99 370t-269 269t-370 99t-370 -99t-269 -269
t-99 -370t99 -370t269 -269t370 -99zM1201 1268q-36 -81 -168.5 -325t-184.5 -388q-37 -103 -46 -191q-2 -21 3.5 -58t7 -56.5t-8.5 -44.5q-11 -17 -27 -20.5t-32.5 4.5t-31 19.5t-26.5 25.5q-18 26 -19.5 69.5t13.5 100.5t36.5 117.5t56.5 135t66.5 137.5t74 140t71.5 128
t66.5 115.5t51.5 89.5q33 60 45.5 98t3 50t-48 -10t-102.5 -79q-175 -163 -444 -511q-94 -126 -188 -247q-22 -30 -43 -30q-31 0 -35 14v12q20 67 55.5 156.5t75.5 175t78.5 158t69.5 113t45 31.5v-4q-41 -96 -73 -166q-41 -91 -21.5 -112t95.5 67q24 28 99.5 121t134.5 160
t111 118q86 81 150.5 106.5t93 0.5t28.5 -84t-33 -137zM1056 882q0 16 11 27.5t27 11.5t27.5 -11.5t11.5 -27.5t-11.5 -27t-27.5 -11t-27 11t-11 27zM1420 703q21 21 42 2t2 -43l-1 -1l-20.5 -20.5t-38.5 -36.5t-39 -33q-34 -27 -63 -39q-15 -6 -29 -6q-16 0 -26 10t-12 33
q-2 20 3 41q0 2 2 7t3 8q-43 -66 -74 -87q-18 -14 -47 -12q-14 0 -24 6q-13 8 -16 19v2v6v3q-73 -39 -128 -15h-1q-16 10 -20 25t-3 32q3 32 21 75q27 67 62 115q20 31 47 20q13 -5 16 -19q3 -13 -7 -28q-45 -70 -60 -114q-5 -17 -5 -30l1 -5q24 -3 66 25q42 29 63 72
q66 183 223 571q15 41 42 44q11 2 19 -6t11 -21q0 -1 1 -3v-11v-2q-2 -8 -19 -55q-17 -45 -48 -126q-94 -238 -166 -418q16 20 26 30q29 29 50 37q32 12 54 -8q9 -9 11 -28q1 -9 -3 -33q-4 -26 -21 -72v-3t-1 -3q2 1 5 4q41 33 102 91zM926 439q7 -4 12 -10q4 -5 4 -14
q0 -8 -4 -15q-4 -6 -13 -11q-8 -4 -19 -4q-15 0 -23 4q-11 5 -14 11q-6 10 -6 18l13 1q2 -9 4 -12q4 -5 10 -8q5 -2 15 -2q6 0 14 2q5 1 8 6t3 8q0 6 -3 9q-1 1 -9 5q-11 4 -17 5q-11 2 -20 7q-7 3 -10 9q-4 8 -4 12q0 9 4 14q5 7 13 10q10 4 18 4t20 -4q9 -3 13 -10
q5 -8 5 -16l-13 -1q-2 10 -7 14q-7 5 -17 5q-13 0 -18 -4t-5 -11q0 -6 4 -9q4 -4 20 -7t22 -6zM968 474v12h79v-12h-33v-88h-13v88h-33zM1141 428v58h14v-58q0 -11 -4 -23q-3 -9 -12 -15q-7 -5 -23 -5q-13 0 -23 5q-9 4 -13 13q-4 8 -4 25v58h13v-58q0 -13 3 -19q3 -7 8 -9
q6 -3 14 -3q15 0 21 6t6 25zM1258 477q7 -6 12 -17q4 -9 4 -23q0 -11 -3 -20q-4 -13 -6 -15q-5 -6 -9 -9q-6 -4 -12 -5q-10 -2 -16 -2h-36v100h34q10 0 18 -2q6 -1 14 -7zM1258 418q3 8 3 19q0 14 -5 24q-4 7 -13 11q-8 2 -17 2h-21v-76h21q8 0 16 2q5 1 9 5q3 3 7 13z
M1323 386h-13v100h13v-100zM1430 481q11 -6 17 -18t6 -27t-6 -27q-5 -11 -18 -18q-11 -6 -24 -6q-15 0 -25 7q-12 9 -17 18q-5 10 -5 25q0 26 13 39q14 14 34 14q13 0 25 -7zM1430 407q9 11 9 29q0 13 -4 21q-5 10 -12 14q-8 5 -18 5q-13 0 -24 -9q-10 -9 -10 -32
q0 -17 10 -29q9 -10 24 -10q16 0 25 11zM4520 723l375 -536h-749z" />
    </font>
</defs>
</svg>
